osu file format v14

[General]
AudioFilename: audio.mp3
AudioLeadIn: 0
PreviewTime: 72113
Countdown: 0
SampleSet: Soft
StackLeniency: 0.3
Mode: 0
LetterboxInBreaks: 0
WidescreenStoryboard: 0

[Editor]
DistanceSpacing: 0.51
BeatDivisor: 4
GridSize: 32
TimelineZoom: 2

[Metadata]
Title:Keelhauled
TitleUnicode:Keelhauled
Artist:Alestorm
ArtistUnicode:Alestorm
Creator:Camo
Version:GIVE NO QUARTER
Source:
Tags:captain morgans revenge black sails at midnight bottle of rum awesomemacd lecandy zelq gabdu09 heavy pirate folk english metal
BeatmapID:3144568
BeatmapSetID:1537993

[Difficulty]
HPDrainRate:5
CircleSize:4
OverallDifficulty:9.4
ApproachRate:9.6
SliderMultiplier:1.97
SliderTickRate:1

[Events]
//Background and Video events
0,0,"andrey-bakulin-06.jpg",0,0
//Break Periods
2,168450,169104
//Storyboard Layer 0 (Background)
//Storyboard Layer 1 (Fail)
//Storyboard Layer 2 (Pass)
//Storyboard Layer 3 (Foreground)
//Storyboard Layer 4 (Overlay)
//Storyboard Sound Samples

[TimingPoints]
250,272.727272727273,4,2,1,70,1,0
4068,-333.333333333333,4,2,1,70,0,0
4272,-333.333333333333,4,2,1,5,0,0
4340,-66.6666666666667,4,2,1,70,0,0
4545,-66.6666666666667,4,2,1,5,0,0
4613,-100,4,2,1,70,0,0
8704,-66.6666666666667,4,2,1,70,0,0
8909,-66.6666666666667,4,2,1,5,0,0
8977,-90.9090909090909,4,2,1,70,0,0
9181,-90.9090909090909,4,2,1,5,0,0
9250,-90.9090909090909,4,2,1,70,0,0
10818,-90.9090909090909,4,2,1,5,0,0
10886,-90.9090909090909,4,2,1,70,0,0
11704,-76.9230769230769,4,2,1,70,0,0
12250,-90.9090909090909,4,2,1,70,0,0
13000,-90.9090909090909,4,2,1,5,0,0
13068,-90.9090909090909,4,2,1,70,0,0
13545,-90.9090909090909,4,2,1,5,0,0
13613,-90.9090909090909,4,2,1,70,0,0
15181,-90.9090909090909,4,2,1,5,0,0
15250,-90.9090909090909,4,2,1,70,0,0
16068,-76.9230769230769,4,2,1,70,0,0
16613,-90.9090909090909,4,2,1,70,0,0
16886,-71.4285714285714,4,2,1,70,0,0
17431,-333.333333333333,4,2,1,70,0,0
17636,-333.333333333333,4,2,1,5,0,0
17704,-76.9230769230769,4,2,1,70,0,0
17909,-76.9230769230769,4,2,1,5,0,0
17977,-90.9090909090909,4,2,1,70,0,0
19545,-90.9090909090909,4,2,1,5,0,0
19613,-90.9090909090909,4,2,1,70,0,0
20431,-76.9230769230769,4,2,1,70,0,0
20977,-90.9090909090909,4,2,1,70,0,0
21727,-90.9090909090909,4,2,1,5,0,0
21795,-90.9090909090909,4,2,1,70,0,0
22068,-76.9230769230769,4,2,1,70,0,0
22272,-76.9230769230769,4,2,1,5,0,0
22340,-90.9090909090909,4,2,1,70,0,0
23909,-90.9090909090909,4,2,1,5,0,0
23977,-90.9090909090909,4,2,1,70,0,0
24795,-76.9230769230769,4,2,1,70,0,0
25340,-58.8235294117647,4,2,1,70,0,0
26159,-50,4,2,1,70,0,0
26363,-50,4,2,1,5,0,0
26431,-66.6666666666667,4,2,1,70,0,0
43613,-333.333333333333,4,2,1,70,0,0
43818,-333.333333333333,4,2,1,5,0,0
43886,-50,4,2,1,70,0,0
44022,-50,4,2,1,5,0,0
46068,-52.6315789473684,4,2,1,70,0,0
46204,-52.6315789473684,4,2,1,5,0,0
48250,-55.5555555555556,4,2,1,70,0,0
48386,-55.5555555555556,4,2,1,5,0,0
49340,-58.8235294117647,4,2,1,70,0,0
49477,-58.8235294117647,4,2,1,5,0,0
50431,-62.5,4,2,1,70,0,0
50568,-62.5,4,2,1,5,0,0
50977,-62.5,4,2,1,70,0,0
51113,-62.5,4,2,1,5,0,0
51522,-58.8235294117647,4,2,1,70,0,0
52613,-71.4285714285714,4,2,1,70,0,0
52818,-71.4285714285714,4,2,1,5,0,0
52886,-71.4285714285714,4,2,1,70,0,0
53909,-71.4285714285714,4,2,1,5,0,0
53977,-71.4285714285714,4,2,1,70,0,0
54181,-71.4285714285714,4,2,1,5,0,0
54250,-71.4285714285714,4,2,1,70,0,0
57590,-71.4285714285714,4,2,1,5,0,0
57659,-71.4285714285714,4,2,1,70,0,0
60181,-71.4285714285714,4,2,1,5,0,0
60250,-71.4285714285714,4,2,1,70,0,0
61340,-66.6666666666667,4,2,1,70,0,0
62772,-66.6666666666667,4,2,1,5,0,0
62840,-66.6666666666667,4,2,1,70,0,0
63250,-100,4,2,1,70,0,0
63522,-66.6666666666667,4,2,1,70,0,0
65431,-100,4,2,1,70,0,0
65704,-66.6666666666667,4,2,1,70,0,0
65909,-66.6666666666667,4,2,1,5,0,0
65977,-66.6666666666667,4,2,1,70,0,0
70068,-52.6315789473684,4,2,1,70,0,0
70272,-52.6315789473684,4,2,1,5,0,0
70340,-52.6315789473684,4,2,1,70,0,0
70818,-52.6315789473684,4,2,1,5,0,0
70886,-52.6315789473684,4,2,1,70,0,0
71363,-52.6315789473684,4,2,1,5,0,0
71431,-52.6315789473684,4,2,1,70,0,0
71704,-66.6666666666667,4,2,1,70,0,0
72250,-52.6315789473684,4,2,1,70,0,1
72454,-52.6315789473684,4,2,1,5,0,1
72522,-47.6190476190476,4,2,1,70,0,1
72727,-47.6190476190476,4,2,1,5,0,1
72795,-58.8235294117647,4,2,1,70,0,1
73340,-52.6315789473684,4,2,1,70,0,1
73545,-52.6315789473684,4,2,1,5,0,1
73613,-52.6315789473684,4,2,1,70,0,1
73818,-52.6315789473684,4,2,1,5,0,1
73886,-58.8235294117647,4,2,1,70,0,1
74431,-52.6315789473684,4,2,1,70,0,1
74636,-52.6315789473684,4,2,1,5,0,1
74704,-52.6315789473684,4,2,1,70,0,1
74909,-52.6315789473684,4,2,1,5,0,1
74977,-58.8235294117647,4,2,1,70,0,1
75522,-47.6190476190476,4,2,1,70,0,1
75727,-47.6190476190476,4,2,1,5,0,1
75795,-52.6315789473684,4,2,1,70,0,1
76000,-52.6315789473684,4,2,1,5,0,1
76068,-58.8235294117647,4,2,1,70,0,1
77636,-58.8235294117647,4,2,1,5,0,1
77704,-52.6315789473684,4,2,1,70,0,1
79886,-66.6666666666667,4,2,1,70,0,1
80431,-250,4,2,1,70,0,1
80636,-250,4,2,1,5,0,1
80704,-50,4,2,1,70,0,1
80909,-50,4,2,1,5,0,1
80977,-52.6315789473684,4,2,1,70,0,1
81181,-52.6315789473684,4,2,1,5,0,1
81250,-47.6190476190476,4,2,1,70,0,1
81454,-47.6190476190476,4,2,1,5,0,1
81522,-58.8235294117647,4,2,1,70,0,1
82068,-52.6315789473684,4,2,1,70,0,1
82272,-52.6315789473684,4,2,1,5,0,1
82340,-52.6315789473684,4,2,1,70,0,1
82545,-52.6315789473684,4,2,1,5,0,1
82613,-58.8235294117647,4,2,1,70,0,1
83159,-52.6315789473684,4,2,1,70,0,1
83363,-52.6315789473684,4,2,1,5,0,1
83431,-52.6315789473684,4,2,1,70,0,1
83636,-52.6315789473684,4,2,1,5,0,1
83704,-58.8235294117647,4,2,1,70,0,1
84250,-47.6190476190476,4,2,1,70,0,1
84454,-47.6190476190476,4,2,1,5,0,1
84522,-52.6315789473684,4,2,1,70,0,1
84727,-52.6315789473684,4,2,1,5,0,1
84795,-58.8235294117647,4,2,1,70,0,1
86363,-58.8235294117647,4,2,1,5,0,1
86431,-58.8235294117647,4,2,1,70,0,1
88613,-66.6666666666667,4,2,1,70,0,1
89159,-250,4,2,1,70,0,1
89363,-250,4,2,1,5,0,1
89431,-50,4,2,1,70,0,1
89636,-50,4,2,1,5,0,1
89704,-66.6666666666667,4,2,1,70,0,0
107159,-71.4285714285714,4,2,1,70,0,0
107363,-71.4285714285714,4,2,1,5,0,0
107431,-71.4285714285714,4,2,1,70,0,0
108181,-71.4285714285714,4,2,1,5,0,0
108250,-71.4285714285714,4,2,1,70,0,0
109545,-71.4285714285714,4,2,1,5,0,0
109613,-71.4285714285714,4,2,1,70,0,0
110636,-71.4285714285714,4,2,1,5,0,0
110704,-71.4285714285714,4,2,1,70,0,0
112545,-71.4285714285714,4,2,1,5,0,0
112613,-71.4285714285714,4,2,1,70,0,0
113909,-71.4285714285714,4,2,1,5,0,0
113977,-71.4285714285714,4,2,1,70,0,0
115613,-250,4,2,1,70,0,0
115818,-250,4,2,1,5,0,0
115886,-71.4285714285714,4,2,1,70,0,0
116090,-71.4285714285714,4,2,1,5,0,0
116159,-71.4285714285714,4,2,1,70,0,0
116909,-71.4285714285714,4,2,1,5,0,0
116977,-71.4285714285714,4,2,1,70,0,0
119090,-71.4285714285714,4,2,1,5,0,0
119159,-71.4285714285714,4,2,1,70,0,0
119772,-71.4285714285714,4,2,1,5,0,0
119840,-71.4285714285714,4,2,1,70,0,0
122636,-71.4285714285714,4,2,1,5,0,0
122704,-71.4285714285714,4,2,1,70,0,0
122909,-71.4285714285714,4,2,1,5,0,0
122977,-71.4285714285714,4,2,1,70,0,0
124613,-66.6666666666667,4,2,1,70,0,0
126045,-66.6666666666667,4,2,1,5,0,0
126113,-66.6666666666667,4,2,1,70,0,0
129181,-66.6666666666667,4,2,1,5,0,0
129250,-66.6666666666667,4,2,1,70,0,0
135522,-52.6315789473684,4,2,1,70,0,1
135727,-52.6315789473684,4,2,1,5,0,1
135795,-47.6190476190476,4,2,1,70,0,1
136000,-47.6190476190476,4,2,1,5,0,1
136068,-58.8235294117647,4,2,1,70,0,1
136545,-58.8235294117647,4,2,1,5,0,1
136613,-52.6315789473684,4,2,1,70,0,1
136818,-52.6315789473684,4,2,1,5,0,1
136886,-52.6315789473684,4,2,1,70,0,1
137090,-52.6315789473684,4,2,1,5,0,1
137159,-58.8235294117647,4,2,1,70,0,1
137704,-52.6315789473684,4,2,1,70,0,1
137909,-52.6315789473684,4,2,1,5,0,1
137977,-52.6315789473684,4,2,1,70,0,1
138181,-52.6315789473684,4,2,1,5,0,1
138250,-58.8235294117647,4,2,1,70,0,1
138795,-47.6190476190476,4,2,1,70,0,1
139000,-47.6190476190476,4,2,1,5,0,1
139068,-52.6315789473684,4,2,1,70,0,1
139340,-58.8235294117647,4,2,1,70,0,1
140909,-58.8235294117647,4,2,1,5,0,1
140977,-58.8235294117647,4,2,1,70,0,1
143159,-66.6666666666667,4,2,1,70,0,1
143704,-250,4,2,1,70,0,1
143909,-250,4,2,1,5,0,1
143977,-50,4,2,1,70,0,1
144181,-50,4,2,1,5,0,1
144250,-52.6315789473684,4,2,1,70,0,1
144454,-52.6315789473684,4,2,1,5,0,1
144522,-47.6190476190476,4,2,1,70,0,1
144727,-47.6190476190476,4,2,1,5,0,1
144795,-58.8235294117647,4,2,1,70,0,1
145340,-52.6315789473684,4,2,1,70,0,1
145545,-52.6315789473684,4,2,1,5,0,1
145613,-52.6315789473684,4,2,1,70,0,1
145818,-52.6315789473684,4,2,1,5,0,1
145886,-58.8235294117647,4,2,1,70,0,1
146431,-52.6315789473684,4,2,1,70,0,1
146636,-52.6315789473684,4,2,1,5,0,1
146704,-52.6315789473684,4,2,1,70,0,1
146909,-52.6315789473684,4,2,1,5,0,1
146977,-58.8235294117647,4,2,1,70,0,1
147522,-47.6190476190476,4,2,1,70,0,1
147727,-47.6190476190476,4,2,1,5,0,1
147795,-47.6190476190476,4,2,1,70,0,1
148068,-58.8235294117647,4,2,1,70,0,1
149636,-58.8235294117647,4,2,1,5,0,1
149704,-58.8235294117647,4,2,1,70,0,1
152090,-58.8235294117647,4,2,1,5,0,1
152159,-66.6666666666667,4,2,1,70,0,1
152704,-250,4,2,1,70,0,1
152909,-250,4,2,1,5,0,1
152977,-100,4,2,1,70,0,0
153318,-100,4,2,1,5,0,0
153386,-100,4,2,1,70,0,0
156454,-100,4,2,1,5,0,0
156522,-100,4,2,1,70,0,0
157681,-100,4,2,1,5,0,0
157750,-100,4,2,1,70,0,0
161159,-200,4,2,1,70,0,0
161704,-100,4,2,1,70,0,0
162045,-100,4,2,1,5,0,0
162113,-100,4,2,1,70,0,0
165181,-100,4,2,1,5,0,0
165250,-100,4,2,1,70,0,0
166409,-100,4,2,1,5,0,0
166477,-100,4,2,1,70,0,0
169613,-52.6315789473684,4,2,1,70,0,1
169818,-52.6315789473684,4,2,1,5,0,1
169886,-52.6315789473684,4,2,1,70,0,1
170090,-52.6315789473684,4,2,1,5,0,1
170159,-43.4782608695652,4,2,1,70,0,1
170363,-43.4782608695652,4,2,1,5,0,1
170431,-66.6666666666667,4,2,1,70,0,0
178886,-100,4,2,1,70,0,0
179022,-76.9230769230769,4,2,1,70,0,0
179159,-66.6666666666667,4,2,1,70,0,0
187886,-62.5,4,2,1,70,0,0
189318,-62.5,4,2,1,5,0,0
189386,-62.5,4,2,1,70,0,0
192454,-62.5,4,2,1,5,0,0
192522,-62.5,4,2,1,70,0,0
198795,-62.5,4,2,1,70,0,1
200295,-83.3333333333333,4,2,1,70,0,1
200431,-83.3333333333333,4,2,1,70,0,0
200977,-52.6315789473684,4,2,1,70,0,1
201181,-52.6315789473684,4,2,1,5,0,1
201250,-47.6190476190476,4,2,1,70,0,1
201454,-47.6190476190476,4,2,1,5,0,1
201522,-58.8235294117647,4,2,1,70,0,1
202068,-52.6315789473684,4,2,1,70,0,1
202272,-52.6315789473684,4,2,1,5,0,1
202340,-52.6315789473684,4,2,1,70,0,1
202545,-52.6315789473684,4,2,1,5,0,1
202613,-58.8235294117647,4,2,1,70,0,1
203159,-52.6315789473684,4,2,1,70,0,1
203363,-52.6315789473684,4,2,1,5,0,1
203431,-52.6315789473684,4,2,1,70,0,1
203636,-52.6315789473684,4,2,1,5,0,1
203704,-58.8235294117647,4,2,1,70,0,1
204250,-47.6190476190476,4,2,1,70,0,1
204454,-47.6190476190476,4,2,1,5,0,1
204522,-52.6315789473684,4,2,1,70,0,1
204795,-58.8235294117647,4,2,1,70,0,1
205000,-58.8235294117647,4,2,1,5,0,1
205068,-58.8235294117647,4,2,1,70,0,1
206363,-58.8235294117647,4,2,1,5,0,1
206431,-58.8235294117647,4,2,1,70,0,1
209159,-250,4,2,1,70,0,1
209363,-250,4,2,1,5,0,1
209431,-50,4,2,1,70,0,1
209636,-50,4,2,1,5,0,1
209704,-52.6315789473684,4,2,1,70,0,1
209909,-52.6315789473684,4,2,1,5,0,1
209977,-47.6190476190476,4,2,1,70,0,1
210181,-47.6190476190476,4,2,1,5,0,1
210250,-58.8235294117647,4,2,1,70,0,1
210795,-52.6315789473684,4,2,1,70,0,1
211000,-52.6315789473684,4,2,1,5,0,1
211068,-52.6315789473684,4,2,1,70,0,1
211272,-52.6315789473684,4,2,1,5,0,1
211340,-58.8235294117647,4,2,1,70,0,1
211886,-52.6315789473684,4,2,1,70,0,1
212090,-52.6315789473684,4,2,1,5,0,1
212159,-52.6315789473684,4,2,1,70,0,1
212363,-52.6315789473684,4,2,1,5,0,1
212431,-58.8235294117647,4,2,1,70,0,1
212977,-47.6190476190476,4,2,1,70,0,1
213181,-47.6190476190476,4,2,1,5,0,1
213250,-52.6315789473684,4,2,1,70,0,1
213454,-52.6315789473684,4,2,1,5,0,1
213522,-58.8235294117647,4,2,1,70,0,1
214068,-55.5555555555556,4,2,1,70,0,1
215090,-55.5555555555556,4,2,1,5,0,1
215159,-55.5555555555556,4,2,1,70,0,1
217340,-52.6315789473684,4,2,1,70,0,1
217545,-52.6315789473684,4,2,1,5,0,1
217613,-52.6315789473684,4,2,1,70,0,1
217818,-52.6315789473684,4,2,1,5,0,1
217886,-52.6315789473684,4,2,1,70,0,1
218431,-55.5555555555556,4,2,1,70,0,0
219522,-41.6666666666667,4,2,1,70,0,0
219727,-47.6190476190476,4,2,1,5,0,0
219795,-47.6190476190476,4,2,1,70,0,0
220000,-47.6190476190476,4,2,1,5,0,0
220068,-66.6666666666667,4,2,1,70,0,0

[Colours]
Combo1 : 0,64,128
Combo2 : 0,94,94
Combo3 : 113,113,113
Combo4 : 143,71,71

[HitObjects]
129,244,251,5,2,3:2:0:0:
14,225,386,1,0,0:0:0:0:
199,198,523,5,2,3:2:0:0:
205,209,659,1,0,0:0:0:0:
41,135,796,5,2,3:2:0:0:
4,23,931,1,0,0:0:0:0:
121,153,1069,5,2,3:2:0:0:
115,164,1205,1,0,0:0:0:0:
282,332,1341,5,2,3:2:0:0:
397,313,1476,1,0,0:0:0:0:
212,286,1613,5,2,3:2:0:0:
206,297,1749,1,0,0:0:0:0:
370,223,1886,5,2,3:2:0:0:
407,111,2021,1,0,0:0:0:0:
290,241,2159,5,2,3:2:0:0:
296,252,2295,1,0,0:0:0:0:
127,348,2431,5,2,3:3:0:0:
121,351,2499,1,2,0:3:0:0:
116,354,2567,1,2,0:3:0:0:
111,358,2635,1,2,0:3:0:0:
106,361,2704,1,2,3:3:0:0:
101,365,2771,1,2,0:3:0:0:
96,368,2840,1,2,0:3:0:0:
91,371,2908,1,2,0:3:0:0:
85,375,2977,5,2,3:3:0:0:
46,306,3113,1,2,0:3:0:0:
127,270,3250,5,2,3:3:0:0:
127,177,3387,1,2,0:3:0:0:
213,214,3522,5,2,3:3:0:0:
273,109,3659,1,2,0:3:0:0:
302,232,3795,5,2,3:3:0:0:
437,152,3932,1,2,0:3:0:0:
416,326,4068,6,0,L|430:279,1,44.3249986473084,2|0,3:3|0:0,0:0:0:0:
509,279,4340,6,0,L|276:353,1,221.625008454323,6|0,3:2|0:0,0:0:0:0:
225,383,4613,5,2,3:2:0:0:
85,334,4750,1,0,0:0:0:0:
222,287,4886,5,2,3:2:0:0:
228,298,5023,1,0,0:0:0:0:
31,267,5159,5,2,3:2:0:0:
0,147,5295,1,0,0:0:0:0:
122,245,5431,5,2,3:2:0:0:
116,256,5568,1,0,0:0:0:0:
13,66,5704,5,2,3:2:0:0:
133,0,5840,1,0,0:0:0:0:
86,122,5977,5,2,3:2:0:0:
75,116,6114,1,0,0:0:0:0:
236,0,6250,5,2,3:2:0:0:
351,47,6386,1,0,0:0:0:0:
188,78,6522,5,2,3:2:0:0:
184,65,6659,1,0,0:0:0:0:
372,158,6795,5,2,3:2:0:0:
242,177,6931,1,0,0:0:0:0:
438,73,7068,5,2,3:2:0:0:
433,85,7204,1,0,0:0:0:0:
314,236,7340,5,2,3:2:0:0:
159,166,7477,1,0,0:0:0:0:
403,248,7613,5,2,3:2:0:0:
409,260,7750,1,0,0:0:0:0:
193,236,7886,5,2,3:2:0:0:
168,91,8022,1,0,0:0:0:0:
254,300,8159,5,2,3:2:0:0:
249,312,8295,1,0,0:0:0:0:
109,231,8431,5,2,3:2:0:0:
268,95,8568,5,2,0:3:0:0:
272,101,8636,1,2,0:3:0:0:
276,107,8704,2,0,P|374:84|527:46,1,221.625008454323,2|0,0:3|0:0,0:0:0:0:
512,137,8977,6,0,P|492:227|462:396,1,216.700006613159,2|0,3:2|3:2,0:0:0:0:
469,349,9386,1,2,2:2:0:0:
197,218,9522,6,0,L|409:267,1,216.700006613159,2|0,3:2|3:2,0:0:0:0:
408,266,9931,1,2,2:2:0:0:
296,160,10068,5,2,3:2:0:0:
121,165,10204,1,2,2:2:0:0:
154,348,10340,5,2,3:2:0:0:
214,298,10477,1,2,2:2:0:0:
73,330,10613,6,0,P|49:248|16:130,1,162.52500495987,2|0,3:2|0:0,0:0:0:0:
28,173,10886,1,2,3:2:0:0:
220,148,11022,1,2,2:2:0:0:
175,0,11159,6,0,L|120:227,1,216.700006613159,2|2,3:2|3:2,0:0:0:0:
123,210,11568,1,2,2:2:0:0:
309,366,11704,6,0,P|223:381|222:239,1,256.099988276673,2|2,3:2|3:2,0:0:0:0:
209,246,12113,1,2,2:2:0:0:
406,301,12250,6,0,P|325:280|270:261,1,108.35000330658,2|0,3:2|0:0,0:0:0:0:
287,188,12522,2,0,P|338:203|391:216,1,108.35000330658,2|0,3:2|0:0,0:0:0:0:
478,65,12795,2,0,P|401:62|369:151,1,162.52500495987,2|0,3:2|0:0,0:0:0:0:
364,130,13068,1,2,3:2:0:0:
451,151,13204,1,2,2:2:0:0:
276,100,13340,6,0,L|15:154,1,216.700006613159,2|0,3:2|3:2,0:0:0:0:
63,144,13750,1,2,2:2:0:0:
221,17,13886,6,0,L|173:235,1,216.700006613159,2|0,3:2|3:2,0:0:0:0:
254,242,14295,1,2,2:2:0:0:
98,53,14431,5,2,3:2:0:0:
269,162,14568,1,2,2:2:0:0:
94,294,14704,5,2,3:2:0:0:
59,199,14840,1,2,2:2:0:0:
184,320,14977,6,0,P|293:346|388:371,1,162.52500495987,2|0,3:2|0:0,0:0:0:0:
341,358,15250,1,2,3:2:0:0:
423,331,15386,1,2,2:2:0:0:
181,327,15522,6,0,L|141:97,1,216.700006613159,2|2,3:2|3:2,0:0:0:0:
143,113,15931,1,2,2:2:0:0:
335,24,16068,6,0,P|344:117|229:67,1,256.099988276673,2|2,3:2|3:2,0:0:0:0:
229,82,16477,1,2,2:2:0:0:
1,18,16613,6,0,P|43:67|73:123,1,108.35000330658,2|0,3:2|0:0,0:0:0:0:
13,291,16886,6,0,P|40:267|83:267,1,68.9499978958131,2|0,3:2|0:0,0:0:0:0:
188,312,17022,1,0,0:0:0:0:
65,189,17159,6,0,P|101:191|131:221,1,68.9499978958131,2|0,3:2|0:0,0:0:0:0:
191,317,17295,1,0,0:0:0:0:
228,76,17431,6,0,L|211:27,1,44.3249986473084,2|0,3:2|0:0,0:0:0:0:
129,34,17704,6,0,L|347:88,1,192.074991207505,2|0,3:2|0:0,0:0:0:0:
315,80,17977,1,0,3:2:0:0:
511,70,18113,1,2,2:2:0:0:
423,7,18250,6,0,L|370:246,1,216.700006613159,2|0,3:2|3:2,0:0:0:0:
453,236,18659,1,2,2:2:0:0:
266,189,18795,5,2,3:2:0:0:
484,152,18931,1,2,2:2:0:0:
317,275,19068,5,2,3:2:0:0:
399,294,19204,1,2,2:2:0:0:
225,110,19340,6,0,B|136:131|189:179|89:201,1,162.52500495987,2|0,3:2|0:0,0:0:0:0:
96,200,19613,1,2,3:2:0:0:
22,186,19750,1,2,2:2:0:0:
120,57,19886,6,0,P|161:155|208:282,1,216.700006613159,2|2,3:2|3:2,0:0:0:0:
199,258,20295,1,2,2:2:0:0:
324,21,20431,6,0,B|376:73|376:73|182:21,1,256.099988276673,2|2,3:2|3:2,0:0:0:0:
199,25,20840,1,2,2:2:0:0:
330,249,20977,6,0,L|358:144,1,108.35000330658,2|0,3:2|0:0,0:0:0:0:
439,138,21250,2,0,L|410:242,1,108.35000330658,2|0,3:2|0:0,0:0:0:0:
252,256,21522,2,0,L|60:198,1,162.52500495987,2|0,3:2|0:0,0:0:0:0:
96,209,21795,1,2,3:2:0:0:
38,270,21931,1,2,2:2:0:0:
0,29,22068,6,0,P|82:39|92:167,1,192.074991207505,2|0,3:2|0:0,0:0:0:0:
112,133,22340,1,0,3:2:0:0:
33,155,22477,1,2,2:2:0:0:
114,297,22613,6,0,P|228:242|321:207,1,216.700006613159,2|0,3:2|3:2,0:0:0:0:
381,241,23022,1,2,2:2:0:0:
191,173,23159,5,2,3:2:0:0:
318,287,23295,1,2,2:2:0:0:
276,138,23431,5,2,3:2:0:0:
359,147,23568,1,2,2:2:0:0:
202,87,23704,6,0,P|132:68|-2:46,1,162.52500495987,2|0,3:2|0:0,0:0:0:0:
43,52,23977,1,2,3:2:0:0:
60,141,24113,1,2,2:2:0:0:
282,54,24250,6,0,P|374:29|502:4,1,216.700006613159,2|2,3:2|3:2,0:0:0:0:
493,5,24659,1,2,2:2:0:0:
343,264,24795,6,0,P|248:263|270:130,1,256.099988276673,0|2,3:2|3:2,0:0:0:0:
260,134,25204,1,2,2:2:0:0:
420,287,25340,5,6,3:2:0:0:
139,221,25477,1,8,0:2:0:0:
134,207,25545,1,8,0:2:0:0:
129,194,25613,5,10,0:2:0:0:
353,164,25750,1,8,0:3:0:0:
55,154,25886,1,8,0:3:0:0:
260,134,26022,1,12,0:3:0:0:
123,0,26159,6,0,L|68:315,1,295.5,14|0,2:2|0:0,0:0:0:0:
120,352,26431,6,0,L|278:321,1,147.750005636215,2|8,3:2|0:2,0:0:0:0:
39,363,26704,1,0,3:2:0:0:
334,366,26840,2,0,L|354:280,1,73.8750028181077,10|0,0:2|0:0,0:0:0:0:
249,96,26977,6,0,L|285:254,1,147.750005636215,2|8,3:2|0:2,0:0:0:0:
433,320,27250,1,0,3:2:0:0:
203,263,27386,5,10,0:2:0:0:
336,48,27522,5,2,3:2:0:0:
97,181,27659,1,10,0:2:0:0:
353,213,27795,1,2,3:2:0:0:
249,3,27931,1,10,0:2:0:0:
94,187,28068,6,0,L|126:355,1,147.750005636215,2|8,3:2|0:2,0:0:0:0:
158,119,28340,2,0,L|230:139,1,73.8750028181077,2|0,3:2|0:0,0:0:0:0:
71,99,28477,2,0,L|-18:74,1,73.8750028181077,10|0,0:2|0:0,0:0:0:0:
197,348,28613,6,0,P|267:322|360:296,1,147.750005636215,2|8,3:2|0:2,0:0:0:0:
35,308,28886,1,2,3:2:0:0:
53,384,29022,1,10,0:2:0:0:
344,310,29159,2,0,P|273:330|203:356,1,147.750005636215,2|8,3:2|0:2,0:0:0:0:
410,375,29431,1,2,3:2:0:0:
430,288,29568,1,10,0:2:0:0:
223,147,29704,6,0,B|241:187|204:231|198:211|162:242|181:290,1,147.750005636215,2|8,3:2|0:2,0:0:0:0:
321,124,29977,5,2,3:2:0:0:
97,184,30113,1,8,0:2:0:0:
272,54,30250,5,2,3:2:0:0:
88,271,30386,1,8,0:2:0:0:
192,9,30522,6,0,B|159:32|159:32|169:81,1,73.8750028181077,6|0,3:2|0:0,0:0:0:0:
273,384,30659,2,0,B|306:361|306:361|296:312,1,73.8750028181077,10|0,0:2|0:0,0:0:0:0:
269,49,30795,6,0,L|194:375,1,295.500011272431,6|0,3:2|3:2,0:0:0:0:
349,210,31204,2,0,L|429:188,1,73.8750028181077,10|0,0:2|0:0,0:0:0:0:
114,349,31340,6,0,P|39:352|22:279,1,147.750005636215,2|8,3:2|0:2,0:0:0:0:
103,186,31613,1,2,3:2:0:0:
269,381,31750,5,10,0:2:0:0:
24,216,31886,5,2,3:2:0:0:
259,172,32022,1,10,0:2:0:0:
35,136,32159,1,2,3:2:0:0:
256,305,32295,1,10,0:2:0:0:
142,29,32431,6,0,P|172:133|182:173,1,147.750005636215,2|8,3:2|0:2,0:0:0:0:
334,329,32704,6,0,P|370:324|401:285,1,73.8750028181077,2|0,3:2|0:0,0:0:0:0:
463,338,32840,2,0,P|476:304|458:257,1,73.8750028181077,10|0,0:2|0:0,0:0:0:0:
512,0,32977,6,0,P|432:78|372:148,1,147.750005636215,2|8,3:2|0:2,0:0:0:0:
512,204,33250,1,2,3:2:0:0:
335,27,33386,1,10,0:2:0:0:
257,301,33522,5,2,3:2:0:0:
255,308,33590,1,0,3:2:0:0:
253,315,33659,1,8,0:2:0:0:
106,192,33795,5,2,3:2:0:0:
102,178,33863,1,0,3:2:0:0:
98,165,33932,1,10,0:2:0:0:
335,321,34068,5,2,3:2:0:0:
343,352,34136,1,0,3:2:0:0:
352,381,34205,1,8,0:2:0:0:
10,180,34340,5,2,3:2:0:0:
19,145,34409,1,0,3:2:0:0:
29,109,34477,1,8,0:2:0:0:
291,180,34613,5,6,3:2:0:0:
242,161,34681,1,0,3:2:0:0:
194,182,34750,1,8,0:2:0:0:
172,230,34818,1,8,0:2:0:0:
183,280,34886,1,10,0:2:0:0:
181,331,34954,1,8,0:2:0:0:
145,368,35022,1,8,0:2:0:0:
95,384,35090,1,8,0:2:0:0:
51,356,35159,6,0,P|84:223|118:66,1,295.500011272431,6|0,3:2|3:2,0:0:0:0:
76,178,35568,2,0,L|95:262,1,73.8750028181077,10|0,0:2|0:0,0:0:0:0:
271,384,35704,6,0,P|351:350|343:280,1,147.750005636215,2|8,3:2|0:2,0:0:0:0:
330,142,35977,1,0,3:2:0:0:
167,325,36113,5,10,0:2:0:0:
399,215,36250,5,2,3:2:0:0:
216,241,36386,1,10,0:2:0:0:
431,371,36522,1,2,3:2:0:0:
237,147,36659,1,10,0:2:0:0:
481,301,36795,6,0,P|493:229|516:139,1,147.750005636215,2|8,3:2|0:2,0:0:0:0:
512,384,37068,1,2,3:2:0:0:
308,235,37204,1,10,0:2:0:0:
512,72,37340,6,0,P|434:96|353:103,1,147.750005636215,2|8,3:2|0:2,0:0:0:0:
161,55,37613,1,2,3:2:0:0:
269,6,37750,1,10,0:2:0:0:
218,264,37886,6,0,P|235:176|272:108,1,147.750005636215,2|8,3:2|0:2,0:0:0:0:
121,293,38159,1,2,3:2:0:0:
199,370,38295,1,10,0:2:0:0:
14,110,38431,6,0,P|110:153|154:215,1,147.750005636215,2|8,3:2|0:2,0:0:0:0:
284,356,38704,5,2,3:2:0:0:
36,298,38840,1,8,0:2:0:0:
231,288,38977,5,6,3:2:0:0:
88,371,39113,1,8,0:2:0:0:
309,277,39250,6,0,P|332:248|371:235,1,73.8750028181077,2|0,3:2|0:0,0:0:0:0:
441,227,39386,2,0,P|477:222|514:241,1,73.8750028181077,10|0,0:2|0:0,0:0:0:0:
428,367,39522,6,0,P|389:184|345:35,1,295.500011272431,6|0,3:2|3:2,0:0:0:0:
479,32,39931,2,0,P|466:78|462:106,1,73.8750028181077,10|0,0:2|0:0,0:0:0:0:
304,272,40068,6,0,P|282:169|257:85,1,147.750005636215,2|8,3:2|0:2,0:0:0:0:
123,14,40340,1,0,3:2:0:0:
278,38,40477,5,10,0:2:0:0:
44,314,40613,5,2,3:2:0:0:
190,123,40750,1,10,0:2:0:0:
0,217,40886,1,2,3:2:0:0:
206,289,41022,1,10,0:2:0:0:
33,51,41159,6,0,P|79:138|100:199,1,147.750005636215,2|8,3:2|0:2,0:0:0:0:
212,367,41431,6,0,P|247:362|272:327,1,73.8750028181077,2|0,3:2|0:0,0:0:0:0:
352,345,41568,2,0,P|358:310|332:275,1,73.8750028181077,10|0,0:2|0:0,0:0:0:0:
256,111,41704,5,6,3:2:0:0:
133,339,41840,1,10,0:2:0:0:
412,168,41977,2,0,L|253:208,1,147.750005636215,2|8,3:2|0:2,0:0:0:0:
425,303,42250,5,2,3:2:0:0:
218,266,42386,1,10,0:2:0:0:
51,340,42522,1,2,3:2:0:0:
188,175,42659,5,8,0:2:0:0:
191,183,42727,1,0,0:0:0:0:
194,191,42795,1,2,3:2:0:0:
282,5,42931,1,8,0:2:0:0:
302,119,43068,5,2,3:2:0:0:
189,66,43204,1,8,0:2:0:0:
92,136,43340,5,2,3:2:0:0:
304,223,43477,1,8,0:2:0:0:
105,368,43613,6,0,L|85:317,1,44.3249986473084,6|0,3:2|0:0,0:0:0:0:
4,326,43886,6,0,L|228:383,1,197,6|0,3:2|0:0,0:0:0:0:
512,46,46068,6,0,L|321:-2,1,187.149995002556,6|0,3:2|0:0,0:0:0:0:
62,262,48250,6,0,L|286:319,1,177.299994589234,6|0,3:2|0:0,0:0:0:0:
465,112,49340,6,0,L|274:63,1,167.450003193855,6|0,3:2|0:0,0:0:0:0:
112,197,50431,6,0,L|336:254,1,157.6,6|0,3:2|0:0,0:0:0:0:
420,183,50977,6,0,L|229:134,1,157.6,6|0,3:2|0:0,0:0:0:0:
48,43,51522,6,0,B|18:69|18:69|146:44,1,167.450003193855,6|10,3:2|0:2,0:0:0:0:
143,44,51727,1,8,0:2:0:0:
143,44,51795,1,8,0:2:0:0:
370,95,51931,1,10,0:2:0:0:
77,252,52068,5,8,0:2:0:0:
263,71,52204,1,8,0:2:0:0:
201,287,52340,1,8,0:2:0:0:
17,144,52477,1,8,0:2:0:0:
346,251,52613,6,0,P|242:307|132:374,1,206.849993687439,6|0,3:2|0:0,0:0:0:0:
97,380,52886,2,0,P|63:368|52:334,1,68.9499978958131,10|0,0:2|0:0,0:0:0:0:
147,215,53022,2,0,P|250:279|407:387,1,275.799991583252,2|0,2:2|3:2,0:0:0:0:
512,205,53431,2,0,P|443:212|428:274,1,137.899995791626,10|0,0:2|3:2,0:0:0:0:
202,38,53704,6,0,B|323:60|225:142|379:160,1,206.849993687439,2|0,3:2|0:0,0:0:0:0:
368,71,53977,2,0,L|142:136,1,206.849993687439,10|0,0:2|0:0,0:0:0:0:
169,128,54250,1,0,3:2:0:0:
95,101,54386,1,0,3:2:0:0:
316,5,54522,5,10,0:2:0:0:
205,208,54659,1,0,3:2:0:0:
0,33,54795,6,0,P|21:109|40:203,1,137.899995791626,2|0,3:2|0:0,0:0:0:0:
261,354,55068,2,0,P|275:286|294:220,1,137.899995791626,10|0,0:2|0:0,0:0:0:0:
183,381,55340,1,2,3:2:0:0:
364,184,55477,2,0,P|427:171|512:142,2,137.899995791626,2|8|0,3:2|0:2|3:2,0:0:0:0:
130,180,55886,5,2,3:2:0:0:
330,10,56022,2,0,P|309:66|294:160,1,137.899995791626,2|8,2:2|0:2,0:0:0:0:
213,7,56295,1,2,2:2:0:0:
376,109,56431,1,0,3:2:0:0:
219,189,56568,1,0,3:2:0:0:
121,15,56704,5,10,0:2:0:0:
409,36,56840,1,0,3:2:0:0:
204,111,56977,6,0,L|35:78,1,137.899995791626,2|2,3:2|2:2,0:0:0:0:
279,70,57250,1,8,0:2:0:0:
16,0,57386,2,0,L|82:248,1,206.849993687439,2|0,2:2|0:0,0:0:0:0:
69,199,57659,1,2,3:2:0:0:
6,364,57795,2,0,L|146:322,1,137.899995791626,8|0,0:2|3:2,0:0:0:0:
246,246,58068,6,0,L|217:406,2,137.899995791626,2|2|8,3:2|2:2|0:2,0:0:0:0:
326,384,58477,2,0,P|403:359|387:277,1,137.899995791626,2|0,2:2|3:2,0:0:0:0:
474,145,58750,1,0,3:2:0:0:
192,179,58886,6,0,L|280:156,1,68.9499978958131,10|0,0:2|0:0,0:0:0:0:
331,140,59022,2,0,L|419:117,1,68.9499978958131,0|0,3:2|0:0,0:0:0:0:
419,206,59159,6,0,L|167:96,1,275.799991583252,2|10,3:2|0:2,0:0:0:0:
478,143,59568,1,0,0:0:0:0:
119,262,59704,2,0,B|69:212|69:212|109:136,1,137.899995791626,2|0,3:2|3:2,0:0:0:0:
349,261,59977,2,0,L|152:341,1,206.849993687439,10|0,0:2|0:0,0:0:0:0:
157,338,60250,5,2,3:2:0:0:
71,331,60386,1,2,2:2:0:0:
254,74,60522,2,0,L|220:227,1,137.899995791626,8|2,0:2|2:2,0:0:0:0:
423,297,60795,5,12,0:2:0:0:
140,244,60931,1,8,0:2:0:0:
134,235,61000,1,8,0:2:0:0:
128,226,61068,1,10,0:2:0:0:
317,196,61204,1,8,0:2:0:0:
62,40,61340,6,0,P|121:66|149:152,1,147.750005636215,6|8,3:2|0:2,0:0:0:0:
368,383,61613,2,0,P|294:335|286:268,1,147.750005636215,2|8,3:2|0:2,0:0:0:0:
308,95,61886,5,2,3:2:0:0:
63,172,62022,1,8,0:2:0:0:
367,39,62159,5,2,3:2:0:0:
222,205,62295,1,8,0:2:0:0:
460,97,62431,6,0,P|427:102|383:123,1,73.8750028181077,2|0,3:2|0:0,0:0:0:0:
407,219,62568,6,0,P|424:110|459:5,1,221.625008454323,10|0,0:2|0:0,0:0:0:0:
459,4,62840,1,10,0:2:0:0:
312,254,62977,5,0,3:2:0:0:
512,179,63113,1,8,0:2:0:0:
179,121,63250,6,0,L|130:131,1,49.25,6|0,3:2|0:0,0:0:0:0:
256,105,63386,2,0,L|305:95,1,49.25,8|0,0:2|0:0,0:0:0:0:
42,331,63522,6,0,L|75:163,1,147.750005636215,6|10,3:2|0:2,0:0:0:0:
111,375,63795,1,0,3:2:0:0:
0,59,63931,2,0,B|-19:85|-19:85|131:53,1,147.750005636215,10|0,0:2|3:2,0:0:0:0:
299,176,64204,2,0,L|149:211,1,147.750005636215,10|0,0:2|3:2,0:0:0:0:
366,217,64477,1,10,0:2:0:0:
368,143,64613,5,0,3:2:0:0:
134,290,64750,1,8,0:2:0:0:
309,101,64886,5,0,3:2:0:0:
176,361,65022,1,8,0:2:0:0:
434,179,65159,5,0,3:2:0:0:
203,112,65295,1,8,0:2:0:0:
419,272,65431,6,0,P|457:255|498:245,1,49.25,4|0,3:2|0:0,0:0:0:0:
345,376,65568,2,0,P|353:352|363:330,1,49.25,8|0,0:2|0:0,0:0:0:0:
494,338,65704,6,0,L|217:248,1,221.625008454323,2|0,3:2|0:0,0:0:0:0:
219,315,65977,2,0,B|194:289|194:289|209:241,1,73.8750028181077,2|0,3:2|0:0,0:0:0:0:
373,126,66113,6,0,P|367:46|296:67,1,147.750005636215,10|0,0:2|3:2,0:0:0:0:
259,196,66386,1,10,0:2:0:0:
457,144,66522,1,0,3:2:0:0:
181,181,66659,6,0,L|16:138,1,147.750005636215,10|0,0:2|3:2,0:0:0:0:
267,113,66931,1,10,0:2:0:0:
267,113,67000,1,0,0:0:0:0:
267,113,67068,1,0,3:2:0:0:
29,293,67204,2,0,L|13:216,1,73.8750028181077,10|0,0:2|0:0,0:0:0:0:
77,61,67340,1,0,3:2:0:0:
205,252,67477,5,8,0:2:0:0:
3,75,67613,1,4,3:2:0:0:
3,75,67681,1,0,0:0:0:0:
3,75,67750,1,10,0:2:0:0:
174,336,67886,5,6,3:2:0:0:
317,296,68022,1,10,0:2:0:0:
119,282,68159,1,0,3:2:0:0:
119,282,68227,1,0,3:2:0:0:
119,282,68295,2,0,L|99:191,1,73.8750028181077,10|0,0:2|0:0,0:0:0:0:
7,80,68431,1,0,3:2:0:0:
9,70,68500,1,0,3:2:0:0:
11,60,68568,1,10,0:2:0:0:
177,158,68704,1,0,3:2:0:0:
174,172,68773,1,0,3:2:0:0:
171,186,68841,1,8,0:2:0:0:
90,35,68977,6,0,L|177:18,1,73.8750028181077,2|0,3:2|3:2,0:0:0:0:
349,45,69113,1,8,0:2:0:0:
68,133,69250,1,2,3:2:0:0:
50,149,69318,1,0,0:0:0:0:
33,166,69386,1,8,0:2:0:0:
210,273,69522,6,0,P|247:252|246:195,1,73.8750028181077,2|0,3:2|3:2,0:0:0:0:
224,79,69659,1,8,0:2:0:0:
61,288,69795,1,0,3:2:0:0:
83,307,69863,1,0,3:2:0:0:
105,326,69931,1,8,0:2:0:0:
456,202,70068,6,0,B|506:165|481:83|358:96|377:208|267:143,1,280.724992503834,2|0,3:2|0:0,0:0:0:0:
272,146,70340,1,6,3:2:0:0:
489,49,70477,1,0,0:0:0:0:
378,296,70613,6,0,P|366:154|324:18,1,280.724992503834,2|0,3:2|0:0,0:0:0:0:
325,22,70886,1,6,3:2:0:0:
461,208,71022,1,0,0:0:0:0:
193,266,71159,6,0,B|267:235|328:307|272:323|332:403|423:367,1,280.724992503834,2|0,3:2|0:0,0:0:0:0:
420,367,71431,1,6,3:2:0:0:
220,339,71568,1,0,0:0:0:0:
333,221,71704,5,10,0:2:0:0:
304,177,71772,1,8,0:2:0:0:
259,151,71840,1,8,0:2:0:0:
206,145,71909,1,8,0:2:0:0:
155,136,71977,1,10,0:2:0:0:
108,114,72045,1,8,0:2:0:0:
80,70,72113,1,8,0:2:0:0:
90,19,72181,1,8,0:2:0:0:
131,0,72250,6,0,P|102:119|65:289,1,280.724992503834,6|0,3:2|0:0,0:0:0:0:
3,197,72522,6,0,B|-16:160|3:114|46:102|81:117|93:138|95:145|100:152|116:181|165:187|199:157|203:119|188:93,1,310.274990531159,10|0,0:2|0:0,0:0:0:0:
268,15,72795,6,0,P|294:99|368:56,1,167.450003193855,0|0,3:2|3:2,0:0:0:0:
450,3,73068,5,10,0:2:0:0:
264,171,73204,1,0,0:0:0:0:
512,308,73340,6,0,P|396:278|422:130,1,280.724992503834,2|0,3:2|0:0,0:0:0:0:
512,206,73613,6,0,P|408:242|285:381,1,280.724992503834,10|0,0:2|0:0,0:0:0:0:
217,384,73886,6,0,P|148:325|190:250,1,167.450003193855,2|0,3:2|3:2,0:0:0:0:
383,373,74159,5,10,0:2:0:0:
104,220,74295,1,2,0:2:0:0:
290,70,74431,6,0,B|368:111|343:229|343:229|311:178|258:185,1,280.724992503834,2|0,3:2|0:0,0:0:0:0:
275,273,74704,6,0,L|344:-5,1,280.724992503834,10|0,0:2|0:0,0:0:0:0:
149,0,74977,6,0,L|185:173,1,167.450003193855,2|0,3:2|3:2,0:0:0:0:
352,285,75250,5,10,0:2:0:0:
60,118,75386,1,2,0:2:0:0:
105,366,75522,6,0,P|186:272|374:203,1,310.274990531159,2|0,3:2|0:0,0:0:0:0:
426,164,75795,6,0,P|473:77|322:107,1,280.724992503834,10|0,0:2|3:2,0:0:0:0:
306,123,76068,6,0,P|241:116|161:26,1,167.450003193855,6|0,3:2|3:2,0:0:0:0:
360,208,76340,5,8,0:2:0:0:
53,271,76477,1,0,0:0:0:0:
297,314,76613,6,0,P|206:282|219:194,1,167.450003193855,2|0,3:2|0:0,0:0:0:0:
365,214,76886,2,0,P|345:311|336:392,1,167.450003193855,10|0,0:2|0:0,0:0:0:0:
31,179,77159,5,2,3:2:0:0:
283,218,77295,1,0,3:2:0:0:
103,85,77431,2,0,L|139:335,1,251.175004790783,10|0,0:2|0:0,0:0:0:0:
61,372,77704,6,0,L|33:172,1,187.149995002556,2|0,3:2|0:0,0:0:0:0:
197,23,77977,1,10,0:2:0:0:
19,94,78113,1,0,0:0:0:0:
206,222,78250,2,0,P|298:187|286:88,1,187.149995002556,2|0,3:2|3:2,0:0:0:0:
88,10,78522,5,14,0:2:0:0:
436,102,78659,1,2,0:2:0:0:
119,216,78795,5,2,3:2:0:0:
297,20,78931,1,2,0:2:0:0:
368,283,79068,1,10,0:2:0:0:
114,135,79204,5,0,0:0:0:0:
114,135,79272,1,0,0:0:0:0:
114,135,79340,2,0,L|308:107,1,187.149995002556,2|0,3:2|3:2,0:0:0:0:
38,185,79613,1,10,0:2:0:0:
219,41,79750,1,10,0:2:0:0:
81,278,79886,5,2,3:2:0:0:
95,313,79954,1,0,3:2:0:0:
109,348,80022,2,0,L|142:254,1,73.8750028181077,0|0,3:2|3:2,0:0:0:0:
82,34,80159,5,2,3:2:0:0:
75,28,80227,1,0,3:2:0:0:
83,26,80295,1,0,3:2:0:0:
76,20,80363,1,0,3:2:0:0:
84,15,80431,6,0,L|70:74,1,59.1,2|0,3:2|0:0,0:0:0:0:
0,4,80704,6,0,B|20:28|20:28|287:108,1,295.5,12|0,0:2|0:0,0:0:0:0:
349,84,80977,6,0,B|391:105|430:194|430:194|431:101|465:56,1,280.724992503834,6|0,3:2|0:0,0:0:0:0:
512,136,81250,6,0,P|391:156|111:225,1,310.274990531159,10|0,0:2|0:0,0:0:0:0:
147,251,81522,6,0,P|177:344|260:292,1,167.450003193855,0|0,3:2|3:2,0:0:0:0:
133,174,81795,5,10,0:2:0:0:
54,381,81931,1,0,0:0:0:0:
316,243,82068,6,0,B|375:197|447:232|447:232|377:303|455:385,1,280.724992503834,2|0,3:2|0:0,0:0:0:0:
512,338,82340,6,0,L|179:252,1,280.724992503834,10|0,0:2|0:0,0:0:0:0:
221,192,82613,6,0,P|234:126|307:170,1,167.450003193855,2|0,3:2|3:2,0:0:0:0:
167,250,82886,5,10,0:2:0:0:
380,143,83022,1,2,0:2:0:0:
51,0,83159,6,0,B|164:-42|241:70|160:145|77:76,1,280.724992503834,2|0,3:2|0:0,0:0:0:0:
0,54,83431,6,0,L|309:10,1,280.724992503834,10|0,0:2|0:0,0:0:0:0:
374,0,83704,6,0,B|417:69|417:69|368:159,1,167.450003193855,2|0,3:2|3:2,0:0:0:0:
183,108,83977,5,10,0:2:0:0:
473,2,84113,1,2,0:2:0:0:
265,298,84250,6,0,B|296:213|368:209|433:234|433:234|381:275|379:325,1,310.274990531159,2|0,3:2|0:0,0:0:0:0:
475,307,84522,6,0,L|155:242,1,280.724992503834,10|0,0:2|0:0,0:0:0:0:
104,181,84795,6,0,L|143:352,1,167.450003193855,6|0,3:2|3:2,0:0:0:0:
34,134,85068,5,8,0:2:0:0:
216,371,85204,1,0,0:0:0:0:
336,97,85340,6,0,P|229:132|183:177,1,167.450003193855,2|0,3:2|0:0,0:0:0:0:
23,7,85613,2,0,P|94:65|121:147,1,167.450003193855,10|0,0:2|0:0,0:0:0:0:
2,245,85886,5,2,3:2:0:0:
183,71,86022,1,0,3:2:0:0:
238,348,86159,2,0,P|131:341|155:196,1,251.175004790783,10|0,0:2|0:0,0:0:0:0:
200,250,86431,6,0,P|288:240|376:213,1,167.450003193855,2|0,3:2|0:0,0:0:0:0:
191,169,86704,1,10,0:2:0:0:
30,327,86840,1,0,0:0:0:0:
311,321,86977,2,0,P|293:230|261:134,1,167.450003193855,2|0,3:2|3:2,0:0:0:0:
108,30,87250,5,10,0:2:0:0:
445,230,87386,1,2,0:2:0:0:
38,223,87522,5,2,3:2:0:0:
293,33,87659,1,2,0:2:0:0:
397,339,87795,1,10,0:2:0:0:
113,124,87931,5,0,0:0:0:0:
113,124,88000,1,0,0:0:0:0:
113,124,88068,2,0,L|140:300,1,167.450003193855,2|0,3:2|3:2,0:0:0:0:
34,74,88340,5,10,0:2:0:0:
370,245,88477,1,2,3:2:0:0:
370,245,88545,1,0,3:2:0:0:
370,245,88613,1,2,3:2:0:0:
405,207,88681,1,0,3:2:0:0:
390,156,88750,1,0,3:2:0:0:
342,134,88818,1,0,3:2:0:0:
290,141,88886,1,2,3:2:0:0:
239,129,88954,1,0,3:2:0:0:
200,94,89022,1,0,3:2:0:0:
206,42,89090,1,0,3:2:0:0:
247,15,89159,6,0,P|271:32|309:54,1,59.1,2|0,3:2|0:0,0:0:0:0:
371,8,89431,6,0,L|7:97,1,295.5,12|0,0:2|0:0,0:0:0:0:
6,128,89704,6,0,B|87:158|31:190|110:226,1,147.750005636215,2|8,3:2|0:2,0:0:0:0:
7,47,89977,1,0,3:2:0:0:
114,229,90113,2,0,P|152:223|181:192,1,73.8750028181077,10|0,0:2|0:0,0:0:0:0:
391,303,90250,6,0,P|356:216|293:235,1,147.750005636215,2|8,3:2|0:2,0:0:0:0:
235,277,90522,1,0,3:2:0:0:
495,209,90659,5,10,0:2:0:0:
254,142,90795,5,2,3:2:0:0:
357,382,90931,1,10,0:2:0:0:
338,118,91068,1,2,3:2:0:0:
164,327,91204,1,10,0:2:0:0:
421,159,91340,6,0,P|446:89|493:1,1,147.750005636215,2|8,3:2|0:2,0:0:0:0:
272,62,91613,2,0,P|255:39|207:17,1,73.8750028181077,2|0,3:2|0:0,0:0:0:0:
126,31,91750,2,0,P|103:48|81:96,1,73.8750028181077,10|0,0:2|0:0,0:0:0:0:
210,240,91886,6,0,L|180:85,1,147.750005636215,2|8,3:2|0:2,0:0:0:0:
59,273,92159,1,2,3:2:0:0:
284,146,92295,1,10,0:2:0:0:
0,44,92431,2,0,L|28:189,1,147.750005636215,2|8,3:2|0:2,0:0:0:0:
0,371,92704,1,2,3:2:0:0:
113,164,92841,1,10,0:2:0:0:
263,348,92977,6,0,B|181:328|238:276|146:252,1,147.750005636215,2|8,3:2|0:2,0:0:0:0:
347,367,93250,5,2,3:2:0:0:
79,290,93386,1,8,0:2:0:0:
327,226,93522,5,2,3:2:0:0:
134,353,93659,1,8,0:2:0:0:
380,287,93795,6,0,P|395:275|410:212,1,73.8750028181077,6|0,3:2|0:0,0:0:0:0:
462,157,93931,2,0,P|487:183|494:219,1,73.8750028181077,10|0,0:2|0:0,0:0:0:0:
220,282,94068,6,0,P|217:184|411:191,1,295.500011272431,6|0,3:2|3:2,0:0:0:0:
203,359,94477,2,0,P|167:347|149:307,1,73.8750028181077,10|0,0:2|0:0,0:0:0:0:
31,146,94613,6,0,P|107:162|120:232,1,147.750005636215,2|8,3:2|0:2,0:0:0:0:
285,333,94886,5,2,3:2:0:0:
0,219,95022,5,10,0:2:0:0:
212,66,95159,5,2,3:2:0:0:
61,292,95295,1,10,0:2:0:0:
139,30,95431,1,2,3:2:0:0:
289,253,95568,1,10,0:2:0:0:
9,61,95704,6,0,P|111:107|162:130,1,147.750005636215,2|8,3:2|0:2,0:0:0:0:
365,269,95977,2,0,P|405:258|426:219,1,73.8750028181077,2|0,3:2|0:0,0:0:0:0:
500,251,96113,2,0,P|501:209|471:177,1,73.8750028181077,10|0,0:2|0:0,0:0:0:0:
367,13,96250,6,0,L|415:176,1,147.750005636215,2|8,3:2|0:2,0:0:0:0:
183,270,96522,5,2,3:2:0:0:
174,272,96590,1,2,3:2:0:0:
165,274,96659,1,10,0:2:0:0:
319,194,96795,5,2,3:2:0:0:
321,181,96863,1,0,3:2:0:0:
324,168,96932,1,8,0:2:0:0:
103,227,97068,5,2,3:2:0:0:
86,223,97136,1,0,3:2:0:0:
70,219,97205,1,10,0:2:0:0:
343,278,97340,5,2,3:2:0:0:
347,294,97409,1,0,3:2:0:0:
351,311,97477,1,8,0:2:0:0:
120,154,97613,5,2,3:2:0:0:
113,117,97681,1,0,3:2:0:0:
106,81,97749,1,8,0:2:0:0:
206,364,97886,5,6,3:2:0:0:
241,326,97954,1,0,3:2:0:0:
257,277,98022,1,8,0:2:0:0:
245,226,98090,1,8,0:2:0:0:
216,182,98159,1,10,0:2:0:0:
222,130,98227,1,8,0:2:0:0:
252,88,98295,1,8,0:2:0:0:
302,76,98363,1,8,0:2:0:0:
347,100,98431,6,0,L|38:58,1,295.500011272431,6|0,3:2|3:2,0:0:0:0:
439,76,98840,2,0,L|464:-8,1,73.8750028181077,10|0,0:2|0:0,0:0:0:0:
508,271,98977,6,0,P|459:181|388:171,1,147.750005636215,2|8,3:2|0:2,0:0:0:0:
319,231,99250,1,0,3:2:0:0:
368,15,99386,5,10,0:2:0:0:
406,277,99522,5,2,3:2:0:0:
219,174,99659,1,10,0:2:0:0:
512,119,99795,1,2,3:2:0:0:
438,362,99931,1,10,0:2:0:0:
298,146,100068,6,0,L|268:-10,1,147.750005636215,2|8,3:2|0:2,0:0:0:0:
60,218,100340,2,0,B|99:224|99:224|132:178,1,73.8750028181077,2|0,3:2|0:0,0:0:0:0:
158,110,100477,2,0,B|173:73|173:73|137:30,1,73.8750028181077,10|0,0:2|0:0,0:0:0:0:
0,25,100613,6,0,P|5:106|80:104,1,147.750005636215,2|8,3:2|0:2,0:0:0:0:
219,174,100886,1,2,3:2:0:0:
78,0,101022,1,10,0:2:0:0:
186,259,101159,6,0,P|258:293|341:342,1,147.750005636215,2|8,3:2|0:2,0:0:0:0:
97,305,101431,1,2,3:2:0:0:
300,216,101568,1,10,0:2:0:0:
92,314,101704,6,0,B|46:257|46:257|81:183,1,147.750005636215,2|8,3:2|0:2,0:0:0:0:
251,99,101977,5,2,3:2:0:0:
0,183,102113,1,8,0:2:0:0:
193,22,102250,5,6,3:2:0:0:
0,192,102386,1,8,0:2:0:0:
289,10,102522,6,0,P|312:24|336:77,1,73.8750028181077,2|0,3:2|0:0,0:0:0:0:
303,184,102659,2,0,P|289:207|235:231,1,73.8750028181077,10|0,0:2|0:0,0:0:0:0:
0,4,102795,6,0,P|68:81|254:98,1,295.500011272431,6|0,3:2|3:2,0:0:0:0:
493,35,103204,2,0,P|451:28|404:17,1,73.8750028181077,10|0,0:2|0:0,0:0:0:0:
393,233,103340,6,0,P|429:156|538:174,1,147.750005636215,2|8,3:2|0:2,0:0:0:0:
429,309,103613,1,0,3:2:0:0:
347,114,103750,5,10,0:2:0:0:
160,222,103886,5,2,3:2:0:0:
311,34,104022,1,10,0:2:0:0:
233,264,104159,1,2,3:2:0:0:
228,16,104295,1,10,0:2:0:0:
319,283,104431,6,0,P|236:313|150:365,1,147.750005636215,2|8,3:2|0:2,0:0:0:0:
377,344,104704,1,2,3:2:0:0:
113,297,104840,1,10,0:2:0:0:
291,207,104977,6,0,P|328:197|368:172,1,73.8750028181077,6|0,3:2|0:0,0:0:0:0:
420,44,105113,1,10,0:2:0:0:
228,142,105250,1,2,3:2:0:0:
208,135,105318,1,0,0:0:0:0:
188,128,105386,1,8,0:2:0:0:
422,125,105522,6,0,P|448:152|453:194,1,73.8750028181077,2|0,3:2|0:0,0:0:0:0:
417,279,105659,1,10,0:2:0:0:
314,103,105795,1,2,3:2:0:0:
309,90,105863,1,0,0:0:0:0:
304,77,105931,1,8,0:2:0:0:
173,15,106068,5,2,3:2:0:0:
183,19,106136,1,0,3:2:0:0:
193,23,106204,1,8,0:2:0:0:
84,119,106340,5,2,3:2:0:0:
76,121,106408,1,0,3:2:0:0:
69,124,106476,1,8,0:2:0:0:
46,0,106613,5,2,3:2:0:0:
152,197,106750,5,8,0:2:0:0:
154,209,106818,1,8,0:0:0:0:
157,221,106886,1,6,3:2:0:0:
159,233,106954,1,8,0:2:0:0:
162,245,107022,1,8,0:2:0:0:
166,255,107090,1,8,0:2:0:0:
168,266,107159,6,0,P|259:290|397:348,1,206.849993687439,6|0,3:2|0:0,0:0:0:0:
431,371,107431,2,0,P|496:334|478:282,1,137.899995791626,10|0,0:2|0:0,0:0:0:0:
356,170,107704,1,2,3:2:0:0:
282,384,107840,1,0,3:2:0:0:
79,223,107977,2,0,P|115:137|228:188,1,206.849993687439,10|0,0:2|0:0,0:0:0:0:
211,154,108250,5,2,3:2:0:0:
78,321,108386,1,2,2:2:0:0:
283,212,108522,1,8,0:2:0:0:
7,263,108659,2,0,B|-28:203|-28:203|7:137,1,137.899995791626,2|0,2:2|3:2,0:0:0:0:
214,66,108931,1,0,3:2:0:0:
286,300,109068,5,10,0:2:0:0:
374,54,109204,1,0,3:2:0:0:
374,54,109272,1,0,0:0:0:0:
374,54,109340,2,0,B|259:64|340:140|193:160,1,206.849993687439,2|0,3:2|0:0,0:0:0:0:
141,194,109613,2,0,P|88:137|114:88,1,137.899995791626,10|0,0:2|0:0,0:0:0:0:
275,7,109886,1,2,3:2:0:0:
373,134,110022,1,0,3:2:0:0:
146,14,110159,5,10,0:2:0:0:
378,46,110295,1,0,0:0:0:0:
311,306,110431,6,0,P|238:334|242:213,1,206.849993687439,2|0,3:2|0:0,0:0:0:0:
208,234,110704,1,10,0:2:0:0:
60,378,110840,2,0,P|45:299|11:211,1,137.899995791626,2|0,2:2|3:2,0:0:0:0:
26,244,111113,1,0,3:2:0:0:
251,86,111250,5,8,0:2:0:0:
121,262,111386,1,2,0:2:0:0:
427,245,111522,5,0,3:2:0:0:
366,150,111659,2,0,L|517:185,1,137.899995791626,2|10,2:2|0:2,0:0:0:0:
335,64,111931,1,0,0:0:0:0:
343,270,112068,2,0,P|276:234|290:143,1,137.899995791626,2|0,3:2|3:2,0:0:0:0:
7,52,112340,2,0,P|92:84|193:147,1,206.849993687439,10|0,0:2|0:0,0:0:0:0:
190,144,112613,5,2,3:2:0:0:
53,345,112750,2,0,P|62:262|110:219,1,137.899995791626,2|8,2:2|0:2,0:0:0:0:
105,231,112954,1,0,0:0:0:0:
110,238,113022,2,0,L|266:266,1,137.899995791626,2|0,2:2|3:2,0:0:0:0:
21,171,113295,1,0,3:2:0:0:
242,361,113431,5,10,0:2:0:0:
103,142,113568,1,0,3:2:0:0:
346,40,113704,6,0,B|221:63|327:136|178:155,1,206.849993687439,2|0,3:2|0:0,0:0:0:0:
157,80,113977,2,0,P|162:11|233:40,1,137.899995791626,10|0,0:2|0:0,0:0:0:0:
350,120,114250,1,2,3:2:0:0:
68,71,114386,1,0,3:2:0:0:
257,218,114522,2,0,P|340:241|488:321,1,206.849993687439,10|0,0:2|0:0,0:0:0:0:
486,228,114795,5,10,0:2:0:0:
492,212,114863,1,8,2:2:0:0:
499,196,114931,1,8,2:2:0:0:
505,180,114999,1,8,2:2:0:0:
512,164,115067,1,10,0:2:0:0:
417,183,115204,1,8,0:3:0:0:
512,10,115340,5,14,0:2:0:0:
183,308,115613,6,0,P|208:318|244:342,1,59.1,8|0,2:2|0:0,0:0:0:0:
309,291,115886,6,0,P|213:321|81:379,1,206.849993687439,6|0,3:2|0:0,0:0:0:0:
44,382,116159,2,0,P|-9:333|21:277,1,137.899995791626,10|0,0:2|0:0,0:0:0:0:
247,216,116431,1,2,3:2:0:0:
326,379,116568,1,0,3:2:0:0:
84,242,116704,2,0,P|91:147|196:165,1,206.849993687439,10|0,0:2|0:0,0:0:0:0:
183,148,116977,5,2,3:2:0:0:
390,320,117113,2,0,P|414:241|459:179,1,137.899995791626,2|8,2:2|0:2,0:0:0:0:
210,11,117386,2,0,P|246:69|264:135,1,137.899995791626,2|0,2:2|3:2,0:0:0:0:
166,234,117659,1,0,3:2:0:0:
346,17,117795,5,10,0:2:0:0:
111,44,117931,1,0,3:2:0:0:
326,206,118068,5,2,3:2:0:0:
356,123,118204,1,2,2:2:0:0:
103,166,118340,1,8,0:2:0:0:
264,354,118477,2,0,L|243:212,1,137.899995791626,2|0,2:2|3:2,0:0:0:0:
339,288,118750,1,0,3:2:0:0:
98,170,118886,2,0,P|23:143|22:28,1,206.849993687439,10|0,0:2|0:0,0:0:0:0:
20,29,119159,5,2,3:2:0:0:
318,107,119295,2,0,P|247:122|182:158,1,137.899995791626,2|8,2:2|0:2,0:0:0:0:
81,352,119568,2,0,P|167:348|138:242,1,206.849993687439,2|0,2:2|0:0,0:0:0:0:
156,250,119840,1,0,3:2:0:0:
1,348,119977,5,8,0:2:0:0:
250,246,120113,1,2,0:2:0:0:
4,116,120250,6,0,P|40:199|54:266,1,137.899995791626,2|0,3:2|0:0,0:0:0:0:
273,337,120522,2,0,P|345:309|337:253,1,137.899995791626,10|0,0:2|0:0,0:0:0:0:
123,176,120795,1,2,3:2:0:0:
251,94,120931,1,2,3:2:0:0:
251,94,121000,1,0,0:0:0:0:
251,94,121068,1,8,0:2:0:0:
423,287,121204,1,2,2:2:0:0:
376,157,121340,6,0,L|191:201,1,137.899995791626,2|0,3:2|0:0,0:0:0:0:
448,206,121545,1,0,0:0:0:0:
448,206,121613,2,0,L|492:21,1,137.899995791626,10|0,0:2|0:0,0:0:0:0:
479,71,121886,1,0,3:2:0:0:
333,86,122022,1,2,3:2:0:0:
508,264,122159,5,10,0:2:0:0:
405,40,122295,1,0,3:2:0:0:
244,160,122431,6,0,P|181:100|47:61,1,206.849993687439,6|0,3:2|0:0,0:0:0:0:
80,152,122704,2,0,B|211:137|113:55|230:34,1,206.849993687439,10|0,0:2|0:0,0:0:0:0:
229,34,122977,1,2,3:2:0:0:
0,119,123113,1,0,3:2:0:0:
83,340,123250,2,0,P|177:312|162:211,1,206.849993687439,10|0,0:2|0:0,0:0:0:0:
70,251,123522,5,10,0:2:0:0:
116,273,123590,1,8,0:0:0:0:
163,295,123658,1,10,0:2:0:0:
210,317,123726,1,8,0:2:0:0:
257,339,123794,1,8,0:2:0:0:
344,310,123931,1,10,0:2:0:0:
281,53,124068,5,8,0:2:0:0:
255,101,124136,1,8,0:2:0:0:
264,155,124204,1,8,0:2:0:0:
302,194,124272,1,8,0:2:0:0:
353,212,124340,1,10,0:2:0:0:
408,220,124409,1,8,0:2:0:0:
456,245,124477,1,8,0:2:0:0:
488,289,124545,1,8,0:2:0:0:
482,342,124613,6,0,P|397:318|302:297,1,147.750005636215,6|8,3:2|0:2,0:0:0:0:
507,27,124886,2,0,P|482:110|464:173,1,147.750005636215,2|8,3:2|0:2,0:0:0:0:
180,146,125159,5,2,3:2:0:0:
414,26,125295,1,8,0:2:0:0:
214,226,125431,5,2,3:2:0:0:
336,0,125568,1,8,0:2:0:0:
251,319,125704,6,0,L|157:300,1,73.8750028181077,2|0,3:2|0:0,0:0:0:0:
60,150,125840,6,0,L|103:384,1,221.625008454323,10|0,0:2|0:0,0:0:0:0:
100,367,126113,1,10,0:2:0:0:
292,192,126250,5,0,3:2:0:0:
6,325,126386,1,8,0:2:0:0:
72,36,126522,6,0,B|84:5|84:5|134:-2,1,73.8750028181077,6|0,3:2|0:0,0:0:0:0:
415,109,126659,2,0,B|403:140|403:140|353:147,1,73.8750028181077,8|0,0:2|0:0,0:0:0:0:
144,81,126795,6,0,L|299:111,1,147.750005636215,6|10,3:2|0:2,0:0:0:0:
354,34,127068,1,0,3:2:0:0:
224,245,127204,2,0,B|78:270,1,147.750005636215,10|0,0:2|3:2,0:0:0:0:
402,230,127477,2,0,L|373:390,1,147.750005636215,10|0,0:2|3:2,0:0:0:0:
175,164,127750,1,10,0:2:0:0:
277,334,127886,5,0,3:2:0:0:
359,57,128022,1,8,0:2:0:0:
91,172,128159,5,0,3:2:0:0:
400,139,128295,1,8,0:2:0:0:
194,368,128431,5,0,3:2:0:0:
194,368,128500,1,0,0:0:0:0:
194,368,128568,1,8,0:2:0:0:
162,38,128704,6,0,P|137:58|125:106,1,73.8750028181077,4|0,3:2|0:0,0:0:0:0:
144,239,128840,2,0,P|164:264|212:276,1,73.8750028181077,8|0,0:2|0:0,0:0:0:0:
512,99,128977,6,0,L|277:147,1,221.625008454323,2|0,3:2|0:0,0:0:0:0:
229,183,129250,2,0,L|152:162,1,73.8750028181077,2|0,3:2|0:0,0:0:0:0:
75,11,129386,5,8,0:2:0:0:
301,223,129522,1,2,3:2:0:0:
7,64,129659,5,8,0:2:0:0:
7,64,129727,1,0,0:0:0:0:
7,64,129795,1,0,3:2:0:0:
236,11,129931,5,10,0:2:0:0:
67,231,130068,1,0,3:2:0:0:
320,56,130204,5,10,0:2:0:0:
320,56,130272,1,0,0:0:0:0:
320,56,130340,1,0,3:2:0:0:
215,290,130477,2,0,L|129:272,1,73.8750028181077,10|0,0:2|0:0,0:0:0:0:
12,173,130613,1,0,3:2:0:0:
65,316,130750,5,8,0:2:0:0:
210,95,130886,1,4,3:2:0:0:
210,95,130954,1,0,0:0:0:0:
210,95,131022,1,10,0:2:0:0:
303,262,131159,5,6,3:2:0:0:
284,352,131295,1,10,0:2:0:0:
201,369,131431,1,0,3:2:0:0:
206,182,131567,5,10,0:2:0:0:
399,241,131704,1,0,3:2:0:0:
489,222,131840,5,10,0:2:0:0:
338,54,131976,5,0,3:2:0:0:
319,144,132112,1,8,0:2:0:0:
55,304,132250,6,0,L|37:220,1,73.8750028181077,2|0,3:2|3:2,0:0:0:0:
146,118,132386,1,8,0:2:0:0:
0,371,132522,5,2,3:2:0:0:
0,371,132590,1,0,0:0:0:0:
0,371,132659,1,8,0:2:0:0:
138,282,132795,1,2,3:2:0:0:
0,167,132931,5,8,0:2:0:0:
224,276,133068,1,0,3:2:0:0:
63,117,133204,5,8,0:2:0:0:
191,349,133340,5,2,3:2:0:0:
278,341,133477,1,8,0:2:0:0:
353,384,133613,5,6,3:2:0:0:
288,71,133750,1,8,0:2:0:0:
3,170,133886,5,2,3:2:0:0:
90,162,134022,1,8,0:2:0:0:
118,82,134160,5,6,3:2:0:0:
0,384,134294,1,8,0:2:0:0:
223,218,134430,5,2,3:2:0:0:
198,129,134567,1,8,0:2:0:0:
114,75,134703,5,6,3:2:0:0:
449,196,134840,1,8,0:2:0:0:
114,263,134977,5,2,3:2:0:0:
268,24,135113,1,8,0:2:0:0:
469,66,135250,1,6,3:2:0:0:
512,250,135386,1,8,0:2:0:0:
277,377,135522,6,0,B|239:377|210:339|211:303|266:258|324:249|394:350,1,280.724992503834,6|0,3:2|0:0,0:0:0:0:
463,316,135795,6,0,L|139:349,1,310.274990531159,10|0,0:2|0:0,0:0:0:0:
154,347,136068,1,0,3:2:0:0:
12,266,136204,1,0,3:2:0:0:
231,143,136340,6,0,P|202:256|100:209,1,251.175004790783,10|0,0:2|0:0,0:0:0:0:
130,112,136613,6,0,P|213:64|409:3,1,280.724992503834,2|0,3:2|0:0,0:0:0:0:
385,110,136886,6,0,P|302:62|106:1,1,280.724992503834,10|0,0:2|0:0,0:0:0:0:
56,57,137159,6,0,B|8:93|29:145|41:138|62:186|10:222,1,167.450003193855,2|0,3:2|3:2,0:0:0:0:
1,1,137431,5,10,0:2:0:0:
231,143,137568,1,2,2:0:0:0:
52,384,137704,6,0,P|83:284|254:299,1,280.724992503834,2|0,3:2|0:0,0:0:0:0:
393,384,137977,6,0,B|433:309|370:255|318:268|318:268|314:329|269:353,1,280.724992503834,10|0,0:2|0:0,0:0:0:0:
180,341,138250,6,0,P|155:253|107:160,1,167.450003193855,2|0,3:2|3:2,0:0:0:0:
271,0,138522,5,10,0:2:0:0:
43,210,138659,1,2,2:0:0:0:
318,176,138795,6,0,B|348:147|346:98|310:72|272:74|253:89|249:95|242:100|217:122|169:111|147:71|156:34|179:14,1,310.274990531159,2|0,3:2|0:0,0:0:0:0:
277,3,139068,6,0,P|245:90|212:193,1,187.149995002556,10|0,0:2|3:2,0:0:0:0:
245,279,139272,1,0,3:2:0:0:
245,279,139340,5,2,3:2:0:0:
274,309,139409,1,0,3:2:0:0:
313,322,139477,1,0,3:2:0:0:
354,315,139545,1,0,3:2:0:0:
392,298,139613,1,8,0:2:0:0:
433,300,139681,1,0,3:2:0:0:
472,314,139750,1,0,3:2:0:0:
501,343,139818,1,0,3:2:0:0:
500,384,139886,6,0,P|407:371|303:352,1,167.450003193855,2|0,3:2|0:0,0:0:0:0:
49,323,140159,2,0,P|80:238|159:264,1,167.450003193855,10|0,0:2|0:0,0:0:0:0:
266,384,140431,5,2,3:2:0:0:
201,191,140568,1,0,3:2:0:0:
482,173,140704,2,0,P|377:212|231:295,1,251.175004790783,10|0,0:2|0:0,0:0:0:0:
203,198,140977,6,0,P|287:162|365:116,1,167.450003193855,2|0,3:2|0:0,0:0:0:0:
374,51,141250,1,10,0:2:0:0:
161,2,141386,1,0,0:0:0:0:
14,225,141522,2,0,B|114:206|43:147|156:118,1,167.450003193855,2|0,3:2|3:2,0:0:0:0:
297,69,141795,5,10,0:2:0:0:
0,0,141931,1,2,0:2:0:0:
187,277,142068,5,2,3:2:0:0:
84,16,142204,1,2,3:2:0:0:
28,323,142340,1,10,0:2:0:0:
231,20,142477,5,0,0:0:0:0:
231,20,142545,1,0,0:0:0:0:
231,20,142613,2,0,L|197:188,1,167.450003193855,2|0,3:2|3:2,0:0:0:0:
324,9,142886,1,10,0:2:0:0:
60,95,143022,1,10,0:2:0:0:
369,297,143159,5,2,3:2:0:0:
384,262,143227,1,0,3:2:0:0:
399,229,143295,2,0,L|438:311,1,73.8750028181077,0|0,3:2|3:2,0:0:0:0:
201,356,143431,5,2,3:2:0:0:
190,340,143499,1,0,3:2:0:0:
177,328,143567,1,0,3:2:0:0:
161,318,143635,1,0,3:2:0:0:
144,311,143704,6,0,P|176:308|203:289,1,59.1,2|0,3:2|0:0,0:0:0:0:
306,383,143977,6,0,P|190:317|-37:223,1,295.5,12|0,0:2|0:0,0:0:0:0:
32,129,144250,6,0,B|-21:163|-21:163|204:110,1,280.724992503834,6|0,3:2|0:0,0:0:0:0:
133,30,144522,6,0,L|61:347,1,310.274990531159,10|0,0:2|0:0,0:0:0:0:
144,311,144795,6,0,L|327:270,1,167.450003193855,0|0,3:2|3:2,0:0:0:0:
511,357,145068,5,10,0:2:0:0:
326,200,145204,1,0,0:0:0:0:
493,0,145340,6,0,P|444:89|388:264,1,280.724992503834,2|0,3:2|0:0,0:0:0:0:
367,338,145613,6,0,P|248:337|235:186,1,280.724992503834,10|0,0:2|0:0,0:0:0:0:
273,136,145886,6,0,P|244:52|176:76,1,167.450003193855,2|0,3:2|3:2,0:0:0:0:
133,258,146159,1,10,0:2:0:0:
356,110,146295,1,2,2:0:0:0:
8,73,146431,6,0,B|53:82|114:157|114:157|90:67|112:16,1,280.724992503834,2|0,3:2|0:0,0:0:0:0:
248,24,146704,6,0,P|143:70|-6:158,1,280.724992503834,10|0,0:2|0:0,0:0:0:0:
0,230,146977,6,0,B|40:224|71:280|45:283|73:343|127:338,1,167.450003193855,2|0,3:2|3:2,0:0:0:0:
364,178,147250,1,10,0:2:0:0:
135,265,147386,1,2,0:2:0:0:
405,350,147522,6,0,B|367:338|331:302|382:283|338:221|268:222|230:258|230:258|269:280|271:324,1,310.274990531159,2|0,3:2|0:0,0:0:0:0:
313,384,147795,6,0,P|337:257|374:145,1,206.849993687439,10|0,0:2|0:0,0:0:0:0:
316,0,148000,5,0,3:0:0:0:
316,0,148068,2,0,P|295:107|264:202,1,167.450003193855,2|0,3:2|3:2,0:0:0:0:
67,199,148340,5,12,0:2:0:0:
377,104,148477,1,0,0:0:0:0:
59,0,148613,6,0,P|107:76|140:177,1,167.450003193855,2|0,3:2|0:0,0:0:0:0:
257,240,148886,2,0,P|183:291|113:371,1,167.450003193855,10|0,0:2|0:0,0:0:0:0:
0,160,149159,5,2,3:2:0:0:
170,0,149295,1,0,3:2:0:0:
379,170,149431,2,0,P|268:138|295:28,1,251.175004790783,10|0,0:2|0:0,0:0:0:0:
446,81,149704,6,0,P|423:185|415:276,1,167.450003193855,2|0,3:2|0:0,0:0:0:0:
375,22,149977,1,10,0:2:0:0:
490,305,150113,1,0,0:0:0:0:
242,373,150250,2,0,P|262:289|345:280,1,167.450003193855,2|0,3:2|3:2,0:0:0:0:
495,384,150522,5,10,0:2:0:0:
139,327,150659,1,2,0:2:0:0:
504,213,150795,5,2,3:2:0:0:
247,381,150931,1,2,0:2:0:0:
54,147,151068,1,10,0:2:0:0:
450,145,151204,5,0,0:0:0:0:
450,145,151272,1,0,0:0:0:0:
450,145,151340,2,0,B|419:177|420:221|420:221|404:173|369:156,1,167.450003193855,2|0,3:2|3:2,0:0:0:0:
215,305,151613,5,10,0:2:0:0:
394,80,151750,1,2,2:0:0:0:
108,24,151886,6,0,B|83:47|85:87|114:109|145:107|161:95|164:90|170:86|190:68|230:77|248:110|240:140|221:156,1,251.175004790783,2|0,3:2|0:0,0:0:0:0:
159,202,152159,6,0,P|77:227|6:266,1,147.750005636215,10|0,0:2|0:0,0:0:0:0:
0,336,152362,5,0,0:0:0:0:
0,336,152431,1,2,3:2:0:0:
409,88,152704,6,0,L|431:18,1,59.1,12|0,0:2|0:0,0:0:0:0:
512,11,152977,6,0,B|504:37|504:37|257:113,1,246.25,6|0,3:2|0:0,0:0:0:0:
294,101,153386,1,2,2:0:0:0:
512,194,153522,1,2,3:2:0:0:
508,201,153931,1,2,2:0:0:0:
245,361,154068,5,2,3:2:0:0:
274,228,154204,1,2,2:0:0:0:
353,363,154340,5,2,2:0:0:0:
370,284,154476,1,2,2:0:0:0:
173,325,154613,5,2,3:3:0:0:
165,328,154681,1,2,0:3:0:0:
157,331,154750,1,2,0:3:0:0:
149,334,154817,1,2,0:3:0:0:
141,337,154886,1,2,2:3:0:0:
65,316,155022,1,2,2:3:0:0:
88,62,155159,6,0,L|125:271,1,197,2|2,3:2|2:0,0:0:0:0:
122,255,155568,1,2,2:0:0:0:
10,137,155704,2,0,L|230:188,1,197,2|2,3:2|2:0,0:0:0:0:
201,181,156113,1,2,2:0:0:0:
399,29,156250,6,0,L|216:72,1,147.75,2|0,3:2|0:0,0:0:0:0:
179,87,156522,1,2,2:0:0:0:
175,81,156795,1,2,3:2:0:0:
44,54,157068,5,2,2:0:0:0:
117,22,157204,1,2,2:0:0:0:
406,153,157340,6,0,B|452:102|452:102|275:146,1,246.25,2|0,3:2|0:0,0:0:0:0:
279,144,157750,1,2,2:0:0:0:
493,172,157886,1,2,3:2:0:0:
497,178,158295,1,2,2:0:0:0:
230,79,158431,5,2,3:2:0:0:
133,101,158568,1,2,2:0:0:0:
175,243,158704,5,2,2:0:0:0:
192,165,158841,1,2,2:0:0:0:
69,37,158977,5,2,3:2:0:0:
159,318,159250,5,2,2:3:0:0:
163,323,159318,1,2,0:3:0:0:
167,328,159386,1,2,2:3:0:0:
171,333,159454,1,2,0:3:0:0:
175,338,159522,6,0,P|226:313|402:271,1,197,2|2,3:3|2:0,0:3:0:0:
360,275,159931,1,2,2:0:0:0:
136,243,160068,2,0,P|231:220|321:180,1,197,2|2,3:2|2:0,0:0:0:0:
321,180,160477,1,2,2:0:0:0:
73,182,160613,5,2,3:2:0:0:
470,339,160886,5,2,2:3:0:0:
475,344,161159,6,0,P|486:306|503:261,2,65.6666666666667,2|2|2,3:3|0:3|0:3,0:0:0:0:
396,370,161704,6,0,P|309:280|204:184,1,246.25,2|0,3:2|0:0,0:0:0:0:
220,197,162113,1,2,2:0:0:0:
412,266,162250,1,2,3:2:0:0:
416,272,162659,1,2,2:0:0:0:
290,370,162795,5,2,3:2:0:0:
191,352,162931,1,2,2:0:0:0:
114,294,163068,5,2,2:0:0:0:
41,309,163204,1,2,2:0:0:0:
121,302,163340,6,0,L|148:179,1,98.5,2|2,3:2|0:3,0:0:0:0:
139,115,163545,1,2,0:3:0:0:
139,115,163613,1,2,2:3:0:0:
60,161,163750,1,2,2:0:0:0:
210,268,163886,6,0,L|404:215,1,197,2|2,3:2|2:0,0:0:0:0:
400,216,164295,1,2,2:0:0:0:
293,64,164431,2,0,B|272:102|277:160|277:160|251:99|188:76,1,197,2|2,3:2|2:0,0:0:0:0:
213,87,164840,1,2,2:0:0:0:
44,223,164977,6,0,P|100:206|190:160,1,147.75,2|0,3:2|0:0,0:0:0:0:
138,97,165250,1,2,2:0:0:0:
128,92,165522,1,2,3:2:0:0:
380,33,165795,5,2,2:3:0:0:
373,29,165863,1,2,0:3:0:0:
366,25,165931,1,2,2:3:0:0:
359,21,166000,1,2,0:3:0:0:
352,17,166068,6,0,L|402:303,1,246.25,2|0,3:3|0:0,0:0:0:0:
394,259,166477,1,2,2:0:0:0:
509,137,166613,1,2,3:2:0:0:
504,126,167022,1,2,2:0:0:0:
300,207,167159,5,2,3:2:0:0:
203,189,167295,1,2,2:0:0:0:
383,67,167431,5,2,2:0:0:0:
370,142,167567,1,2,2:0:0:0:
198,193,167704,6,0,B|72:155|177:108|57:72,1,197,2|2,3:2|2:0,0:0:0:0:
58,72,168113,1,2,2:0:0:0:
437,317,168250,5,6,3:2:0:0:
267,195,169613,6,0,B|203:150|118:206|168:238|89:297|12:243,1,280.724992503834,14|0,0:2|0:0,0:0:0:0:
39,141,169886,6,0,B|115:128|167:216|108:223|153:311|246:296,1,280.724992503834,14|0,0:2|0:0,0:0:0:0:
99,369,170159,6,0,L|195:30,1,339.825006481648,14|0,0:2|0:0,0:0:0:0:
271,73,170431,6,0,L|436:30,1,147.750005636215,2|8,3:2|0:2,0:0:0:0:
115,8,170704,1,0,3:2:0:0:
383,132,170840,2,0,L|464:161,1,73.8750028181077,10|0,0:2|0:0,0:0:0:0:
316,379,170977,6,0,P|290:299|214:314,1,147.750005636215,2|8,3:2|0:2,0:0:0:0:
103,374,171250,1,0,3:2:0:0:
396,302,171386,5,10,0:2:0:0:
138,132,171522,5,2,3:2:0:0:
228,378,171659,1,10,0:2:0:0:
250,105,171795,1,2,3:2:0:0:
68,304,171931,1,10,0:2:0:0:
341,202,172068,6,0,L|534:271,1,147.750005636215,2|8,3:2|0:2,0:0:0:0:
265,261,172340,2,0,L|240:176,1,73.8750028181077,2|0,3:2|0:0,0:0:0:0:
437,65,172477,2,0,L|416:135,1,73.8750028181077,10|0,0:2|0:0,0:0:0:0:
111,228,172613,6,0,P|37:181|65:104,1,147.750005636215,2|8,3:2|0:2,0:0:0:0:
158,7,172886,1,2,3:2:0:0:
3,268,173022,1,10,0:2:0:0:
299,80,173159,2,0,P|213:97|130:120,1,147.750005636215,2|8,3:2|0:2,0:0:0:0:
366,154,173431,1,2,3:2:0:0:
73,53,173568,1,10,0:2:0:0:
260,348,173704,6,0,P|339:321|337:255,1,147.750005636215,2|8,3:2|0:2,0:0:0:0:
157,353,173977,5,2,3:2:0:0:
437,229,174113,1,8,0:2:0:0:
150,214,174250,5,2,3:2:0:0:
424,369,174386,1,8,0:2:0:0:
186,117,174522,6,0,P|200:154|234:172,1,73.8750028181077,6|0,3:2|0:0,0:0:0:0:
441,235,174659,2,0,P|478:221|495:187,1,73.8750028181077,10|0,0:2|0:0,0:0:0:0:
384,3,174795,6,0,B|436:68|381:151|349:99|285:182|348:264,1,295.500011272431,6|0,3:2|3:2,0:0:0:0:
279,48,175204,2,0,P|233:35|177:16,1,73.8750028181077,10|0,0:2|0:0,0:0:0:0:
351,268,175340,6,0,P|241:296|146:330,1,147.750005636215,2|8,3:2|0:2,0:0:0:0:
425,328,175613,1,2,3:2:0:0:
120,253,175750,5,10,0:2:0:0:
339,359,175886,5,2,3:2:0:0:
141,145,176022,1,10,0:2:0:0:
253,384,176159,1,2,3:2:0:0:
230,78,176295,1,10,0:2:0:0:
108,358,176431,6,0,P|24:337|31:275,1,147.750005636215,2|8,3:2|0:2,0:0:0:0:
225,232,176704,2,0,P|258:231|297:216,1,73.8750028181077,2|0,3:2|0:0,0:0:0:0:
443,136,176840,2,0,P|474:144|509:167,1,73.8750028181077,10|0,0:2|0:0,0:0:0:0:
319,0,176977,6,0,L|360:170,1,147.750005636215,2|8,3:2|0:2,0:0:0:0:
450,6,177250,1,2,3:2:0:0:
399,230,177386,1,10,0:2:0:0:
147,114,177522,6,0,P|171:37|255:55,1,147.750005636215,2|8,3:2|0:2,0:0:0:0:
492,256,177795,5,2,3:2:0:0:
490,263,177863,1,0,3:2:0:0:
488,270,177931,1,10,0:2:0:0:
486,277,178000,1,8,0:2:0:0:
484,284,178068,5,10,0:2:0:0:
440,323,178136,1,10,0:2:0:0:
387,330,178204,1,0,3:2:0:0:
343,303,178272,1,0,3:2:0:0:
328,256,178340,1,8,0:3:0:0:
351,215,178409,1,8,0:3:0:0:
390,195,178477,1,8,0:3:0:0:
431,192,178545,1,8,0:3:0:0:
463,166,178613,1,8,0:3:0:0:
475,133,178681,1,8,0:3:0:0:
464,103,178749,1,8,0:3:0:0:
437,84,178818,1,8,0:3:0:0:
409,84,178886,6,0,P|376:78|342:67,1,49.25,4|4,0:3|0:3,0:0:0:0:
249,293,179022,2,0,P|216:299|176:313,1,64.0249970691682,4|4,0:3|0:3,0:0:0:0:
11,0,179159,6,0,P|123:78|253:206,1,295.500011272431,6|0,3:2|3:2,0:0:0:0:
68,148,179568,2,0,P|31:161|-12:182,1,73.8750028181077,10|0,0:2|0:0,0:0:0:0:
193,13,179704,6,0,P|259:71|308:126,1,147.750005636215,2|8,3:2|0:2,0:0:0:0:
118,230,179977,1,0,3:2:0:0:
315,3,180113,5,10,0:2:0:0:
3,86,180250,5,2,3:2:0:0:
323,203,180386,1,10,0:2:0:0:
111,236,180522,1,2,3:2:0:0:
384,139,180659,1,10,0:2:0:0:
237,367,180795,6,0,L|199:209,1,147.750005636215,2|8,3:2|0:2,0:0:0:0:
323,339,181068,2,0,L|402:360,1,73.8750028181077,2|0,3:2|0:0,0:0:0:0:
124,314,181204,2,0,L|105:242,1,73.8750028181077,10|0,0:2|0:0,0:0:0:0:
461,306,181340,6,0,L|499:148,1,147.750005636215,2|8,3:2|0:2,0:0:0:0:
302,21,181613,1,2,3:2:0:0:
402,222,181750,1,10,0:2:0:0:
134,82,181886,6,0,L|312:134,1,147.750005636215,2|8,3:2|0:2,0:0:0:0:
446,26,182159,1,2,3:2:0:0:
320,265,182295,1,10,0:2:0:0:
34,33,182431,6,0,B|3:96|3:96|54:159,1,147.750005636215,2|8,3:2|0:2,0:0:0:0:
346,11,182704,5,2,3:2:0:0:
155,194,182840,1,8,0:2:0:0:
417,63,182977,5,6,3:2:0:0:
119,7,183113,1,8,0:2:0:0:
376,217,183250,6,0,P|340:230|315:267,1,73.8750028181077,2|0,3:2|0:0,0:0:0:0:
197,105,183386,2,0,P|223:132|230:176,1,73.8750028181077,10|0,0:2|0:0,0:0:0:0:
257,368,183522,6,0,L|293:65,1,295.500011272431,6|0,3:2|3:2,0:0:0:0:
392,300,183931,2,0,P|419:312|466:341,1,73.8750028181077,10|0,0:2|0:0,0:0:0:0:
180,369,184068,6,0,P|104:348|122:258,1,147.750005636215,2|8,3:2|0:2,0:0:0:0:
155,172,184340,1,0,3:2:0:0:
339,369,184477,5,10,0:2:0:0:
41,195,184613,5,2,3:2:0:0:
363,141,184750,1,10,0:2:0:0:
179,287,184886,1,2,3:2:0:0:
299,64,185022,1,10,0:2:0:0:
394,259,185159,6,0,P|313:233|197:207,1,147.750005636215,2|8,3:2|0:2,0:0:0:0:
214,360,185431,1,2,3:2:0:0:
466,177,185568,1,10,0:2:0:0:
164,0,185704,6,0,P|200:99|208:151,1,147.750005636215,6|10,3:2|0:2,0:0:0:0:
82,0,185977,1,2,3:2:0:0:
290,136,186113,2,0,P|323:124|338:82,1,73.8750028181077,8|0,0:2|0:0,0:0:0:0:
250,1,186250,5,2,3:2:0:0:
130,185,186386,1,10,0:2:0:0:
332,0,186522,2,0,P|409:31|480:61,1,147.750005636215,2|8,3:2|0:2,0:0:0:0:
502,254,186795,5,10,0:2:0:0:
448,264,186863,1,8,0:2:0:0:
402,235,186931,1,8,0:2:0:0:
388,183,186999,1,8,0:2:0:0:
412,135,187067,1,10,0:2:0:0:
512,151,187204,5,8,0:2:0:0:
459,340,187340,5,10,0:2:0:0:
413,377,187409,1,8,0:2:0:0:
352,384,187477,1,8,0:2:0:0:
297,358,187545,1,8,0:2:0:0:
260,308,187613,1,10,0:2:0:0:
223,259,187681,1,8,0:2:0:0:
167,233,187749,1,8,0:2:0:0:
106,240,187817,1,8,0:2:0:0:
69,280,187886,6,0,P|99:193|116:99,1,157.6,6|8,3:2|0:2,0:0:0:0:
383,110,188159,2,0,P|306:93|231:66,1,157.6,2|8,3:2|0:2,0:0:0:0:
5,84,188431,5,2,3:2:0:0:
252,174,188568,1,8,0:2:0:0:
81,0,188704,5,2,3:2:0:0:
146,314,188840,1,8,0:2:0:0:
430,51,188977,6,0,P|462:75|455:129,1,78.8,2|0,3:2|3:2,3:2:0:0:
324,318,189113,6,0,P|380:238|537:197,1,236.4,10|0,0:2|0:0,0:0:0:0:
507,193,189386,1,10,0:2:0:0:
396,361,189522,5,0,3:2:0:0:
169,227,189659,1,8,0:2:0:0:
504,340,189795,6,0,P|471:325|451:281,1,78.8,6|0,3:2|0:0,0:0:0:0:
460,37,189931,2,0,P|493:52|513:96,1,78.8,8|0,0:2|0:0,0:0:0:0:
323,185,190068,6,0,L|149:135,1,157.6,6|10,3:2|0:2,0:0:0:0:
412,161,190340,1,0,3:2:0:0:
193,369,190477,2,0,P|226:292|304:313,1,157.6,10|0,0:2|3:2,0:0:0:0:
86,336,190750,2,0,P|91:252|12:235,1,157.6,10|0,0:2|3:2,0:0:0:0:
169,227,191022,1,10,0:2:0:0:
282,377,191159,5,0,3:2:0:0:
7,315,191295,1,8,0:2:0:0:
280,124,191431,5,0,3:2:0:0:
193,369,191568,1,8,0:2:0:0:
344,177,191704,5,0,3:2:0:0:
38,176,191840,1,8,0:2:0:0:
281,293,191977,5,4,3:2:0:0:
281,293,192045,1,0,0:0:0:0:
281,293,192113,1,8,0:2:0:0:
159,0,192250,6,0,L|198:254,1,236.4,2|0,3:2|0:0,0:0:0:0:
112,205,192522,2,0,L|26:171,1,78.8,2|0,3:2|0:0,0:0:0:0:
287,95,192659,5,8,0:2:0:0:
127,290,192795,1,2,3:2:0:0:
80,56,192931,5,8,0:2:0:0:
339,160,193068,1,0,3:2:0:0:
18,271,193204,5,10,0:2:0:0:
18,271,193272,1,0,0:0:0:0:
18,271,193340,1,0,3:2:0:0:
301,369,193477,2,0,P|292:330|280:292,1,78.8,10|0,0:2|0:0,0:0:0:0:
180,147,193613,1,0,3:2:0:0:
423,197,193750,5,10,0:2:0:0:
212,361,193886,1,0,3:2:0:0:
212,361,193954,1,0,0:0:0:0:
212,361,194022,1,8,0:2:0:0:
341,38,194159,6,0,P|365:56|372:116,1,78.8,4|0,3:2|0:0,0:0:0:0:
340,176,194295,2,0,P|322:200|262:207,1,78.8,10|0,0:2|0:0,0:0:0:0:
101,88,194431,5,2,3:2:0:0:
194,65,194568,1,10,0:2:0:0:
269,115,194704,5,4,3:2:0:0:
68,177,194840,1,10,0:2:0:0:
133,4,194977,5,0,3:2:0:0:
168,147,195113,1,10,0:2:0:0:
44,24,195250,1,4,3:2:0:0:
12,106,195386,1,8,0:2:0:0:
137,289,195522,6,0,P|160:256|203:247,1,78.8,2|0,3:2|3:2,0:0:0:0:
341,282,195659,1,8,0:2:0:0:
94,368,195795,5,6,3:2:0:0:
302,206,195931,1,8,0:2:0:0:
42,288,196068,5,2,3:2:0:0:
37,282,196136,1,0,3:2:0:0:
32,276,196204,1,8,0:2:0:0:
218,147,196340,5,4,3:2:0:0:
186,364,196477,1,8,0:2:0:0:
54,132,196613,5,2,3:2:0:0:
123,93,196750,1,8,0:2:0:0:
139,12,196886,5,6,3:2:0:0:
6,200,197022,1,8,0:2:0:0:
338,34,197159,5,2,3:2:0:0:
354,116,197295,1,8,0:2:0:0:
416,165,197431,5,6,3:2:0:0:
51,55,197568,1,8,0:2:0:0:
15,308,197704,5,2,3:2:0:0:
79,257,197840,1,8,0:2:0:0:
160,267,197977,5,6,3:2:0:0:
497,160,198113,1,8,0:2:0:0:
130,191,198250,5,2,3:2:0:0:
68,136,198386,1,8,0:2:0:0:
127,82,198522,5,6,3:2:0:0:
0,384,198659,1,8,0:2:0:0:
380,236,198795,5,2,3:2:0:0:
383,227,198863,1,0,0:0:0:0:
386,218,198931,1,8,0:2:0:0:
181,346,199068,5,6,3:2:0:0:
93,334,199204,1,8,0:2:0:0:
409,63,199340,5,2,3:2:0:0:
417,101,199408,1,0,0:0:0:0:
425,140,199476,1,8,0:2:0:0:
280,376,199613,5,6,3:2:0:0:
17,290,199750,1,8,0:2:0:0:
473,219,199886,5,2,3:2:0:0:
476,225,199954,1,8,0:2:0:0:
479,231,200022,1,8,0:3:0:0:
482,237,200091,1,8,0:3:0:0:
485,243,200159,6,0,L|462:341,1,78.8,8|8,0:3|0:3,0:0:0:0:
433,150,200295,2,0,L|446:92,1,59.0999981964112,12|0,0:3|0:0,0:0:0:0:
400,367,200431,5,4,0:3:0:0:
194,358,200568,1,4,0:3:0:0:
102,224,200704,1,4,0:3:0:0:
131,93,200840,1,4,0:3:0:0:
312,24,200977,6,0,B|255:50|223:129|223:129|224:52|168:2,1,280.724992503834,6|0,3:2|0:0,0:0:0:0:
126,86,201250,6,0,P|251:103|465:172,1,310.274990531159,10|0,0:2|0:0,0:0:0:0:
481,218,201522,6,0,P|447:300|374:264,1,167.450003193855,0|0,3:2|3:2,0:0:0:0:
181,195,201795,5,10,0:2:0:0:
505,139,201931,1,0,0:0:0:0:
186,294,202068,6,0,B|138:276|82:317|82:317|17:236|101:146,1,280.724992503834,2|0,3:2|0:0,0:0:0:0:
23,123,202340,6,0,P|99:215|148:394,1,280.724992503834,10|0,0:2|0:0,0:0:0:0:
225,376,202613,6,0,P|311:352|291:277,1,167.450003193855,2|0,3:2|0:0,0:0:0:0:
27,375,202886,5,10,0:2:0:0:
248,228,203022,1,2,0:2:0:0:
72,21,203159,6,0,B|125:-17|200:5|200:5|142:75|183:168,1,280.724992503834,2|0,3:2|0:0,0:0:0:0:
292,49,203431,6,0,P|175:80|-21:157,1,280.724992503834,10|0,0:2|0:0,0:0:0:0:
0,209,203704,6,0,P|97:242|181:303,1,167.450003193855,2|0,3:2|0:0,0:0:0:0:
0,61,203977,5,10,0:2:0:0:
248,228,204113,1,2,0:2:0:0:
474,95,204250,6,0,B|513:118|502:172|502:172|429:44|292:47,1,310.274990531159,2|0,3:2|0:0,0:0:0:0:
457,2,204522,6,0,P|395:88|406:225,1,187.149995002556,10|0,0:2|3:2,0:0:0:0:
349,336,204727,5,0,3:2:0:0:
349,336,204795,2,0,P|335:236|246:112,1,251.175004790783,6|0,3:2|0:0,0:0:0:0:
250,115,205068,5,8,0:2:0:0:
506,204,205204,1,0,3:2:0:0:
181,184,205340,6,0,P|109:139|133:53,1,167.450003193855,2|0,3:2|0:0,0:0:0:0:
305,0,205613,2,0,P|377:45|353:131,1,167.450003193855,10|0,0:2|0:0,0:0:0:0:
107,244,205886,5,2,3:2:0:0:
250,115,206022,1,0,0:0:0:0:
11,216,206159,5,10,0:2:0:0:
206,30,206295,1,0,3:2:0:0:
124,326,206431,6,0,P|108:254|94:161,1,167.450003193855,2|0,3:2|0:0,0:0:0:0:
195,368,206704,1,10,0:2:0:0:
282,212,206840,1,0,0:0:0:0:
73,20,206977,2,0,P|149:60|173:156,1,167.450003193855,2|0,3:2|0:0,0:0:0:0:
0,267,207250,5,14,0:2:0:0:
290,210,207386,1,2,0:2:0:0:
25,124,207522,5,2,3:2:0:0:
299,339,207659,1,2,0:0:0:0:
369,15,207795,1,10,0:2:0:0:
67,374,207931,5,0,3:2:0:0:
67,374,208000,1,0,0:0:0:0:
67,374,208068,2,0,P|133:322|227:283,1,167.450003193855,2|0,3:2|0:0,0:0:0:0:
393,351,208340,1,10,0:2:0:0:
136,228,208477,1,10,0:2:0:0:
410,152,208613,5,2,3:2:0:0:
431,187,208681,1,0,3:2:0:0:
452,223,208750,2,0,L|341:181,1,83.7250015969277,0|0,3:2|3:2,0:0:0:0:
175,57,208886,5,2,3:2:0:0:
171,47,208954,1,0,3:2:0:0:
165,54,209022,1,0,3:2:0:0:
178,48,209090,1,0,3:2:0:0:
173,53,209159,6,0,L|110:36,1,59.1,2|0,3:2|0:0,0:0:0:0:
2,40,209431,6,0,B|20:67|20:67|338:17,1,295.5,12|0,0:2|0:0,0:0:0:0:
416,31,209704,6,0,B|317:61|309:171|386:240|471:151|433:74,1,280.724992503834,6|0,3:2|0:0,0:0:0:0:
506,54,209977,6,0,P|366:97|175:179,1,310.274990531159,10|0,0:2|0:0,0:0:0:0:
159,226,210250,6,0,P|69:197|77:131,1,167.450003193855,0|0,3:2|0:0,0:0:0:0:
283,219,210522,5,10,0:2:0:0:
29,62,210659,1,0,3:2:0:0:
256,339,210795,6,0,B|246:313|231:298|231:298|307:312|400:348|400:348|370:325|358:290,1,280.724992503834,2|0,3:2|0:0,0:0:0:0:
450,296,211068,6,0,L|114:358,1,280.724992503834,10|0,0:2|0:0,0:0:0:0:
93,375,211340,6,0,B|38:312|38:312|84:235,1,167.450003193855,2|0,3:2|0:0,0:0:0:0:
290,230,211613,5,10,0:2:0:0:
39,165,211750,1,2,0:2:0:0:
362,89,211886,6,0,B|376:64|416:53|416:53|290:31|220:115,1,280.724992503834,2|0,3:2|0:0,0:0:0:0:
155,58,212159,6,0,L|442:127,1,280.724992503834,10|0,0:2|0:0,0:0:0:0:
512,200,212431,6,0,P|422:223|422:311,1,167.450003193855,2|0,3:2|0:0,0:0:0:0:
511,324,212704,5,10,0:2:0:0:
279,381,212840,1,2,0:2:0:0:
51,146,212977,6,0,B|21:175|25:224|62:249|100:246|118:229|122:223|129:218|153:196|201:205|225:244|217:281|194:302,1,310.274990531159,2|0,3:2|0:0,0:0:0:0:
74,339,213250,6,0,P|118:237|220:69,1,280.724992503834,14|0,0:2|0:0,0:0:0:0:
283,119,213522,6,0,P|366:112|387:35,1,167.450003193855,2|0,3:2|0:0,0:0:0:0:
191,12,213795,5,8,0:2:0:0:
467,99,213931,1,0,3:2:0:0:
29,51,214068,6,0,P|57:149|73:256,1,177.299994589234,2|0,3:2|0:0,0:0:0:0:
431,384,214340,2,0,P|446:296|471:211,1,177.299994589234,10|0,0:2|0:0,0:0:0:0:
77,362,214613,5,2,3:2:0:0:
355,241,214750,1,0,0:0:0:0:
95,0,214886,2,0,P|134:139|157:292,1,265.94999188385,10|0,0:2|0:0,0:0:0:0:
185,366,215159,6,0,P|282:342|242:279,1,177.299994589234,2|0,3:2|0:0,0:0:0:0:
23,282,215431,1,10,0:2:0:0:
351,246,215568,1,0,0:0:0:0:
31,108,215704,2,0,B|-4:138|-4:138|130:106,1,177.299994589234,2|0,3:2|0:0,0:0:0:0:
311,0,215977,5,14,0:2:0:0:
74,379,216113,1,2,0:2:0:0:
512,99,216250,5,6,3:2:0:0:
33,25,216386,1,2,0:0:0:0:
315,384,216522,1,10,0:2:0:0:
442,6,216659,5,0,3:2:0:0:
442,6,216727,1,0,0:0:0:0:
442,6,216795,2,0,P|364:65|282:147,1,177.299994589234,2|0,3:2|0:0,0:0:0:0:
195,381,217068,1,8,0:2:0:0:
512,249,217204,1,2,3:2:0:0:
154,51,217340,6,0,B|55:81|47:191|124:260|209:171|171:94,1,280.724992503834,2|0,3:2|0:0,0:0:0:0:
250,45,217613,6,0,B|239:74|239:74|-37:156,1,280.724992503834,6|0,3:2|0:0,0:0:0:0:
10,226,217886,5,2,3:2:0:0:
54,47,218022,1,0,0:0:0:0:
79,278,218159,5,14,0:2:0:0:
141,23,218295,1,0,3:2:0:0:
483,87,218431,5,6,3:2:0:0:
0,313,218977,5,6,3:2:0:0:
311,153,219522,6,0,B|270:162|262:208|262:208|353:134|448:155|448:155|403:202|414:249,1,354.599989178467,2|0,3:2|0:0,0:0:0:0:
500,234,219795,6,0,P|335:178|160:132,1,310.274990531159,6|0,3:2|0:0,0:0:0:0:
203,142,220068,5,6,3:2:0:0:
