osu file format v14

[General]
AudioFilename: Alestorm - Death Throes of the Terrorsquid.mp3
AudioLeadIn: 0
PreviewTime: 205158
Countdown: 0
SampleSet: None
StackLeniency: 0.7
Mode: 3
LetterboxInBreaks: 0
SpecialStyle: 0
WidescreenStoryboard: 0

[Editor]
DistanceSpacing: 0.9
BeatDivisor: 4
GridSize: 4
TimelineZoom: 3

[Metadata]
Title:Death Throes Of The Terrorsquid
TitleUnicode:Death Throes Of The Terrorsquid
Artist:Alestorm
ArtistUnicode:Alestorm
Creator:BoberOfDarkness
Version:Leviathan
Source:
Tags:
BeatmapID:1478713
BeatmapSetID:698181

[Difficulty]
HPDrainRate:8
CircleSize:4
OverallDifficulty:8
ApproachRate:9.4
SliderMultiplier:1.4
SliderTickRate:1

[Events]
//Background and Video events
0,0,"rsz_01be85b46ac883639f5995f5819cb7a3.png",0,0
//Break Periods
//Storyboard Layer 0 (Background)
//Storyboard Layer 1 (Fail)
//Storyboard Layer 2 (Pass)
//Storyboard Layer 3 (Foreground)
//Storyboard Sound Samples

[TimingPoints]
285,365.84578313253,4,3,0,100,1,0
158330,-100,4,3,0,100,0,1
181744,-100,4,3,0,100,0,0
246133,-100,4,3,0,100,0,1
269547,-100,4,3,0,100,0,0
304653,243.952022768855,3,3,0,100,1,0
304653,-149.968597752453,4,3,0,100,0,0
393939,365.853658536585,4,3,0,100,1,0
429060,-100,4,3,0,100,0,1
454304,-100,4,3,0,100,0,0

[HitObjects]
64,192,285,5,0,0:0:0:0:
448,192,285,128,0,1748:0:0:0:0:
320,192,650,128,0,1016:0:0:0:0:
192,192,1016,128,0,1382:0:0:0:0:
64,192,1382,128,0,1748:0:0:0:0:
192,192,1748,1,0,0:0:0:0:
320,192,1748,128,0,2114:0:0:0:0:
192,192,2114,128,0,2480:0:0:0:0:
448,192,2480,128,0,3211:0:0:0:0:
64,192,2480,1,0,0:0:0:0:
64,192,3028,1,0,0:0:0:0:
320,192,3120,1,0,0:0:0:0:
192,192,3211,1,0,0:0:0:0:
64,192,3211,128,0,4675:0:0:0:0:
320,192,3577,128,0,3943:0:0:0:0:
192,192,3943,128,0,4126:0:0:0:0:
320,192,4217,128,0,4400:0:0:0:0:
448,192,4492,128,0,4675:0:0:0:0:
192,192,4675,128,0,5223:0:0:0:0:
448,192,5223,128,0,5772:0:0:0:0:
320,192,5223,1,0,0:0:0:0:
320,192,5772,128,0,6138:0:0:0:0:
192,192,5772,1,0,0:0:0:0:
64,192,6138,128,0,7601:0:0:0:0:
192,192,6138,1,0,0:0:0:0:
448,192,6138,128,0,6504:0:0:0:0:
320,192,6504,128,0,6595:0:0:0:0:
192,192,6595,128,0,6687:0:0:0:0:
320,192,6687,128,0,6870:0:0:0:0:
448,192,6870,128,0,7236:0:0:0:0:
320,192,7236,128,0,7418:0:0:0:0:
192,192,7418,128,0,7601:0:0:0:0:
448,192,7601,1,0,0:0:0:0:
320,192,7601,128,0,8333:0:0:0:0:
64,192,8333,1,0,0:0:0:0:
192,192,8333,128,0,8699:0:0:0:0:
448,192,8699,128,0,9065:0:0:0:0:
64,192,8882,1,0,0:0:0:0:
320,192,8973,1,0,0:0:0:0:
64,192,9065,128,0,10528:0:0:0:0:
192,192,9065,1,0,0:0:0:0:
448,192,9431,128,0,9522:0:0:0:0:
320,192,9522,128,0,9614:0:0:0:0:
192,192,9614,128,0,9796:0:0:0:0:
320,192,9796,128,0,9979:0:0:0:0:
192,192,10071,128,0,10254:0:0:0:0:
448,192,10345,128,0,10528:0:0:0:0:
192,192,10528,1,0,0:0:0:0:
320,192,10528,128,0,11077:0:0:0:0:
64,192,11077,128,0,11626:0:0:0:0:
192,192,11077,1,0,0:0:0:0:
192,192,11626,128,0,11992:0:0:0:0:
448,192,11626,1,0,0:0:0:0:
448,192,11992,128,0,13455:0:0:0:0:
64,192,11992,1,0,0:0:0:0:
320,192,12357,128,0,12449:0:0:0:0:
192,192,12449,128,0,12540:0:0:0:0:
320,192,12540,128,0,12723:0:0:0:0:
64,192,12723,128,0,12906:0:0:0:0:
192,192,12998,128,0,13181:0:0:0:0:
64,192,13272,128,0,13455:0:0:0:0:
320,192,13455,128,0,14187:0:0:0:0:
448,192,14187,128,0,14918:0:0:0:0:
192,192,14187,1,0,0:0:0:0:
192,192,14735,1,0,0:0:0:0:
320,192,14827,1,0,0:0:0:0:
192,192,14918,128,0,16382:0:0:0:0:
64,192,14918,1,0,0:0:0:0:
448,192,15284,128,0,15376:0:0:0:0:
320,192,15376,128,0,15467:0:0:0:0:
64,192,15467,128,0,15650:0:0:0:0:
320,192,15650,128,0,15833:0:0:0:0:
448,192,15924,128,0,16107:0:0:0:0:
64,192,16199,128,0,16382:0:0:0:0:
320,192,16382,128,0,16930:0:0:0:0:
448,192,16930,128,0,17479:0:0:0:0:
192,192,16930,1,0,0:0:0:0:
192,192,17479,128,0,17845:0:0:0:0:
64,192,17479,1,0,0:0:0:0:
448,192,17845,128,0,19308:0:0:0:0:
320,192,17845,1,0,0:0:0:0:
192,192,18211,128,0,18302:0:0:0:0:
320,192,18302,128,0,18394:0:0:0:0:
192,192,18394,128,0,18577:0:0:0:0:
64,192,18577,128,0,18760:0:0:0:0:
320,192,18851,128,0,19034:0:0:0:0:
192,192,19126,128,0,19308:0:0:0:0:
64,192,19308,128,0,20040:0:0:0:0:
320,192,19308,1,0,0:0:0:0:
320,192,20040,128,0,20772:0:0:0:0:
192,192,20040,1,0,0:0:0:0:
192,192,20589,1,0,0:0:0:0:
64,192,20680,1,0,0:0:0:0:
448,192,20772,1,0,0:0:0:0:
192,192,20772,128,0,22235:0:0:0:0:
448,192,21138,128,0,21229:0:0:0:0:
320,192,21229,128,0,21321:0:0:0:0:
64,192,21321,128,0,21504:0:0:0:0:
320,192,21504,128,0,21686:0:0:0:0:
64,192,21778,128,0,21961:0:0:0:0:
320,192,22052,1,0,0:0:0:0:
448,192,22052,1,0,0:0:0:0:
64,192,22144,1,0,0:0:0:0:
448,192,22235,1,0,0:0:0:0:
320,192,22235,128,0,22510:0:0:0:0:
64,192,22784,1,0,0:0:0:0:
448,192,22784,1,0,0:0:0:0:
320,192,22784,128,0,22967:0:0:0:0:
192,192,23150,1,0,0:0:0:0:
64,192,23211,5,0,0:0:0:0:
320,192,23272,1,0,0:0:0:0:
192,192,23333,1,0,0:0:0:0:
448,192,23333,128,0,23516:0:0:0:0:
64,192,23333,1,0,0:0:0:0:
320,192,23699,5,0,0:0:0:0:
64,192,23699,1,0,0:0:0:0:
192,192,23699,1,0,0:0:0:0:
448,192,23790,1,0,0:0:0:0:
320,192,23882,1,0,0:0:0:0:
192,192,23973,1,0,0:0:0:0:
64,192,24064,1,0,0:0:0:0:
320,192,24064,1,0,0:0:0:0:
192,192,24156,1,0,0:0:0:0:
320,192,24247,1,0,0:0:0:0:
64,192,24339,1,0,0:0:0:0:
192,192,24430,1,0,0:0:0:0:
448,192,24430,1,0,0:0:0:0:
320,192,24522,1,0,0:0:0:0:
192,192,24613,1,0,0:0:0:0:
64,192,24705,1,0,0:0:0:0:
320,192,24796,1,0,0:0:0:0:
448,192,24796,1,0,0:0:0:0:
192,192,24888,1,0,0:0:0:0:
64,192,24979,1,0,0:0:0:0:
320,192,25071,1,0,0:0:0:0:
192,192,25162,1,0,0:0:0:0:
448,192,25162,1,0,0:0:0:0:
64,192,25253,1,0,0:0:0:0:
320,192,25345,1,0,0:0:0:0:
448,192,25436,1,0,0:0:0:0:
320,192,25528,1,0,0:0:0:0:
64,192,25528,1,0,0:0:0:0:
192,192,25619,1,0,0:0:0:0:
64,192,25711,1,0,0:0:0:0:
320,192,25802,1,0,0:0:0:0:
192,192,25894,1,0,0:0:0:0:
448,192,25894,1,0,0:0:0:0:
64,192,25985,1,0,0:0:0:0:
192,192,26077,1,0,0:0:0:0:
320,192,26168,1,0,0:0:0:0:
448,192,26260,1,0,0:0:0:0:
192,192,26260,1,0,0:0:0:0:
320,192,26351,1,0,0:0:0:0:
64,192,26442,1,0,0:0:0:0:
192,192,26534,1,0,0:0:0:0:
320,192,26625,1,0,0:0:0:0:
64,192,26625,1,0,0:0:0:0:
192,192,26717,1,0,0:0:0:0:
320,192,26808,1,0,0:0:0:0:
448,192,26900,1,0,0:0:0:0:
320,192,26991,1,0,0:0:0:0:
64,192,26991,1,0,0:0:0:0:
192,192,27083,1,0,0:0:0:0:
64,192,27174,1,0,0:0:0:0:
192,192,27266,1,0,0:0:0:0:
320,192,27357,1,0,0:0:0:0:
448,192,27357,1,0,0:0:0:0:
192,192,27449,1,0,0:0:0:0:
320,192,27540,1,0,0:0:0:0:
448,192,27631,1,0,0:0:0:0:
320,192,27723,1,0,0:0:0:0:
192,192,27723,1,0,0:0:0:0:
64,192,27814,1,0,0:0:0:0:
192,192,27906,1,0,0:0:0:0:
320,192,27997,1,0,0:0:0:0:
448,192,28089,1,0,0:0:0:0:
64,192,28089,1,0,0:0:0:0:
192,192,28180,1,0,0:0:0:0:
448,192,28272,1,0,0:0:0:0:
320,192,28363,1,0,0:0:0:0:
64,192,28455,1,0,0:0:0:0:
192,192,28455,1,0,0:0:0:0:
320,192,28546,1,0,0:0:0:0:
192,192,28638,1,0,0:0:0:0:
448,192,28638,1,0,0:0:0:0:
320,192,28729,1,0,0:0:0:0:
64,192,28820,1,0,0:0:0:0:
192,192,28820,1,0,0:0:0:0:
448,192,28912,1,0,0:0:0:0:
320,192,29003,1,0,0:0:0:0:
192,192,29095,1,0,0:0:0:0:
64,192,29186,1,0,0:0:0:0:
448,192,29186,1,0,0:0:0:0:
320,192,29278,1,0,0:0:0:0:
192,192,29369,1,0,0:0:0:0:
64,192,29461,1,0,0:0:0:0:
320,192,29552,1,0,0:0:0:0:
448,192,29552,1,0,0:0:0:0:
64,192,29644,1,0,0:0:0:0:
192,192,29735,1,0,0:0:0:0:
448,192,29827,1,0,0:0:0:0:
320,192,29918,1,0,0:0:0:0:
64,192,29918,1,0,0:0:0:0:
192,192,30009,1,0,0:0:0:0:
64,192,30101,1,0,0:0:0:0:
320,192,30192,1,0,0:0:0:0:
192,192,30284,1,0,0:0:0:0:
448,192,30284,1,0,0:0:0:0:
320,192,30375,1,0,0:0:0:0:
448,192,30467,1,0,0:0:0:0:
320,192,30558,1,0,0:0:0:0:
448,192,30650,1,0,0:0:0:0:
192,192,30650,1,0,0:0:0:0:
64,192,30741,1,0,0:0:0:0:
320,192,30833,1,0,0:0:0:0:
448,192,30924,1,0,0:0:0:0:
192,192,31016,1,0,0:0:0:0:
64,192,31016,1,0,0:0:0:0:
320,192,31107,1,0,0:0:0:0:
192,192,31198,1,0,0:0:0:0:
64,192,31290,1,0,0:0:0:0:
320,192,31381,1,0,0:0:0:0:
448,192,31381,1,0,0:0:0:0:
192,192,31473,1,0,0:0:0:0:
320,192,31564,1,0,0:0:0:0:
64,192,31564,1,0,0:0:0:0:
448,192,31656,1,0,0:0:0:0:
64,192,31747,1,0,0:0:0:0:
320,192,31747,1,0,0:0:0:0:
192,192,31839,1,0,0:0:0:0:
320,192,31930,1,0,0:0:0:0:
64,192,32022,1,0,0:0:0:0:
192,192,32113,1,0,0:0:0:0:
448,192,32113,1,0,0:0:0:0:
320,192,32205,1,0,0:0:0:0:
448,192,32296,1,0,0:0:0:0:
320,192,32387,1,0,0:0:0:0:
192,192,32479,1,0,0:0:0:0:
64,192,32479,1,0,0:0:0:0:
448,192,32479,1,0,0:0:0:0:
320,192,32570,1,0,0:0:0:0:
192,192,32662,1,0,0:0:0:0:
64,192,32753,1,0,0:0:0:0:
320,192,32845,1,0,0:0:0:0:
448,192,32845,1,0,0:0:0:0:
192,192,32936,1,0,0:0:0:0:
320,192,33028,1,0,0:0:0:0:
448,192,33119,1,0,0:0:0:0:
192,192,33211,1,0,0:0:0:0:
64,192,33211,1,0,0:0:0:0:
448,192,33302,1,0,0:0:0:0:
320,192,33394,1,0,0:0:0:0:
192,192,33485,1,0,0:0:0:0:
448,192,33576,1,0,0:0:0:0:
64,192,33576,1,0,0:0:0:0:
320,192,33668,1,0,0:0:0:0:
192,192,33759,1,0,0:0:0:0:
64,192,33851,1,0,0:0:0:0:
320,192,33942,1,0,0:0:0:0:
448,192,33942,1,0,0:0:0:0:
192,192,34034,1,0,0:0:0:0:
64,192,34125,1,0,0:0:0:0:
192,192,34217,1,0,0:0:0:0:
320,192,34308,1,0,0:0:0:0:
448,192,34308,1,0,0:0:0:0:
192,192,34400,1,0,0:0:0:0:
64,192,34491,1,0,0:0:0:0:
320,192,34583,1,0,0:0:0:0:
192,192,34674,128,0,34857:0:0:0:0:
448,192,34674,1,0,0:0:0:0:
320,192,34765,1,0,0:0:0:0:
64,192,34857,1,0,0:0:0:0:
448,192,34857,128,0,35040:0:0:0:0:
192,192,34948,1,0,0:0:0:0:
64,192,35040,128,0,35223:0:0:0:0:
320,192,35040,1,0,0:0:0:0:
448,192,35131,1,0,0:0:0:0:
192,192,35223,128,0,35406:0:0:0:0:
320,192,35223,1,0,0:0:0:0:
64,192,35314,1,0,0:0:0:0:
448,192,35406,128,0,36778:0:0:0:0:
320,192,35406,1,0,0:0:0:0:
192,192,35497,1,0,0:0:0:0:
64,192,35589,1,0,0:0:0:0:
320,192,35680,1,0,0:0:0:0:
192,192,35772,1,0,0:0:0:0:
64,192,35772,1,0,0:0:0:0:
320,192,35863,1,0,0:0:0:0:
64,192,35954,1,0,0:0:0:0:
192,192,36046,1,0,0:0:0:0:
320,192,36137,1,0,0:0:0:0:
64,192,36137,1,0,0:0:0:0:
192,192,36229,1,0,0:0:0:0:
320,192,36320,1,0,0:0:0:0:
64,192,36412,1,0,0:0:0:0:
320,192,36503,1,0,0:0:0:0:
192,192,36503,1,0,0:0:0:0:
64,192,36595,1,0,0:0:0:0:
320,192,36686,1,0,0:0:0:0:
192,192,36778,1,0,0:0:0:0:
64,192,36869,1,0,0:0:0:0:
320,192,36869,128,0,37418:0:0:0:0:
448,192,36869,1,0,0:0:0:0:
192,192,36961,1,0,0:0:0:0:
448,192,37052,1,0,0:0:0:0:
64,192,37143,1,0,0:0:0:0:
192,192,37235,1,0,0:0:0:0:
448,192,37235,1,0,0:0:0:0:
64,192,37326,1,0,0:0:0:0:
192,192,37418,128,0,37967:0:0:0:0:
448,192,37418,1,0,0:0:0:0:
64,192,37509,1,0,0:0:0:0:
320,192,37601,1,0,0:0:0:0:
448,192,37601,1,0,0:0:0:0:
64,192,37692,1,0,0:0:0:0:
320,192,37784,1,0,0:0:0:0:
448,192,37875,1,0,0:0:0:0:
320,192,37967,128,0,38150:0:0:0:0:
64,192,37967,1,0,0:0:0:0:
448,192,38058,1,0,0:0:0:0:
64,192,38150,128,0,38332:0:0:0:0:
192,192,38241,1,0,0:0:0:0:
448,192,38332,128,0,39704:0:0:0:0:
320,192,38332,1,0,0:0:0:0:
192,192,38424,1,0,0:0:0:0:
64,192,38515,1,0,0:0:0:0:
192,192,38607,1,0,0:0:0:0:
320,192,38698,1,0,0:0:0:0:
64,192,38698,1,0,0:0:0:0:
192,192,38790,1,0,0:0:0:0:
320,192,38881,1,0,0:0:0:0:
64,192,38973,1,0,0:0:0:0:
192,192,39064,1,0,0:0:0:0:
320,192,39064,1,0,0:0:0:0:
64,192,39156,1,0,0:0:0:0:
320,192,39247,1,0,0:0:0:0:
192,192,39339,1,0,0:0:0:0:
64,192,39430,1,0,0:0:0:0:
320,192,39430,1,0,0:0:0:0:
192,192,39521,1,0,0:0:0:0:
64,192,39613,1,0,0:0:0:0:
320,192,39704,1,0,0:0:0:0:
192,192,39796,1,0,0:0:0:0:
448,192,39796,1,0,0:0:0:0:
64,192,39796,128,0,39979:0:0:0:0:
320,192,39887,1,0,0:0:0:0:
192,192,39979,128,0,40162:0:0:0:0:
448,192,40070,1,0,0:0:0:0:
64,192,40162,1,0,0:0:0:0:
320,192,40162,128,0,40345:0:0:0:0:
448,192,40253,1,0,0:0:0:0:
192,192,40345,1,0,0:0:0:0:
64,192,40345,128,0,40619:0:0:0:0:
448,192,40436,1,0,0:0:0:0:
448,192,40619,1,0,0:0:0:0:
320,192,40619,128,0,40893:0:0:0:0:
192,192,40710,1,0,0:0:0:0:
64,192,40802,1,0,0:0:0:0:
448,192,40893,128,0,41076:0:0:0:0:
192,192,40893,1,0,0:0:0:0:
64,192,40985,1,0,0:0:0:0:
192,192,41076,128,0,41259:0:0:0:0:
320,192,41076,1,0,0:0:0:0:
448,192,41168,1,0,0:0:0:0:
64,192,41259,128,0,41534:0:0:0:0:
320,192,41259,1,0,0:0:0:0:
448,192,41351,1,0,0:0:0:0:
320,192,41442,1,0,0:0:0:0:
192,192,41534,1,0,0:0:0:0:
448,192,41625,128,0,41899:0:0:0:0:
320,192,41625,1,0,0:0:0:0:
64,192,41717,1,0,0:0:0:0:
192,192,41808,1,0,0:0:0:0:
320,192,41899,1,0,0:0:0:0:
64,192,41991,1,0,0:0:0:0:
192,192,41991,128,0,42357:0:0:0:0:
320,192,42082,1,0,0:0:0:0:
448,192,42174,1,0,0:0:0:0:
320,192,42265,1,0,0:0:0:0:
64,192,42357,128,0,42723:0:0:0:0:
448,192,42357,1,0,0:0:0:0:
320,192,42448,1,0,0:0:0:0:
192,192,42540,1,0,0:0:0:0:
320,192,42631,1,0,0:0:0:0:
448,192,42723,1,0,0:0:0:0:
320,192,42784,1,0,0:0:0:0:
192,192,42845,1,0,0:0:0:0:
448,192,42906,1,0,0:0:0:0:
320,192,42967,1,0,0:0:0:0:
192,192,43027,1,0,0:0:0:0:
448,192,43088,1,0,0:0:0:0:
320,192,43149,1,0,0:0:0:0:
64,192,43210,1,0,0:0:0:0:
448,192,43271,1,0,0:0:0:0:
320,192,43332,1,0,0:0:0:0:
64,192,43393,1,0,0:0:0:0:
448,192,43454,1,0,0:0:0:0:
192,192,43515,1,0,0:0:0:0:
64,192,43576,1,0,0:0:0:0:
448,192,43637,1,0,0:0:0:0:
192,192,43698,1,0,0:0:0:0:
64,192,43759,1,0,0:0:0:0:
320,192,43820,1,0,0:0:0:0:
192,192,43881,1,0,0:0:0:0:
64,192,43942,1,0,0:0:0:0:
320,192,44003,1,0,0:0:0:0:
192,192,44064,1,0,0:0:0:0:
64,192,44125,1,0,0:0:0:0:
448,192,44186,128,0,45558:0:0:0:0:
320,192,44186,1,0,0:0:0:0:
64,192,44277,1,0,0:0:0:0:
192,192,44369,1,0,0:0:0:0:
320,192,44460,1,0,0:0:0:0:
192,192,44552,1,0,0:0:0:0:
64,192,44552,1,0,0:0:0:0:
320,192,44643,1,0,0:0:0:0:
192,192,44735,1,0,0:0:0:0:
64,192,44826,1,0,0:0:0:0:
192,192,44918,1,0,0:0:0:0:
320,192,44918,1,0,0:0:0:0:
64,192,45009,1,0,0:0:0:0:
192,192,45101,1,0,0:0:0:0:
320,192,45192,1,0,0:0:0:0:
192,192,45284,1,0,0:0:0:0:
64,192,45284,1,0,0:0:0:0:
320,192,45375,1,0,0:0:0:0:
192,192,45466,1,0,0:0:0:0:
64,192,45558,1,0,0:0:0:0:
320,192,45649,5,0,0:0:0:0:
192,192,45649,1,0,0:0:0:0:
64,192,45741,1,0,0:0:0:0:
448,192,45741,1,0,0:0:0:0:
192,192,45832,1,0,0:0:0:0:
320,192,45832,1,0,0:0:0:0:
448,192,45924,1,0,0:0:0:0:
64,192,45924,1,0,0:0:0:0:
320,192,46015,1,0,0:0:0:0:
192,192,46107,1,0,0:0:0:0:
64,192,46198,1,0,0:0:0:0:
192,192,46290,1,0,0:0:0:0:
320,192,46381,1,0,0:0:0:0:
448,192,46473,1,0,0:0:0:0:
320,192,46564,1,0,0:0:0:0:
192,192,46655,1,0,0:0:0:0:
320,192,46747,1,0,0:0:0:0:
448,192,46747,1,0,0:0:0:0:
64,192,46838,1,0,0:0:0:0:
192,192,47021,1,0,0:0:0:0:
320,192,47113,1,0,0:0:0:0:
64,192,47113,1,0,0:0:0:0:
448,192,47113,128,0,47479:0:0:0:0:
64,192,49491,1,0,0:0:0:0:
192,192,49552,1,0,0:0:0:0:
320,192,49613,1,0,0:0:0:0:
448,192,49674,1,0,0:0:0:0:
64,192,49674,128,0,50040:0:0:0:0:
448,192,50040,128,0,50405:0:0:0:0:
192,192,50040,1,0,0:0:0:0:
320,192,50040,1,0,0:0:0:0:
320,192,52418,1,0,0:0:0:0:
192,192,52478,1,0,0:0:0:0:
64,192,52539,1,0,0:0:0:0:
320,192,52600,1,0,0:0:0:0:
448,192,52600,1,0,0:0:0:0:
192,192,52783,1,0,0:0:0:0:
64,192,52966,1,0,0:0:0:0:
448,192,52966,128,0,53515:0:0:0:0:
320,192,53515,128,0,53698:0:0:0:0:
448,192,53698,128,0,54430:0:0:0:0:
64,192,53698,1,0,0:0:0:0:
320,192,54247,1,0,0:0:0:0:
64,192,54430,128,0,55161:0:0:0:0:
320,192,54978,1,0,0:0:0:0:
192,192,55161,1,0,0:0:0:0:
448,192,55161,128,0,55527:0:0:0:0:
320,192,55527,128,0,55893:0:0:0:0:
64,192,55710,1,0,0:0:0:0:
448,192,55893,128,0,56625:0:0:0:0:
192,192,55893,1,0,0:0:0:0:
192,192,56625,128,0,57356:0:0:0:0:
320,192,56625,1,0,0:0:0:0:
64,192,57174,1,0,0:0:0:0:
448,192,57356,128,0,57722:0:0:0:0:
320,192,57356,1,0,0:0:0:0:
320,192,57722,128,0,58088:0:0:0:0:
448,192,57905,1,0,0:0:0:0:
192,192,57966,1,0,0:0:0:0:
64,192,58027,1,0,0:0:0:0:
448,192,58088,1,0,0:0:0:0:
192,192,58271,1,0,0:0:0:0:
64,192,58271,1,0,0:0:0:0:
320,192,58271,128,0,58820:0:0:0:0:
448,192,58820,128,0,59186:0:0:0:0:
192,192,58820,1,0,0:0:0:0:
64,192,58820,1,0,0:0:0:0:
320,192,59369,1,0,0:0:0:0:
192,192,59552,1,0,0:0:0:0:
64,192,59552,1,0,0:0:0:0:
320,192,60100,1,0,0:0:0:0:
192,192,60283,1,0,0:0:0:0:
448,192,60649,1,0,0:0:0:0:
320,192,60832,1,0,0:0:0:0:
192,192,61015,1,0,0:0:0:0:
64,192,61015,1,0,0:0:0:0:
320,192,61198,1,0,0:0:0:0:
448,192,61289,1,0,0:0:0:0:
192,192,61381,128,0,61747:0:0:0:0:
448,192,61747,128,0,62112:0:0:0:0:
320,192,61747,1,0,0:0:0:0:
320,192,62295,1,0,0:0:0:0:
192,192,62478,1,0,0:0:0:0:
64,192,62478,1,0,0:0:0:0:
448,192,62844,1,0,0:0:0:0:
320,192,63027,1,0,0:0:0:0:
192,192,63210,1,0,0:0:0:0:
448,192,63576,1,0,0:0:0:0:
320,192,63759,1,0,0:0:0:0:
192,192,63942,1,0,0:0:0:0:
64,192,63942,1,0,0:0:0:0:
448,192,63987,1,0,0:0:0:0:
320,192,64125,1,0,0:0:0:0:
192,192,64216,1,0,0:0:0:0:
64,192,64308,128,0,64673:0:0:0:0:
320,192,64308,1,0,0:0:0:0:
448,192,64308,1,0,0:0:0:0:
192,192,64490,1,0,0:0:0:0:
448,192,64673,128,0,65405:0:0:0:0:
320,192,64673,1,0,0:0:0:0:
320,192,65222,1,0,0:0:0:0:
192,192,65405,1,0,0:0:0:0:
64,192,65405,128,0,67600:0:0:0:0:
448,192,65771,1,0,0:0:0:0:
320,192,65954,1,0,0:0:0:0:
192,192,66137,1,0,0:0:0:0:
448,192,66503,1,0,0:0:0:0:
320,192,66686,1,0,0:0:0:0:
192,192,66868,1,0,0:0:0:0:
448,192,66868,1,0,0:0:0:0:
320,192,67051,1,0,0:0:0:0:
448,192,67234,1,0,0:0:0:0:
320,192,67417,1,0,0:0:0:0:
192,192,67600,1,0,0:0:0:0:
448,192,67600,128,0,68332:0:0:0:0:
64,192,67966,1,0,0:0:0:0:
320,192,68149,1,0,0:0:0:0:
64,192,68332,128,0,69064:0:0:0:0:
192,192,68332,1,0,0:0:0:0:
320,192,68698,1,0,0:0:0:0:
448,192,68881,1,0,0:0:0:0:
320,192,68942,1,0,0:0:0:0:
192,192,69003,1,0,0:0:0:0:
448,192,69064,1,0,0:0:0:0:
192,192,69246,1,0,0:0:0:0:
320,192,69246,1,0,0:0:0:0:
64,192,69246,128,0,69795:0:0:0:0:
448,192,69612,1,0,0:0:0:0:
320,192,69795,128,0,70161:0:0:0:0:
192,192,69795,1,0,0:0:0:0:
192,192,70161,128,0,70527:0:0:0:0:
448,192,70527,128,0,73454:0:0:0:0:
64,192,70527,1,0,0:0:0:0:
320,192,70893,1,0,0:0:0:0:
192,192,71076,1,0,0:0:0:0:
64,192,71259,1,0,0:0:0:0:
320,192,71259,1,0,0:0:0:0:
320,192,71624,1,0,0:0:0:0:
192,192,71807,1,0,0:0:0:0:
64,192,71990,1,0,0:0:0:0:
320,192,71990,1,0,0:0:0:0:
192,192,72173,1,0,0:0:0:0:
320,192,72356,1,0,0:0:0:0:
64,192,72539,1,0,0:0:0:0:
320,192,72722,1,0,0:0:0:0:
192,192,72722,1,0,0:0:0:0:
64,192,72905,1,0,0:0:0:0:
320,192,73088,1,0,0:0:0:0:
192,192,73271,1,0,0:0:0:0:
64,192,73454,1,0,0:0:0:0:
320,192,73454,128,0,76015:0:0:0:0:
64,192,73820,1,0,0:0:0:0:
448,192,74002,1,0,0:0:0:0:
192,192,74185,1,0,0:0:0:0:
64,192,74185,1,0,0:0:0:0:
448,192,74551,1,0,0:0:0:0:
192,192,74734,1,0,0:0:0:0:
64,192,74917,1,0,0:0:0:0:
448,192,74917,1,0,0:0:0:0:
448,192,75283,1,0,0:0:0:0:
192,192,75466,1,0,0:0:0:0:
64,192,75527,1,0,0:0:0:0:
192,192,75588,1,0,0:0:0:0:
64,192,75649,1,0,0:0:0:0:
448,192,75649,1,0,0:0:0:0:
192,192,75832,1,0,0:0:0:0:
448,192,76015,128,0,76380:0:0:0:0:
64,192,76015,1,0,0:0:0:0:
192,192,76197,1,0,0:0:0:0:
64,192,76380,128,0,79307:0:0:0:0:
320,192,76380,1,0,0:0:0:0:
192,192,76746,1,0,0:0:0:0:
320,192,76929,1,0,0:0:0:0:
448,192,77112,1,0,0:0:0:0:
192,192,77112,1,0,0:0:0:0:
320,192,77295,1,0,0:0:0:0:
192,192,77478,1,0,0:0:0:0:
320,192,77661,1,0,0:0:0:0:
448,192,77844,1,0,0:0:0:0:
192,192,78210,1,0,0:0:0:0:
320,192,78393,1,0,0:0:0:0:
448,192,78454,1,0,0:0:0:0:
320,192,78515,1,0,0:0:0:0:
192,192,78575,1,0,0:0:0:0:
448,192,78575,1,0,0:0:0:0:
320,192,78758,1,0,0:0:0:0:
192,192,78941,1,0,0:0:0:0:
448,192,79124,1,0,0:0:0:0:
192,192,79307,1,0,0:0:0:0:
320,192,79307,128,0,80771:0:0:0:0:
448,192,79673,1,0,0:0:0:0:
192,192,79856,1,0,0:0:0:0:
448,192,80039,1,0,0:0:0:0:
64,192,80039,1,0,0:0:0:0:
192,192,80405,1,0,0:0:0:0:
448,192,80588,1,0,0:0:0:0:
64,192,80771,1,0,0:0:0:0:
192,192,80771,1,0,0:0:0:0:
448,192,80771,128,0,82234:0:0:0:0:
64,192,81136,1,0,0:0:0:0:
192,192,81319,1,0,0:0:0:0:
320,192,81380,1,0,0:0:0:0:
192,192,81441,1,0,0:0:0:0:
320,192,81502,1,0,0:0:0:0:
64,192,81502,1,0,0:0:0:0:
192,192,81868,1,0,0:0:0:0:
64,192,82234,128,0,82600:0:0:0:0:
192,192,82234,128,0,82600:0:0:0:0:
320,192,82234,1,0,0:0:0:0:
320,192,82600,128,0,82966:0:0:0:0:
448,192,82600,128,0,82966:0:0:0:0:
64,192,83331,1,0,0:0:0:0:
192,192,83331,1,0,0:0:0:0:
320,192,83331,1,0,0:0:0:0:
448,192,83331,1,0,0:0:0:0:
320,192,83697,1,0,0:0:0:0:
64,192,83697,128,0,85161:0:0:0:0:
192,192,83697,1,0,0:0:0:0:
448,192,83789,1,0,0:0:0:0:
320,192,83880,1,0,0:0:0:0:
192,192,83972,1,0,0:0:0:0:
320,192,84063,1,0,0:0:0:0:
448,192,84063,1,0,0:0:0:0:
192,192,84155,1,0,0:0:0:0:
448,192,84246,1,0,0:0:0:0:
320,192,84338,1,0,0:0:0:0:
192,192,84429,1,0,0:0:0:0:
448,192,84429,1,0,0:0:0:0:
320,192,84520,1,0,0:0:0:0:
192,192,84612,1,0,0:0:0:0:
448,192,84703,1,0,0:0:0:0:
320,192,84795,1,0,0:0:0:0:
192,192,84795,1,0,0:0:0:0:
448,192,84886,1,0,0:0:0:0:
192,192,84978,1,0,0:0:0:0:
448,192,85069,1,0,0:0:0:0:
192,192,85161,128,0,85527:0:0:0:0:
320,192,85161,1,0,0:0:0:0:
448,192,85252,1,0,0:0:0:0:
64,192,85344,1,0,0:0:0:0:
448,192,85435,1,0,0:0:0:0:
320,192,85527,128,0,85892:0:0:0:0:
64,192,85527,1,0,0:0:0:0:
448,192,85618,1,0,0:0:0:0:
192,192,85709,1,0,0:0:0:0:
64,192,85801,1,0,0:0:0:0:
448,192,85892,128,0,86258:0:0:0:0:
192,192,85892,1,0,0:0:0:0:
64,192,85984,1,0,0:0:0:0:
192,192,86075,1,0,0:0:0:0:
320,192,86167,1,0,0:0:0:0:
192,192,86258,128,0,86624:0:0:0:0:
64,192,86258,1,0,0:0:0:0:
320,192,86350,1,0,0:0:0:0:
448,192,86441,1,0,0:0:0:0:
320,192,86533,1,0,0:0:0:0:
64,192,86624,1,0,0:0:0:0:
448,192,86716,1,0,0:0:0:0:
192,192,86807,1,0,0:0:0:0:
64,192,86898,1,0,0:0:0:0:
320,192,86990,1,0,0:0:0:0:
448,192,87081,1,0,0:0:0:0:
320,192,87173,1,0,0:0:0:0:
192,192,87264,1,0,0:0:0:0:
64,192,87356,1,0,0:0:0:0:
320,192,87447,1,0,0:0:0:0:
448,192,87539,1,0,0:0:0:0:
192,192,87630,1,0,0:0:0:0:
64,192,87722,1,0,0:0:0:0:
448,192,87813,1,0,0:0:0:0:
320,192,87905,1,0,0:0:0:0:
64,192,87996,1,0,0:0:0:0:
192,192,88087,1,0,0:0:0:0:
448,192,88087,128,0,88453:0:0:0:0:
64,192,88453,128,0,88819:0:0:0:0:
320,192,88453,1,0,0:0:0:0:
192,192,89185,1,0,0:0:0:0:
320,192,89185,128,0,89551:0:0:0:0:
192,192,89551,1,0,0:0:0:0:
448,192,89551,128,0,91014:0:0:0:0:
64,192,89642,1,0,0:0:0:0:
320,192,89734,1,0,0:0:0:0:
192,192,89825,1,0,0:0:0:0:
64,192,89917,1,0,0:0:0:0:
320,192,89917,1,0,0:0:0:0:
192,192,90008,1,0,0:0:0:0:
64,192,90100,1,0,0:0:0:0:
192,192,90191,1,0,0:0:0:0:
320,192,90283,1,0,0:0:0:0:
64,192,90283,1,0,0:0:0:0:
192,192,90374,1,0,0:0:0:0:
320,192,90465,1,0,0:0:0:0:
64,192,90557,1,0,0:0:0:0:
192,192,90648,1,0,0:0:0:0:
320,192,90648,1,0,0:0:0:0:
64,192,90740,1,0,0:0:0:0:
320,192,90831,1,0,0:0:0:0:
192,192,90923,1,0,0:0:0:0:
320,192,91014,1,0,0:0:0:0:
64,192,91014,128,0,91380:0:0:0:0:
192,192,91106,1,0,0:0:0:0:
320,192,91197,1,0,0:0:0:0:
448,192,91289,1,0,0:0:0:0:
192,192,91380,128,0,91746:0:0:0:0:
320,192,91380,1,0,0:0:0:0:
448,192,91472,1,0,0:0:0:0:
64,192,91563,1,0,0:0:0:0:
448,192,91654,1,0,0:0:0:0:
320,192,91746,128,0,92112:0:0:0:0:
64,192,91746,1,0,0:0:0:0:
192,192,91929,1,0,0:0:0:0:
64,192,92020,1,0,0:0:0:0:
448,192,92112,128,0,92478:0:0:0:0:
192,192,92112,1,0,0:0:0:0:
64,192,92203,1,0,0:0:0:0:
320,192,92295,1,0,0:0:0:0:
64,192,92386,1,0,0:0:0:0:
320,192,92478,1,0,0:0:0:0:
192,192,92478,1,0,0:0:0:0:
64,192,92569,1,0,0:0:0:0:
192,192,92569,1,0,0:0:0:0:
192,192,92661,1,0,0:0:0:0:
320,192,92661,1,0,0:0:0:0:
320,192,92752,1,0,0:0:0:0:
448,192,92752,1,0,0:0:0:0:
64,192,92843,1,0,0:0:0:0:
192,192,92935,1,0,0:0:0:0:
320,192,93026,1,0,0:0:0:0:
448,192,93118,1,0,0:0:0:0:
192,192,93209,1,0,0:0:0:0:
64,192,93301,1,0,0:0:0:0:
192,192,93392,1,0,0:0:0:0:
64,192,93484,1,0,0:0:0:0:
320,192,93575,1,0,0:0:0:0:
192,192,93667,1,0,0:0:0:0:
64,192,93758,1,0,0:0:0:0:
192,192,93850,1,0,0:0:0:0:
320,192,93941,1,0,0:0:0:0:
448,192,93941,1,0,0:0:0:0:
320,192,94124,1,0,0:0:0:0:
448,192,94124,1,0,0:0:0:0:
192,192,94215,1,0,0:0:0:0:
64,192,94307,1,0,0:0:0:0:
192,192,94398,1,0,0:0:0:0:
320,192,94490,1,0,0:0:0:0:
448,192,94490,1,0,0:0:0:0:
64,192,94673,1,0,0:0:0:0:
320,192,94856,1,0,0:0:0:0:
192,192,94856,1,0,0:0:0:0:
448,192,94947,1,0,0:0:0:0:
64,192,95039,1,0,0:0:0:0:
448,192,95130,1,0,0:0:0:0:
192,192,95221,1,0,0:0:0:0:
320,192,95221,1,0,0:0:0:0:
448,192,95404,1,0,0:0:0:0:
64,192,95587,1,0,0:0:0:0:
192,192,95587,1,0,0:0:0:0:
320,192,95679,1,0,0:0:0:0:
448,192,95862,1,0,0:0:0:0:
192,192,95953,1,0,0:0:0:0:
320,192,95953,1,0,0:0:0:0:
64,192,96136,1,0,0:0:0:0:
192,192,96228,1,0,0:0:0:0:
320,192,96319,1,0,0:0:0:0:
64,192,96319,1,0,0:0:0:0:
320,192,96502,1,0,0:0:0:0:
192,192,96593,1,0,0:0:0:0:
64,192,96685,1,0,0:0:0:0:
448,192,96685,1,0,0:0:0:0:
320,192,96776,1,0,0:0:0:0:
192,192,96868,1,0,0:0:0:0:
64,192,97051,1,0,0:0:0:0:
320,192,97051,1,0,0:0:0:0:
448,192,97142,1,0,0:0:0:0:
320,192,97234,1,0,0:0:0:0:
192,192,97325,1,0,0:0:0:0:
64,192,97417,1,0,0:0:0:0:
448,192,97417,1,0,0:0:0:0:
320,192,97599,1,0,0:0:0:0:
192,192,97782,1,0,0:0:0:0:
448,192,97782,1,0,0:0:0:0:
64,192,97965,1,0,0:0:0:0:
192,192,98057,1,0,0:0:0:0:
320,192,98148,1,0,0:0:0:0:
448,192,98148,1,0,0:0:0:0:
64,192,98331,1,0,0:0:0:0:
320,192,98514,1,0,0:0:0:0:
192,192,98514,1,0,0:0:0:0:
448,192,98606,1,0,0:0:0:0:
64,192,98697,1,0,0:0:0:0:
320,192,98788,1,0,0:0:0:0:
192,192,98880,1,0,0:0:0:0:
448,192,98880,1,0,0:0:0:0:
320,192,99063,1,0,0:0:0:0:
192,192,99154,1,0,0:0:0:0:
64,192,99246,1,0,0:0:0:0:
448,192,99246,1,0,0:0:0:0:
192,192,99429,1,0,0:0:0:0:
320,192,99520,1,0,0:0:0:0:
448,192,99612,1,0,0:0:0:0:
64,192,99612,1,0,0:0:0:0:
192,192,99795,1,0,0:0:0:0:
320,192,99977,1,0,0:0:0:0:
448,192,99977,1,0,0:0:0:0:
192,192,100069,1,0,0:0:0:0:
64,192,100160,1,0,0:0:0:0:
320,192,100252,1,0,0:0:0:0:
448,192,100343,1,0,0:0:0:0:
192,192,100343,1,0,0:0:0:0:
64,192,100526,1,0,0:0:0:0:
320,192,100709,1,0,0:0:0:0:
448,192,100709,1,0,0:0:0:0:
192,192,100801,1,0,0:0:0:0:
64,192,100892,1,0,0:0:0:0:
320,192,100984,1,0,0:0:0:0:
192,192,101075,1,0,0:0:0:0:
448,192,101075,1,0,0:0:0:0:
64,192,101258,1,0,0:0:0:0:
320,192,101441,1,0,0:0:0:0:
448,192,101441,1,0,0:0:0:0:
192,192,101532,1,0,0:0:0:0:
448,192,101624,1,0,0:0:0:0:
320,192,101715,1,0,0:0:0:0:
64,192,101807,1,0,0:0:0:0:
192,192,101807,1,0,0:0:0:0:
448,192,101990,1,0,0:0:0:0:
192,192,102081,1,0,0:0:0:0:
320,192,102173,1,0,0:0:0:0:
448,192,102173,1,0,0:0:0:0:
192,192,102355,1,0,0:0:0:0:
320,192,102447,1,0,0:0:0:0:
64,192,102538,1,0,0:0:0:0:
192,192,102538,1,0,0:0:0:0:
448,192,102721,1,0,0:0:0:0:
192,192,102904,1,0,0:0:0:0:
320,192,102904,1,0,0:0:0:0:
448,192,102996,1,0,0:0:0:0:
64,192,103087,1,0,0:0:0:0:
320,192,103179,1,0,0:0:0:0:
192,192,103270,1,0,0:0:0:0:
64,192,103270,1,0,0:0:0:0:
448,192,103453,1,0,0:0:0:0:
192,192,103544,1,0,0:0:0:0:
320,192,103636,1,0,0:0:0:0:
448,192,103636,1,0,0:0:0:0:
192,192,103727,1,0,0:0:0:0:
448,192,103819,1,0,0:0:0:0:
320,192,103910,1,0,0:0:0:0:
192,192,104002,1,0,0:0:0:0:
64,192,104002,1,0,0:0:0:0:
448,192,104185,1,0,0:0:0:0:
320,192,104185,1,0,0:0:0:0:
320,192,104368,1,0,0:0:0:0:
448,192,104368,1,0,0:0:0:0:
192,192,104459,1,0,0:0:0:0:
64,192,104459,1,0,0:0:0:0:
320,192,104551,1,0,0:0:0:0:
448,192,104551,1,0,0:0:0:0:
192,192,104642,1,0,0:0:0:0:
64,192,104642,1,0,0:0:0:0:
320,192,104733,1,0,0:0:0:0:
448,192,104825,1,0,0:0:0:0:
64,192,104825,1,0,0:0:0:0:
192,192,104916,1,0,0:0:0:0:
64,192,105008,1,0,0:0:0:0:
448,192,105008,1,0,0:0:0:0:
320,192,105099,1,0,0:0:0:0:
64,192,105191,1,0,0:0:0:0:
448,192,105191,1,0,0:0:0:0:
192,192,105282,1,0,0:0:0:0:
64,192,105374,1,0,0:0:0:0:
448,192,105374,1,0,0:0:0:0:
320,192,105465,1,0,0:0:0:0:
448,192,105557,1,0,0:0:0:0:
192,192,105557,1,0,0:0:0:0:
64,192,105648,1,0,0:0:0:0:
320,192,105648,1,0,0:0:0:0:
192,192,105740,1,0,0:0:0:0:
320,192,105831,1,0,0:0:0:0:
448,192,105831,1,0,0:0:0:0:
64,192,105922,1,0,0:0:0:0:
192,192,106014,1,0,0:0:0:0:
320,192,106105,1,0,0:0:0:0:
64,192,106197,1,0,0:0:0:0:
448,192,106197,1,0,0:0:0:0:
192,192,106288,1,0,0:0:0:0:
320,192,106380,1,0,0:0:0:0:
448,192,106471,1,0,0:0:0:0:
320,192,106563,1,0,0:0:0:0:
192,192,106563,1,0,0:0:0:0:
64,192,106654,1,0,0:0:0:0:
448,192,106746,1,0,0:0:0:0:
320,192,106837,1,0,0:0:0:0:
64,192,106929,1,0,0:0:0:0:
192,192,106929,1,0,0:0:0:0:
448,192,107020,1,0,0:0:0:0:
320,192,107111,1,0,0:0:0:0:
448,192,107203,1,0,0:0:0:0:
64,192,107294,1,0,0:0:0:0:
320,192,107294,1,0,0:0:0:0:
192,192,107386,1,0,0:0:0:0:
64,192,107477,1,0,0:0:0:0:
192,192,107569,1,0,0:0:0:0:
320,192,107660,1,0,0:0:0:0:
448,192,107660,1,0,0:0:0:0:
64,192,107752,1,0,0:0:0:0:
320,192,107843,1,0,0:0:0:0:
192,192,107935,1,0,0:0:0:0:
448,192,108026,1,0,0:0:0:0:
64,192,108026,1,0,0:0:0:0:
320,192,108118,1,0,0:0:0:0:
192,192,108209,1,0,0:0:0:0:
64,192,108300,1,0,0:0:0:0:
320,192,108392,1,0,0:0:0:0:
448,192,108392,1,0,0:0:0:0:
192,192,108483,1,0,0:0:0:0:
64,192,108575,1,0,0:0:0:0:
320,192,108575,1,0,0:0:0:0:
192,192,108666,1,0,0:0:0:0:
320,192,108758,1,0,0:0:0:0:
64,192,108758,1,0,0:0:0:0:
448,192,108849,1,0,0:0:0:0:
192,192,108941,1,0,0:0:0:0:
320,192,109032,1,0,0:0:0:0:
64,192,109124,1,0,0:0:0:0:
448,192,109124,1,0,0:0:0:0:
192,192,109215,1,0,0:0:0:0:
320,192,109307,1,0,0:0:0:0:
448,192,109398,1,0,0:0:0:0:
192,192,109489,1,0,0:0:0:0:
64,192,109489,1,0,0:0:0:0:
448,192,109581,1,0,0:0:0:0:
320,192,109672,1,0,0:0:0:0:
192,192,109764,1,0,0:0:0:0:
448,192,109855,1,0,0:0:0:0:
64,192,109855,1,0,0:0:0:0:
320,192,109947,1,0,0:0:0:0:
192,192,110038,1,0,0:0:0:0:
448,192,110130,1,0,0:0:0:0:
64,192,110221,1,0,0:0:0:0:
320,192,110221,1,0,0:0:0:0:
192,192,110313,1,0,0:0:0:0:
320,192,110404,1,0,0:0:0:0:
448,192,110496,1,0,0:0:0:0:
64,192,110587,1,0,0:0:0:0:
192,192,110587,1,0,0:0:0:0:
320,192,110678,1,0,0:0:0:0:
192,192,110770,1,0,0:0:0:0:
64,192,110861,1,0,0:0:0:0:
448,192,110953,1,0,0:0:0:0:
320,192,111044,1,0,0:0:0:0:
192,192,111136,1,0,0:0:0:0:
64,192,111136,1,0,0:0:0:0:
192,192,111227,1,0,0:0:0:0:
320,192,111227,1,0,0:0:0:0:
320,192,111319,1,0,0:0:0:0:
448,192,111319,1,0,0:0:0:0:
192,192,111410,1,0,0:0:0:0:
64,192,111410,1,0,0:0:0:0:
448,192,111502,1,0,0:0:0:0:
320,192,111502,1,0,0:0:0:0:
64,192,111593,1,0,0:0:0:0:
192,192,111685,1,0,0:0:0:0:
320,192,111685,1,0,0:0:0:0:
64,192,111776,1,0,0:0:0:0:
448,192,111867,1,0,0:0:0:0:
320,192,111959,1,0,0:0:0:0:
192,192,112050,1,0,0:0:0:0:
64,192,112050,1,0,0:0:0:0:
448,192,112142,1,0,0:0:0:0:
320,192,112233,1,0,0:0:0:0:
192,192,112325,1,0,0:0:0:0:
320,192,112416,1,0,0:0:0:0:
448,192,112416,1,0,0:0:0:0:
64,192,112508,1,0,0:0:0:0:
192,192,112599,1,0,0:0:0:0:
320,192,112691,1,0,0:0:0:0:
448,192,112782,1,0,0:0:0:0:
64,192,112782,1,0,0:0:0:0:
192,192,112874,1,0,0:0:0:0:
320,192,112965,1,0,0:0:0:0:
448,192,113056,1,0,0:0:0:0:
64,192,113148,1,0,0:0:0:0:
192,192,113148,1,0,0:0:0:0:
448,192,113239,1,0,0:0:0:0:
320,192,113331,1,0,0:0:0:0:
192,192,113422,1,0,0:0:0:0:
64,192,113514,1,0,0:0:0:0:
448,192,113514,1,0,0:0:0:0:
320,192,113605,1,0,0:0:0:0:
192,192,113697,1,0,0:0:0:0:
64,192,113788,1,0,0:0:0:0:
320,192,113880,1,0,0:0:0:0:
448,192,113880,1,0,0:0:0:0:
192,192,113971,1,0,0:0:0:0:
320,192,114063,1,0,0:0:0:0:
448,192,114154,1,0,0:0:0:0:
64,192,114245,1,0,0:0:0:0:
192,192,114245,1,0,0:0:0:0:
448,192,114337,1,0,0:0:0:0:
320,192,114337,1,0,0:0:0:0:
192,192,114428,1,0,0:0:0:0:
320,192,114520,1,0,0:0:0:0:
448,192,114611,1,0,0:0:0:0:
64,192,114611,1,0,0:0:0:0:
192,192,114703,1,0,0:0:0:0:
320,192,114794,1,0,0:0:0:0:
64,192,114886,1,0,0:0:0:0:
320,192,114977,1,0,0:0:0:0:
448,192,114977,1,0,0:0:0:0:
192,192,115069,1,0,0:0:0:0:
64,192,115160,1,0,0:0:0:0:
320,192,115252,1,0,0:0:0:0:
192,192,115343,1,0,0:0:0:0:
64,192,115343,1,0,0:0:0:0:
448,192,115434,1,0,0:0:0:0:
192,192,115526,1,0,0:0:0:0:
320,192,115617,1,0,0:0:0:0:
448,192,115709,1,0,0:0:0:0:
64,192,115709,1,0,0:0:0:0:
192,192,115800,1,0,0:0:0:0:
320,192,115892,1,0,0:0:0:0:
64,192,115892,1,0,0:0:0:0:
448,192,116075,1,0,0:0:0:0:
320,192,116136,1,0,0:0:0:0:
192,192,116197,1,0,0:0:0:0:
64,192,116258,1,0,0:0:0:0:
448,192,116319,1,0,0:0:0:0:
320,192,116380,1,0,0:0:0:0:
64,192,116441,1,0,0:0:0:0:
192,192,116502,1,0,0:0:0:0:
320,192,116562,1,0,0:0:0:0:
448,192,116623,1,0,0:0:0:0:
320,192,116684,1,0,0:0:0:0:
192,192,116745,1,0,0:0:0:0:
64,192,116806,1,0,0:0:0:0:
448,192,116867,1,0,0:0:0:0:
320,192,116928,1,0,0:0:0:0:
448,192,116989,1,0,0:0:0:0:
192,192,117050,1,0,0:0:0:0:
320,192,117111,1,0,0:0:0:0:
192,192,117172,1,0,0:0:0:0:
64,192,117233,1,0,0:0:0:0:
320,192,117355,1,0,0:0:0:0:
448,192,117355,1,0,0:0:0:0:
192,192,117904,1,0,0:0:0:0:
320,192,118087,1,0,0:0:0:0:
448,192,118087,1,0,0:0:0:0:
192,192,118636,1,0,0:0:0:0:
320,192,118819,1,0,0:0:0:0:
64,192,119367,1,0,0:0:0:0:
448,192,119550,1,0,0:0:0:0:
192,192,119550,1,0,0:0:0:0:
320,192,119916,1,0,0:0:0:0:
64,192,119916,128,0,120282:0:0:0:0:
448,192,120282,128,0,120648:0:0:0:0:
192,192,120831,1,0,0:0:0:0:
64,192,121014,1,0,0:0:0:0:
320,192,121014,1,0,0:0:0:0:
448,192,121379,1,0,0:0:0:0:
320,192,121562,1,0,0:0:0:0:
192,192,121745,1,0,0:0:0:0:
448,192,122294,1,0,0:0:0:0:
192,192,122355,1,0,0:0:0:0:
320,192,122416,1,0,0:0:0:0:
64,192,122477,1,0,0:0:0:0:
448,192,122477,1,0,0:0:0:0:
320,192,122660,1,0,0:0:0:0:
192,192,122843,1,0,0:0:0:0:
64,192,122843,128,0,123209:0:0:0:0:
448,192,123209,128,0,126135:0:0:0:0:
192,192,123757,1,0,0:0:0:0:
320,192,123940,1,0,0:0:0:0:
64,192,123940,1,0,0:0:0:0:
192,192,124306,1,0,0:0:0:0:
192,192,124489,1,0,0:0:0:0:
64,192,124672,1,0,0:0:0:0:
64,192,125038,1,0,0:0:0:0:
64,192,125221,1,0,0:0:0:0:
192,192,125404,1,0,0:0:0:0:
320,192,125404,1,0,0:0:0:0:
64,192,125770,1,0,0:0:0:0:
192,192,125953,1,0,0:0:0:0:
64,192,126135,128,0,129062:0:0:0:0:
320,192,126135,1,0,0:0:0:0:
192,192,126684,1,0,0:0:0:0:
448,192,126867,1,0,0:0:0:0:
320,192,126867,1,0,0:0:0:0:
448,192,127416,1,0,0:0:0:0:
320,192,127599,1,0,0:0:0:0:
192,192,127599,1,0,0:0:0:0:
320,192,128148,1,0,0:0:0:0:
448,192,128209,1,0,0:0:0:0:
320,192,128270,1,0,0:0:0:0:
192,192,128331,1,0,0:0:0:0:
448,192,128331,1,0,0:0:0:0:
320,192,128513,128,0,129062:0:0:0:0:
192,192,129062,1,0,0:0:0:0:
448,192,129428,1,0,0:0:0:0:
448,192,129611,1,0,0:0:0:0:
192,192,129794,1,0,0:0:0:0:
64,192,129794,1,0,0:0:0:0:
320,192,130160,1,0,0:0:0:0:
320,192,130343,1,0,0:0:0:0:
64,192,130526,1,0,0:0:0:0:
448,192,130891,1,0,0:0:0:0:
448,192,131074,1,0,0:0:0:0:
192,192,131257,1,0,0:0:0:0:
64,192,131257,1,0,0:0:0:0:
320,192,131623,128,0,131989:0:0:0:0:
448,192,131623,128,0,131989:0:0:0:0:
64,192,131989,128,0,132355:0:0:0:0:
192,192,131989,128,0,132355:0:0:0:0:
448,192,132538,1,0,0:0:0:0:
192,192,132721,1,0,0:0:0:0:
64,192,132721,1,0,0:0:0:0:
320,192,133087,1,0,0:0:0:0:
320,192,133269,1,0,0:0:0:0:
64,192,133452,1,0,0:0:0:0:
192,192,133818,1,0,0:0:0:0:
448,192,134001,1,0,0:0:0:0:
320,192,134062,1,0,0:0:0:0:
448,192,134123,1,0,0:0:0:0:
320,192,134184,1,0,0:0:0:0:
64,192,134184,1,0,0:0:0:0:
192,192,134367,1,0,0:0:0:0:
448,192,134550,1,0,0:0:0:0:
64,192,134550,128,0,134916:0:0:0:0:
448,192,134916,128,0,137843:0:0:0:0:
192,192,135465,1,0,0:0:0:0:
64,192,135647,1,0,0:0:0:0:
320,192,135647,1,0,0:0:0:0:
192,192,136196,1,0,0:0:0:0:
320,192,136379,1,0,0:0:0:0:
64,192,136928,1,0,0:0:0:0:
320,192,137111,1,0,0:0:0:0:
192,192,137111,1,0,0:0:0:0:
64,192,137477,1,0,0:0:0:0:
192,192,137843,128,0,139306:0:0:0:0:
320,192,137843,1,0,0:0:0:0:
64,192,138208,1,0,0:0:0:0:
448,192,138391,1,0,0:0:0:0:
64,192,138574,1,0,0:0:0:0:
320,192,138574,1,0,0:0:0:0:
448,192,139123,1,0,0:0:0:0:
64,192,139306,128,0,140769:0:0:0:0:
320,192,139306,1,0,0:0:0:0:
448,192,139855,1,0,0:0:0:0:
320,192,139916,1,0,0:0:0:0:
448,192,139977,1,0,0:0:0:0:
320,192,140038,1,0,0:0:0:0:
192,192,140038,1,0,0:0:0:0:
320,192,140221,1,0,0:0:0:0:
448,192,140221,1,0,0:0:0:0:
192,192,140403,1,0,0:0:0:0:
320,192,140403,1,0,0:0:0:0:
192,192,140769,1,0,0:0:0:0:
320,192,140769,1,0,0:0:0:0:
448,192,140769,128,0,142233:0:0:0:0:
64,192,141135,1,0,0:0:0:0:
64,192,141318,1,0,0:0:0:0:
320,192,141501,1,0,0:0:0:0:
192,192,141501,1,0,0:0:0:0:
64,192,141867,1,0,0:0:0:0:
64,192,142050,1,0,0:0:0:0:
320,192,142233,128,0,143696:0:0:0:0:
192,192,142233,1,0,0:0:0:0:
448,192,142599,1,0,0:0:0:0:
448,192,142781,1,0,0:0:0:0:
192,192,142964,1,0,0:0:0:0:
64,192,142964,1,0,0:0:0:0:
448,192,143147,1,0,0:0:0:0:
192,192,143330,1,0,0:0:0:0:
64,192,143330,1,0,0:0:0:0:
448,192,143513,1,0,0:0:0:0:
64,192,143696,128,0,146623:0:0:0:0:
192,192,143696,1,0,0:0:0:0:
448,192,144062,1,0,0:0:0:0:
448,192,144245,1,0,0:0:0:0:
320,192,144428,1,0,0:0:0:0:
192,192,144428,1,0,0:0:0:0:
448,192,144794,1,0,0:0:0:0:
448,192,144977,1,0,0:0:0:0:
320,192,145159,1,0,0:0:0:0:
448,192,145708,1,0,0:0:0:0:
320,192,145769,1,0,0:0:0:0:
448,192,145830,1,0,0:0:0:0:
320,192,145891,1,0,0:0:0:0:
192,192,145891,1,0,0:0:0:0:
448,192,146074,1,0,0:0:0:0:
320,192,146257,1,0,0:0:0:0:
192,192,146257,128,0,146623:0:0:0:0:
448,192,146623,128,0,148086:0:0:0:0:
320,192,146989,1,0,0:0:0:0:
320,192,147172,1,0,0:0:0:0:
192,192,147355,1,0,0:0:0:0:
64,192,147355,1,0,0:0:0:0:
320,192,147903,1,0,0:0:0:0:
192,192,148086,1,0,0:0:0:0:
64,192,148086,128,0,149550:0:0:0:0:
448,192,148452,1,0,0:0:0:0:
448,192,148635,1,0,0:0:0:0:
320,192,148818,1,0,0:0:0:0:
192,192,148818,1,0,0:0:0:0:
448,192,149001,1,0,0:0:0:0:
448,192,149184,1,0,0:0:0:0:
320,192,149367,1,0,0:0:0:0:
192,192,149550,1,0,0:0:0:0:
448,192,149550,128,0,152476:0:0:0:0:
64,192,149915,1,0,0:0:0:0:
64,192,150098,1,0,0:0:0:0:
192,192,150281,1,0,0:0:0:0:
320,192,150281,1,0,0:0:0:0:
64,192,150830,1,0,0:0:0:0:
192,192,151013,1,0,0:0:0:0:
320,192,151379,1,0,0:0:0:0:
64,192,151562,1,0,0:0:0:0:
192,192,151623,1,0,0:0:0:0:
64,192,151684,1,0,0:0:0:0:
192,192,151745,1,0,0:0:0:0:
320,192,151745,1,0,0:0:0:0:
64,192,152110,1,0,0:0:0:0:
192,192,152476,128,0,153940:0:0:0:0:
320,192,152476,1,0,0:0:0:0:
64,192,152842,1,0,0:0:0:0:
64,192,153025,1,0,0:0:0:0:
320,192,153208,1,0,0:0:0:0:
448,192,153208,1,0,0:0:0:0:
320,192,153940,128,0,155403:0:0:0:0:
64,192,153940,1,0,0:0:0:0:
448,192,154306,1,0,0:0:0:0:
448,192,154488,1,0,0:0:0:0:
192,192,154671,1,0,0:0:0:0:
64,192,154671,1,0,0:0:0:0:
448,192,155037,1,0,0:0:0:0:
192,192,155220,1,0,0:0:0:0:
64,192,155403,128,0,156866:0:0:0:0:
448,192,155403,1,0,0:0:0:0:
192,192,155769,1,0,0:0:0:0:
192,192,155952,1,0,0:0:0:0:
320,192,156013,1,0,0:0:0:0:
192,192,156074,1,0,0:0:0:0:
320,192,156135,1,0,0:0:0:0:
448,192,156135,1,0,0:0:0:0:
192,192,156501,1,0,0:0:0:0:
448,192,156684,1,0,0:0:0:0:
320,192,156745,1,0,0:0:0:0:
448,192,156806,1,0,0:0:0:0:
320,192,156866,1,0,0:0:0:0:
192,192,156866,1,0,0:0:0:0:
64,192,157049,1,0,0:0:0:0:
192,192,157049,1,0,0:0:0:0:
320,192,157049,1,0,0:0:0:0:
448,192,157232,1,0,0:0:0:0:
320,192,157232,1,0,0:0:0:0:
192,192,157232,1,0,0:0:0:0:
64,192,157415,1,0,0:0:0:0:
192,192,157415,1,0,0:0:0:0:
320,192,157415,1,0,0:0:0:0:
448,192,157598,1,0,0:0:0:0:
320,192,157598,1,0,0:0:0:0:
192,192,157598,1,0,0:0:0:0:
64,192,157781,1,0,0:0:0:0:
192,192,157781,1,0,0:0:0:0:
320,192,157781,1,0,0:0:0:0:
448,192,157964,1,0,0:0:0:0:
320,192,157964,1,0,0:0:0:0:
192,192,157964,1,0,0:0:0:0:
64,192,158147,1,0,0:0:0:0:
192,192,158147,1,0,0:0:0:0:
320,192,158147,1,0,0:0:0:0:
320,192,158330,1,0,0:0:0:0:
192,192,158330,1,0,0:0:0:0:
448,192,158330,128,0,158696:0:0:0:0:
64,192,158696,128,0,159062:0:0:0:0:
192,192,159062,128,0,159702:0:0:0:0:
64,192,159793,128,0,160159:0:0:0:0:
448,192,159793,1,0,0:0:0:0:
320,192,159793,1,0,0:0:0:0:
192,192,160159,128,0,160525:0:0:0:0:
64,192,160525,128,0,160891:0:0:0:0:
320,192,160891,1,0,0:0:0:0:
448,192,160891,1,0,0:0:0:0:
320,192,161074,1,0,0:0:0:0:
192,192,161074,1,0,0:0:0:0:
192,192,161257,1,0,0:0:0:0:
64,192,161257,1,0,0:0:0:0:
448,192,161257,128,0,162720:0:0:0:0:
320,192,161622,1,0,0:0:0:0:
320,192,161805,1,0,0:0:0:0:
192,192,161988,1,0,0:0:0:0:
64,192,161988,1,0,0:0:0:0:
192,192,162354,1,0,0:0:0:0:
192,192,162537,1,0,0:0:0:0:
320,192,162720,1,0,0:0:0:0:
64,192,162720,128,0,163086:0:0:0:0:
192,192,163086,128,0,163452:0:0:0:0:
320,192,163086,1,0,0:0:0:0:
448,192,163269,1,0,0:0:0:0:
320,192,163452,128,0,163818:0:0:0:0:
64,192,163452,1,0,0:0:0:0:
448,192,163818,128,0,164183:0:0:0:0:
192,192,163818,1,0,0:0:0:0:
320,192,164183,1,0,0:0:0:0:
64,192,164183,128,0,164549:0:0:0:0:
192,192,164549,128,0,164915:0:0:0:0:
320,192,164549,1,0,0:0:0:0:
64,192,164732,1,0,0:0:0:0:
64,192,164915,128,0,165281:0:0:0:0:
448,192,164915,1,0,0:0:0:0:
320,192,164915,1,0,0:0:0:0:
192,192,165281,128,0,165647:0:0:0:0:
64,192,165464,1,0,0:0:0:0:
448,192,165647,128,0,166013:0:0:0:0:
320,192,165647,1,0,0:0:0:0:
64,192,166013,128,0,166378:0:0:0:0:
192,192,166013,1,0,0:0:0:0:
320,192,166196,1,0,0:0:0:0:
320,192,166378,128,0,166744:0:0:0:0:
448,192,166378,1,0,0:0:0:0:
64,192,166744,128,0,167110:0:0:0:0:
192,192,166744,1,0,0:0:0:0:
448,192,166927,1,0,0:0:0:0:
448,192,167110,128,0,167476:0:0:0:0:
320,192,167110,1,0,0:0:0:0:
64,192,167476,1,0,0:0:0:0:
320,192,167476,128,0,167842:0:0:0:0:
192,192,167659,1,0,0:0:0:0:
448,192,167842,1,0,0:0:0:0:
64,192,167842,128,0,168208:0:0:0:0:
192,192,168208,128,0,168574:0:0:0:0:
64,192,168391,1,0,0:0:0:0:
64,192,168574,128,0,170037:0:0:0:0:
320,192,168574,1,0,0:0:0:0:
448,192,168939,1,0,0:0:0:0:
448,192,169122,1,0,0:0:0:0:
320,192,169183,1,0,0:0:0:0:
448,192,169244,1,0,0:0:0:0:
192,192,169305,1,0,0:0:0:0:
320,192,169305,1,0,0:0:0:0:
192,192,169671,1,0,0:0:0:0:
320,192,169671,1,0,0:0:0:0:
448,192,170037,128,0,170403:0:0:0:0:
320,192,170403,128,0,170769:0:0:0:0:
192,192,170403,1,0,0:0:0:0:
64,192,170586,1,0,0:0:0:0:
448,192,170769,1,0,0:0:0:0:
192,192,170769,128,0,171134:0:0:0:0:
320,192,171134,128,0,171500:0:0:0:0:
448,192,171317,1,0,0:0:0:0:
64,192,171500,128,0,171866:0:0:0:0:
192,192,171500,1,0,0:0:0:0:
192,192,171866,128,0,172232:0:0:0:0:
64,192,172049,1,0,0:0:0:0:
64,192,172232,128,0,172964:0:0:0:0:
320,192,172598,1,0,0:0:0:0:
448,192,172598,1,0,0:0:0:0:
192,192,172781,1,0,0:0:0:0:
320,192,172964,128,0,174427:0:0:0:0:
448,192,173330,1,0,0:0:0:0:
448,192,173512,1,0,0:0:0:0:
192,192,173695,1,0,0:0:0:0:
64,192,173695,1,0,0:0:0:0:
448,192,174061,1,0,0:0:0:0:
192,192,174244,1,0,0:0:0:0:
448,192,174427,128,0,175890:0:0:0:0:
64,192,174427,1,0,0:0:0:0:
320,192,174793,1,0,0:0:0:0:
192,192,174976,1,0,0:0:0:0:
64,192,175159,1,0,0:0:0:0:
320,192,175159,1,0,0:0:0:0:
192,192,175525,1,0,0:0:0:0:
192,192,175890,1,0,0:0:0:0:
64,192,175890,128,0,177354:0:0:0:0:
448,192,176256,1,0,0:0:0:0:
448,192,176439,1,0,0:0:0:0:
320,192,176622,1,0,0:0:0:0:
192,192,176622,1,0,0:0:0:0:
192,192,176988,1,0,0:0:0:0:
320,192,177171,1,0,0:0:0:0:
192,192,177354,128,0,178817:0:0:0:0:
448,192,177354,1,0,0:0:0:0:
64,192,177720,1,0,0:0:0:0:
64,192,177903,1,0,0:0:0:0:
320,192,178086,1,0,0:0:0:0:
448,192,178086,1,0,0:0:0:0:
64,192,178451,1,0,0:0:0:0:
320,192,178451,1,0,0:0:0:0:
448,192,178634,1,0,0:0:0:0:
64,192,178634,1,0,0:0:0:0:
448,192,178817,128,0,180281:0:0:0:0:
320,192,178817,1,0,0:0:0:0:
64,192,179183,1,0,0:0:0:0:
192,192,179366,1,0,0:0:0:0:
320,192,179549,1,0,0:0:0:0:
320,192,179915,1,0,0:0:0:0:
64,192,180098,1,0,0:0:0:0:
320,192,180281,128,0,181744:0:0:0:0:
192,192,180281,1,0,0:0:0:0:
448,192,180646,1,0,0:0:0:0:
448,192,180829,1,0,0:0:0:0:
192,192,181012,1,0,0:0:0:0:
64,192,181012,1,0,0:0:0:0:
448,192,181378,1,0,0:0:0:0:
64,192,181744,1,0,0:0:0:0:
448,192,181744,1,0,0:0:0:0:
192,192,181835,1,0,0:0:0:0:
320,192,181927,1,0,0:0:0:0:
448,192,182018,1,0,0:0:0:0:
192,192,182110,1,0,0:0:0:0:
64,192,182110,1,0,0:0:0:0:
320,192,182201,1,0,0:0:0:0:
192,192,182293,1,0,0:0:0:0:
448,192,182384,1,0,0:0:0:0:
320,192,182476,1,0,0:0:0:0:
64,192,182476,1,0,0:0:0:0:
192,192,182567,1,0,0:0:0:0:
64,192,182659,1,0,0:0:0:0:
448,192,182750,1,0,0:0:0:0:
320,192,182842,1,0,0:0:0:0:
192,192,182842,1,0,0:0:0:0:
64,192,182933,1,0,0:0:0:0:
448,192,183024,1,0,0:0:0:0:
64,192,183116,1,0,0:0:0:0:
192,192,183207,1,0,0:0:0:0:
448,192,183207,1,0,0:0:0:0:
320,192,183207,1,0,0:0:0:0:
64,192,183299,1,0,0:0:0:0:
192,192,183390,1,0,0:0:0:0:
320,192,183482,1,0,0:0:0:0:
192,192,183573,1,0,0:0:0:0:
448,192,183573,1,0,0:0:0:0:
320,192,183665,1,0,0:0:0:0:
192,192,183756,1,0,0:0:0:0:
64,192,183848,1,0,0:0:0:0:
192,192,183939,1,0,0:0:0:0:
320,192,183939,1,0,0:0:0:0:
64,192,184031,1,0,0:0:0:0:
192,192,184122,1,0,0:0:0:0:
320,192,184213,1,0,0:0:0:0:
448,192,184305,1,0,0:0:0:0:
192,192,184305,1,0,0:0:0:0:
320,192,184396,1,0,0:0:0:0:
192,192,184488,1,0,0:0:0:0:
64,192,184579,1,0,0:0:0:0:
192,192,184671,1,0,0:0:0:0:
320,192,184671,1,0,0:0:0:0:
448,192,184671,1,0,0:0:0:0:
64,192,184762,1,0,0:0:0:0:
192,192,184854,1,0,0:0:0:0:
320,192,184945,1,0,0:0:0:0:
448,192,185037,1,0,0:0:0:0:
64,192,185037,1,0,0:0:0:0:
192,192,185128,1,0,0:0:0:0:
320,192,185220,1,0,0:0:0:0:
448,192,185311,1,0,0:0:0:0:
192,192,185402,1,0,0:0:0:0:
64,192,185402,1,0,0:0:0:0:
320,192,185494,1,0,0:0:0:0:
448,192,185585,1,0,0:0:0:0:
320,192,185677,1,0,0:0:0:0:
192,192,185768,1,0,0:0:0:0:
64,192,185768,1,0,0:0:0:0:
448,192,185860,1,0,0:0:0:0:
320,192,185951,1,0,0:0:0:0:
192,192,186043,1,0,0:0:0:0:
64,192,186134,1,0,0:0:0:0:
448,192,186134,1,0,0:0:0:0:
320,192,186134,1,0,0:0:0:0:
192,192,186226,1,0,0:0:0:0:
64,192,186317,1,0,0:0:0:0:
192,192,186409,1,0,0:0:0:0:
64,192,186500,1,0,0:0:0:0:
320,192,186500,1,0,0:0:0:0:
448,192,186591,1,0,0:0:0:0:
320,192,186683,1,0,0:0:0:0:
448,192,186774,1,0,0:0:0:0:
192,192,186866,1,0,0:0:0:0:
64,192,186866,1,0,0:0:0:0:
320,192,186957,1,0,0:0:0:0:
448,192,187049,1,0,0:0:0:0:
192,192,187140,1,0,0:0:0:0:
64,192,187232,1,0,0:0:0:0:
320,192,187232,1,0,0:0:0:0:
448,192,187323,1,0,0:0:0:0:
320,192,187415,1,0,0:0:0:0:
192,192,187506,1,0,0:0:0:0:
64,192,187598,1,0,0:0:0:0:
320,192,187598,1,0,0:0:0:0:
448,192,187598,1,0,0:0:0:0:
192,192,187689,1,0,0:0:0:0:
320,192,187780,1,0,0:0:0:0:
448,192,187872,1,0,0:0:0:0:
192,192,187963,1,0,0:0:0:0:
64,192,187963,1,0,0:0:0:0:
320,192,188055,1,0,0:0:0:0:
192,192,188146,1,0,0:0:0:0:
64,192,188238,1,0,0:0:0:0:
320,192,188329,1,0,0:0:0:0:
448,192,188329,1,0,0:0:0:0:
192,192,188421,1,0,0:0:0:0:
320,192,188512,1,0,0:0:0:0:
448,192,188604,1,0,0:0:0:0:
192,192,188695,1,0,0:0:0:0:
64,192,188695,1,0,0:0:0:0:
320,192,188787,1,0,0:0:0:0:
448,192,188878,1,0,0:0:0:0:
320,192,188969,1,0,0:0:0:0:
192,192,189061,1,0,0:0:0:0:
64,192,189061,1,0,0:0:0:0:
448,192,189061,1,0,0:0:0:0:
320,192,189152,1,0,0:0:0:0:
448,192,189244,1,0,0:0:0:0:
320,192,189335,1,0,0:0:0:0:
192,192,189427,1,0,0:0:0:0:
64,192,189427,1,0,0:0:0:0:
448,192,189518,1,0,0:0:0:0:
320,192,189610,1,0,0:0:0:0:
448,192,189701,1,0,0:0:0:0:
192,192,189793,1,0,0:0:0:0:
64,192,189793,1,0,0:0:0:0:
320,192,189884,1,0,0:0:0:0:
192,192,189976,1,0,0:0:0:0:
64,192,190067,1,0,0:0:0:0:
320,192,190158,1,0,0:0:0:0:
448,192,190158,1,0,0:0:0:0:
192,192,190250,1,0,0:0:0:0:
64,192,190341,1,0,0:0:0:0:
320,192,190433,1,0,0:0:0:0:
448,192,190524,1,0,0:0:0:0:
192,192,190524,1,0,0:0:0:0:
64,192,190524,1,0,0:0:0:0:
320,192,190616,1,0,0:0:0:0:
192,192,190707,1,0,0:0:0:0:
64,192,190799,1,0,0:0:0:0:
320,192,190890,1,0,0:0:0:0:
448,192,190890,1,0,0:0:0:0:
192,192,190982,1,0,0:0:0:0:
320,192,191073,1,0,0:0:0:0:
64,192,191165,1,0,0:0:0:0:
192,192,191256,1,0,0:0:0:0:
448,192,191256,1,0,0:0:0:0:
320,192,191347,1,0,0:0:0:0:
448,192,191439,1,0,0:0:0:0:
192,192,191530,1,0,0:0:0:0:
320,192,191622,1,0,0:0:0:0:
64,192,191622,1,0,0:0:0:0:
448,192,191713,1,0,0:0:0:0:
192,192,191805,1,0,0:0:0:0:
64,192,191896,1,0,0:0:0:0:
320,192,191988,1,0,0:0:0:0:
448,192,191988,1,0,0:0:0:0:
192,192,192079,1,0,0:0:0:0:
64,192,192171,1,0,0:0:0:0:
192,192,192262,1,0,0:0:0:0:
320,192,192354,1,0,0:0:0:0:
448,192,192445,1,0,0:0:0:0:
320,192,192536,1,0,0:0:0:0:
192,192,192628,1,0,0:0:0:0:
64,192,192719,128,0,192994:0:0:0:0:
192,192,192811,128,0,193085:0:0:0:0:
320,192,192902,128,0,193177:0:0:0:0:
448,192,192994,128,0,193268:0:0:0:0:
64,192,193085,1,0,0:0:0:0:
192,192,193177,1,0,0:0:0:0:
320,192,193268,1,0,0:0:0:0:
448,192,193360,1,0,0:0:0:0:
64,192,193451,128,0,194914:0:0:0:0:
192,192,193451,1,0,0:0:0:0:
320,192,193451,1,0,0:0:0:0:
448,192,193543,1,0,0:0:0:0:
320,192,193634,1,0,0:0:0:0:
192,192,193725,1,0,0:0:0:0:
448,192,193817,1,0,0:0:0:0:
320,192,193817,1,0,0:0:0:0:
192,192,193908,1,0,0:0:0:0:
320,192,194000,1,0,0:0:0:0:
448,192,194091,1,0,0:0:0:0:
320,192,194183,1,0,0:0:0:0:
192,192,194183,1,0,0:0:0:0:
448,192,194274,1,0,0:0:0:0:
320,192,194366,1,0,0:0:0:0:
192,192,194457,1,0,0:0:0:0:
320,192,194549,1,0,0:0:0:0:
448,192,194549,1,0,0:0:0:0:
192,192,194640,1,0,0:0:0:0:
320,192,194732,1,0,0:0:0:0:
448,192,194823,1,0,0:0:0:0:
192,192,194914,128,0,195280:0:0:0:0:
320,192,194914,1,0,0:0:0:0:
448,192,195006,1,0,0:0:0:0:
320,192,195097,1,0,0:0:0:0:
64,192,195189,1,0,0:0:0:0:
320,192,195280,128,0,195646:0:0:0:0:
448,192,195280,1,0,0:0:0:0:
64,192,195372,1,0,0:0:0:0:
192,192,195463,1,0,0:0:0:0:
64,192,195555,1,0,0:0:0:0:
448,192,195646,128,0,196012:0:0:0:0:
192,192,195646,1,0,0:0:0:0:
64,192,195738,1,0,0:0:0:0:
192,192,195829,1,0,0:0:0:0:
320,192,195921,1,0,0:0:0:0:
192,192,196012,128,0,196378:0:0:0:0:
64,192,196012,1,0,0:0:0:0:
320,192,196103,1,0,0:0:0:0:
448,192,196195,1,0,0:0:0:0:
320,192,196286,1,0,0:0:0:0:
448,192,196378,128,0,197841:0:0:0:0:
64,192,196378,1,0,0:0:0:0:
320,192,196469,1,0,0:0:0:0:
192,192,196561,1,0,0:0:0:0:
64,192,196652,1,0,0:0:0:0:
192,192,196744,1,0,0:0:0:0:
320,192,196744,1,0,0:0:0:0:
64,192,196835,1,0,0:0:0:0:
192,192,196927,1,0,0:0:0:0:
320,192,197018,1,0,0:0:0:0:
192,192,197110,1,0,0:0:0:0:
64,192,197110,1,0,0:0:0:0:
320,192,197201,1,0,0:0:0:0:
192,192,197292,1,0,0:0:0:0:
64,192,197384,1,0,0:0:0:0:
192,192,197475,1,0,0:0:0:0:
320,192,197475,1,0,0:0:0:0:
64,192,197567,1,0,0:0:0:0:
192,192,197658,1,0,0:0:0:0:
320,192,197750,1,0,0:0:0:0:
64,192,197841,128,0,198207:0:0:0:0:
192,192,197841,1,0,0:0:0:0:
320,192,197933,1,0,0:0:0:0:
448,192,198024,1,0,0:0:0:0:
320,192,198116,1,0,0:0:0:0:
192,192,198207,128,0,198573:0:0:0:0:
448,192,198207,1,0,0:0:0:0:
320,192,198299,1,0,0:0:0:0:
64,192,198390,1,0,0:0:0:0:
320,192,198481,1,0,0:0:0:0:
64,192,198573,128,0,198939:0:0:0:0:
448,192,198573,1,0,0:0:0:0:
320,192,198664,1,0,0:0:0:0:
192,192,198756,1,0,0:0:0:0:
320,192,198847,1,0,0:0:0:0:
192,192,198939,128,0,199305:0:0:0:0:
448,192,198939,1,0,0:0:0:0:
320,192,199030,1,0,0:0:0:0:
64,192,199122,1,0,0:0:0:0:
320,192,199213,1,0,0:0:0:0:
64,192,199305,1,0,0:0:0:0:
448,192,199305,128,0,199670:0:0:0:0:
320,192,199396,1,0,0:0:0:0:
192,192,199488,1,0,0:0:0:0:
64,192,199579,1,0,0:0:0:0:
192,192,199670,128,0,200036:0:0:0:0:
320,192,199670,1,0,0:0:0:0:
64,192,199762,1,0,0:0:0:0:
320,192,199853,1,0,0:0:0:0:
448,192,199945,1,0,0:0:0:0:
320,192,200036,128,0,200402:0:0:0:0:
64,192,200036,1,0,0:0:0:0:
448,192,200128,1,0,0:0:0:0:
64,192,200219,1,0,0:0:0:0:
192,192,200311,1,0,0:0:0:0:
64,192,200402,128,0,200768:0:0:0:0:
448,192,200402,1,0,0:0:0:0:
192,192,200494,1,0,0:0:0:0:
320,192,200585,1,0,0:0:0:0:
448,192,200677,1,0,0:0:0:0:
320,192,200768,128,0,202231:0:0:0:0:
192,192,200768,1,0,0:0:0:0:
448,192,200859,1,0,0:0:0:0:
192,192,200951,1,0,0:0:0:0:
64,192,201042,1,0,0:0:0:0:
448,192,201134,1,0,0:0:0:0:
192,192,201134,1,0,0:0:0:0:
64,192,201225,1,0,0:0:0:0:
192,192,201317,1,0,0:0:0:0:
448,192,201408,1,0,0:0:0:0:
192,192,201500,1,0,0:0:0:0:
64,192,201500,1,0,0:0:0:0:
448,192,201591,1,0,0:0:0:0:
192,192,201683,1,0,0:0:0:0:
64,192,201774,1,0,0:0:0:0:
448,192,201866,1,0,0:0:0:0:
192,192,201866,1,0,0:0:0:0:
64,192,201957,1,0,0:0:0:0:
192,192,202048,1,0,0:0:0:0:
448,192,202140,1,0,0:0:0:0:
64,192,202231,128,0,203695:0:0:0:0:
192,192,202231,1,0,0:0:0:0:
448,192,202323,1,0,0:0:0:0:
320,192,202414,1,0,0:0:0:0:
192,192,202506,1,0,0:0:0:0:
448,192,202597,1,0,0:0:0:0:
320,192,202597,1,0,0:0:0:0:
192,192,202689,1,0,0:0:0:0:
320,192,202780,1,0,0:0:0:0:
448,192,202872,1,0,0:0:0:0:
320,192,202963,1,0,0:0:0:0:
192,192,202963,1,0,0:0:0:0:
448,192,203055,1,0,0:0:0:0:
320,192,203146,1,0,0:0:0:0:
192,192,203237,1,0,0:0:0:0:
320,192,203329,1,0,0:0:0:0:
448,192,203329,1,0,0:0:0:0:
192,192,203420,1,0,0:0:0:0:
320,192,203512,1,0,0:0:0:0:
192,192,203603,1,0,0:0:0:0:
320,192,203695,1,0,0:0:0:0:
448,192,203695,128,0,205158:0:0:0:0:
192,192,203786,1,0,0:0:0:0:
320,192,203878,1,0,0:0:0:0:
64,192,203878,1,0,0:0:0:0:
192,192,203969,1,0,0:0:0:0:
64,192,204061,1,0,0:0:0:0:
320,192,204061,1,0,0:0:0:0:
192,192,204152,1,0,0:0:0:0:
64,192,204244,1,0,0:0:0:0:
320,192,204335,1,0,0:0:0:0:
192,192,204426,1,0,0:0:0:0:
64,192,204518,1,0,0:0:0:0:
192,192,204609,1,0,0:0:0:0:
64,192,204701,1,0,0:0:0:0:
320,192,204792,1,0,0:0:0:0:
192,192,204884,1,0,0:0:0:0:
64,192,204975,1,0,0:0:0:0:
320,192,205067,1,0,0:0:0:0:
192,192,205158,1,0,0:0:0:0:
64,192,205158,128,0,205524:0:0:0:0:
192,192,205524,1,0,0:0:0:0:
320,192,205707,1,0,0:0:0:0:
448,192,205890,1,0,0:0:0:0:
64,192,205890,1,0,0:0:0:0:
192,192,206073,1,0,0:0:0:0:
320,192,206256,1,0,0:0:0:0:
64,192,206439,1,0,0:0:0:0:
320,192,206622,1,0,0:0:0:0:
448,192,206622,1,0,0:0:0:0:
192,192,206987,1,0,0:0:0:0:
64,192,207170,1,0,0:0:0:0:
320,192,207353,1,0,0:0:0:0:
448,192,207353,1,0,0:0:0:0:
64,192,207719,1,0,0:0:0:0:
192,192,207902,1,0,0:0:0:0:
320,192,208085,1,0,0:0:0:0:
448,192,208085,128,0,208451:0:0:0:0:
320,192,208451,1,0,0:0:0:0:
192,192,208634,1,0,0:0:0:0:
320,192,208817,1,0,0:0:0:0:
64,192,208817,128,0,209182:0:0:0:0:
448,192,209182,1,0,0:0:0:0:
192,192,209365,1,0,0:0:0:0:
320,192,209548,128,0,209914:0:0:0:0:
448,192,209548,1,0,0:0:0:0:
192,192,210097,1,0,0:0:0:0:
64,192,210158,1,0,0:0:0:0:
192,192,210219,1,0,0:0:0:0:
64,192,210280,1,0,0:0:0:0:
320,192,210280,1,0,0:0:0:0:
448,192,210463,1,0,0:0:0:0:
64,192,210646,1,0,0:0:0:0:
192,192,210646,1,0,0:0:0:0:
320,192,210829,1,0,0:0:0:0:
448,192,210829,1,0,0:0:0:0:
64,192,211012,128,0,211743:0:0:0:0:
448,192,211378,1,0,0:0:0:0:
320,192,211560,1,0,0:0:0:0:
192,192,211743,1,0,0:0:0:0:
448,192,211743,1,0,0:0:0:0:
320,192,212109,1,0,0:0:0:0:
192,192,212292,1,0,0:0:0:0:
64,192,212475,1,0,0:0:0:0:
448,192,212475,1,0,0:0:0:0:
320,192,212841,1,0,0:0:0:0:
192,192,213024,1,0,0:0:0:0:
448,192,213207,1,0,0:0:0:0:
64,192,213207,1,0,0:0:0:0:
320,192,213573,1,0,0:0:0:0:
448,192,213756,1,0,0:0:0:0:
64,192,213756,1,0,0:0:0:0:
320,192,213847,1,0,0:0:0:0:
192,192,213938,1,0,0:0:0:0:
448,192,213938,1,0,0:0:0:0:
320,192,214304,1,0,0:0:0:0:
448,192,214487,1,0,0:0:0:0:
64,192,214670,1,0,0:0:0:0:
192,192,214670,1,0,0:0:0:0:
192,192,215036,1,0,0:0:0:0:
64,192,215219,1,0,0:0:0:0:
320,192,215402,1,0,0:0:0:0:
448,192,215402,128,0,216134:0:0:0:0:
320,192,215951,1,0,0:0:0:0:
192,192,216012,1,0,0:0:0:0:
64,192,216073,1,0,0:0:0:0:
320,192,216134,1,0,0:0:0:0:
192,192,216134,1,0,0:0:0:0:
192,192,216499,1,0,0:0:0:0:
320,192,216499,1,0,0:0:0:0:
448,192,216499,1,0,0:0:0:0:
64,192,216682,1,0,0:0:0:0:
192,192,216682,1,0,0:0:0:0:
320,192,216682,1,0,0:0:0:0:
192,192,216865,1,0,0:0:0:0:
320,192,216865,1,0,0:0:0:0:
448,192,216865,128,0,217231:0:0:0:0:
64,192,217231,1,0,0:0:0:0:
64,192,217414,1,0,0:0:0:0:
320,192,217597,1,0,0:0:0:0:
448,192,217597,1,0,0:0:0:0:
192,192,217963,1,0,0:0:0:0:
192,192,218146,1,0,0:0:0:0:
448,192,218329,1,0,0:0:0:0:
64,192,218329,1,0,0:0:0:0:
320,192,218694,1,0,0:0:0:0:
320,192,218877,1,0,0:0:0:0:
192,192,219060,1,0,0:0:0:0:
64,192,219060,1,0,0:0:0:0:
448,192,219426,1,0,0:0:0:0:
448,192,219609,1,0,0:0:0:0:
192,192,219792,1,0,0:0:0:0:
64,192,219792,1,0,0:0:0:0:
320,192,220158,1,0,0:0:0:0:
64,192,220341,1,0,0:0:0:0:
192,192,220524,1,0,0:0:0:0:
448,192,220524,1,0,0:0:0:0:
320,192,220890,1,0,0:0:0:0:
320,192,221072,1,0,0:0:0:0:
192,192,221255,1,0,0:0:0:0:
448,192,221255,1,0,0:0:0:0:
320,192,221438,1,0,0:0:0:0:
192,192,221621,1,0,0:0:0:0:
64,192,221804,1,0,0:0:0:0:
320,192,221987,1,0,0:0:0:0:
448,192,221987,1,0,0:0:0:0:
192,192,222353,1,0,0:0:0:0:
320,192,222353,1,0,0:0:0:0:
448,192,222536,1,0,0:0:0:0:
192,192,222719,1,0,0:0:0:0:
64,192,222719,128,0,223085:0:0:0:0:
320,192,223085,1,0,0:0:0:0:
448,192,223268,1,0,0:0:0:0:
64,192,223450,1,0,0:0:0:0:
192,192,223450,1,0,0:0:0:0:
320,192,223816,1,0,0:0:0:0:
192,192,223999,1,0,0:0:0:0:
320,192,224182,1,0,0:0:0:0:
448,192,224182,128,0,224548:0:0:0:0:
192,192,224548,1,0,0:0:0:0:
64,192,224731,1,0,0:0:0:0:
320,192,224914,1,0,0:0:0:0:
448,192,224914,1,0,0:0:0:0:
64,192,225280,1,0,0:0:0:0:
320,192,225463,1,0,0:0:0:0:
448,192,225646,1,0,0:0:0:0:
192,192,225646,128,0,226011:0:0:0:0:
320,192,226194,1,0,0:0:0:0:
192,192,226255,1,0,0:0:0:0:
320,192,226316,1,0,0:0:0:0:
192,192,226377,1,0,0:0:0:0:
64,192,226377,1,0,0:0:0:0:
448,192,226743,1,0,0:0:0:0:
320,192,226926,1,0,0:0:0:0:
448,192,227109,1,0,0:0:0:0:
192,192,227109,128,0,227475:0:0:0:0:
64,192,227475,128,0,227658:0:0:0:0:
448,192,227658,1,0,0:0:0:0:
320,192,227719,1,0,0:0:0:0:
192,192,227780,1,0,0:0:0:0:
64,192,227841,128,0,228206:0:0:0:0:
448,192,227841,1,0,0:0:0:0:
192,192,228206,1,0,0:0:0:0:
320,192,228389,1,0,0:0:0:0:
448,192,228389,1,0,0:0:0:0:
192,192,228572,1,0,0:0:0:0:
320,192,228572,1,0,0:0:0:0:
64,192,228572,128,0,231499:0:0:0:0:
448,192,228938,1,0,0:0:0:0:
448,192,229121,1,0,0:0:0:0:
320,192,229304,1,0,0:0:0:0:
192,192,229304,1,0,0:0:0:0:
448,192,229670,1,0,0:0:0:0:
320,192,229853,1,0,0:0:0:0:
192,192,230036,1,0,0:0:0:0:
448,192,230036,1,0,0:0:0:0:
320,192,230219,1,0,0:0:0:0:
192,192,230401,1,0,0:0:0:0:
192,192,230584,1,0,0:0:0:0:
320,192,230767,1,0,0:0:0:0:
448,192,230767,1,0,0:0:0:0:
320,192,230950,1,0,0:0:0:0:
192,192,230950,1,0,0:0:0:0:
448,192,231133,1,0,0:0:0:0:
448,192,231316,1,0,0:0:0:0:
320,192,231499,1,0,0:0:0:0:
192,192,231499,128,0,234426:0:0:0:0:
64,192,231865,1,0,0:0:0:0:
64,192,232048,1,0,0:0:0:0:
320,192,232231,1,0,0:0:0:0:
448,192,232231,1,0,0:0:0:0:
64,192,232597,1,0,0:0:0:0:
64,192,232779,1,0,0:0:0:0:
320,192,232962,1,0,0:0:0:0:
448,192,232962,1,0,0:0:0:0:
64,192,233145,1,0,0:0:0:0:
64,192,233328,1,0,0:0:0:0:
320,192,233511,1,0,0:0:0:0:
448,192,233572,1,0,0:0:0:0:
320,192,233633,1,0,0:0:0:0:
448,192,233694,1,0,0:0:0:0:
64,192,233694,1,0,0:0:0:0:
320,192,233877,1,0,0:0:0:0:
64,192,234060,1,0,0:0:0:0:
448,192,234060,1,0,0:0:0:0:
320,192,234243,1,0,0:0:0:0:
320,192,234426,128,0,237353:0:0:0:0:
64,192,234426,1,0,0:0:0:0:
448,192,234792,1,0,0:0:0:0:
448,192,234975,1,0,0:0:0:0:
192,192,235157,1,0,0:0:0:0:
64,192,235157,1,0,0:0:0:0:
448,192,235340,1,0,0:0:0:0:
448,192,235523,1,0,0:0:0:0:
448,192,235706,1,0,0:0:0:0:
192,192,235889,1,0,0:0:0:0:
64,192,235889,1,0,0:0:0:0:
448,192,236072,1,0,0:0:0:0:
448,192,236255,1,0,0:0:0:0:
448,192,236438,1,0,0:0:0:0:
192,192,236499,1,0,0:0:0:0:
64,192,236560,1,0,0:0:0:0:
448,192,236621,1,0,0:0:0:0:
192,192,236621,1,0,0:0:0:0:
64,192,236804,1,0,0:0:0:0:
192,192,236987,1,0,0:0:0:0:
448,192,237170,1,0,0:0:0:0:
448,192,237353,128,0,240279:0:0:0:0:
64,192,237353,1,0,0:0:0:0:
192,192,237353,1,0,0:0:0:0:
64,192,237718,1,0,0:0:0:0:
64,192,237901,1,0,0:0:0:0:
192,192,238084,1,0,0:0:0:0:
320,192,238084,1,0,0:0:0:0:
64,192,238267,1,0,0:0:0:0:
64,192,238450,1,0,0:0:0:0:
192,192,238633,1,0,0:0:0:0:
64,192,238816,1,0,0:0:0:0:
64,192,238999,1,0,0:0:0:0:
64,192,239182,1,0,0:0:0:0:
192,192,239365,1,0,0:0:0:0:
64,192,239426,1,0,0:0:0:0:
192,192,239487,1,0,0:0:0:0:
320,192,239548,1,0,0:0:0:0:
64,192,239609,1,0,0:0:0:0:
192,192,239609,1,0,0:0:0:0:
320,192,239731,1,0,0:0:0:0:
192,192,239792,1,0,0:0:0:0:
64,192,239853,1,0,0:0:0:0:
320,192,239913,1,0,0:0:0:0:
192,192,239913,1,0,0:0:0:0:
64,192,240096,1,0,0:0:0:0:
320,192,240279,1,0,0:0:0:0:
64,192,240279,128,0,241743:0:0:0:0:
448,192,240645,1,0,0:0:0:0:
448,192,240828,1,0,0:0:0:0:
320,192,241011,1,0,0:0:0:0:
192,192,241011,1,0,0:0:0:0:
448,192,241194,1,0,0:0:0:0:
448,192,241377,1,0,0:0:0:0:
320,192,241560,1,0,0:0:0:0:
192,192,241743,128,0,243206:0:0:0:0:
448,192,241743,1,0,0:0:0:0:
64,192,242109,1,0,0:0:0:0:
64,192,242291,1,0,0:0:0:0:
320,192,242474,1,0,0:0:0:0:
448,192,242474,1,0,0:0:0:0:
64,192,242840,1,0,0:0:0:0:
448,192,243023,1,0,0:0:0:0:
320,192,243206,128,0,244669:0:0:0:0:
64,192,243206,1,0,0:0:0:0:
448,192,243389,1,0,0:0:0:0:
448,192,243572,1,0,0:0:0:0:
192,192,243755,1,0,0:0:0:0:
64,192,243816,1,0,0:0:0:0:
192,192,243877,1,0,0:0:0:0:
64,192,243938,1,0,0:0:0:0:
448,192,243938,1,0,0:0:0:0:
192,192,244304,1,0,0:0:0:0:
448,192,244487,1,0,0:0:0:0:
192,192,244548,1,0,0:0:0:0:
64,192,244609,1,0,0:0:0:0:
192,192,244669,1,0,0:0:0:0:
448,192,244669,1,0,0:0:0:0:
320,192,244852,1,0,0:0:0:0:
192,192,244852,1,0,0:0:0:0:
64,192,244852,1,0,0:0:0:0:
448,192,245035,1,0,0:0:0:0:
320,192,245035,1,0,0:0:0:0:
192,192,245035,1,0,0:0:0:0:
320,192,245218,1,0,0:0:0:0:
192,192,245218,1,0,0:0:0:0:
64,192,245218,1,0,0:0:0:0:
448,192,245401,1,0,0:0:0:0:
320,192,245401,1,0,0:0:0:0:
192,192,245401,1,0,0:0:0:0:
64,192,245584,1,0,0:0:0:0:
192,192,245584,1,0,0:0:0:0:
320,192,245584,1,0,0:0:0:0:
448,192,245767,1,0,0:0:0:0:
64,192,245767,1,0,0:0:0:0:
192,192,245767,1,0,0:0:0:0:
448,192,245950,1,0,0:0:0:0:
320,192,245950,1,0,0:0:0:0:
64,192,245950,1,0,0:0:0:0:
192,192,246133,128,0,246499:0:0:0:0:
320,192,246499,128,0,246682:0:0:0:0:
320,192,246865,128,0,247413:0:0:0:0:
64,192,247596,1,0,0:0:0:0:
448,192,247596,1,0,0:0:0:0:
192,192,247596,128,0,247962:0:0:0:0:
320,192,247962,128,0,248145:0:0:0:0:
448,192,248328,128,0,248694:0:0:0:0:
320,192,248694,1,0,0:0:0:0:
192,192,248877,1,0,0:0:0:0:
320,192,248877,1,0,0:0:0:0:
192,192,249060,1,0,0:0:0:0:
64,192,249060,128,0,250523:0:0:0:0:
320,192,249425,1,0,0:0:0:0:
448,192,249608,1,0,0:0:0:0:
320,192,249791,1,0,0:0:0:0:
192,192,249791,1,0,0:0:0:0:
448,192,250157,1,0,0:0:0:0:
320,192,250340,1,0,0:0:0:0:
192,192,250523,1,0,0:0:0:0:
448,192,250523,128,0,251986:0:0:0:0:
320,192,250889,1,0,0:0:0:0:
320,192,251072,1,0,0:0:0:0:
192,192,251255,1,0,0:0:0:0:
64,192,251255,1,0,0:0:0:0:
192,192,251621,1,0,0:0:0:0:
320,192,251621,1,0,0:0:0:0:
192,192,251803,1,0,0:0:0:0:
320,192,251803,1,0,0:0:0:0:
64,192,251986,128,0,253450:0:0:0:0:
192,192,251986,1,0,0:0:0:0:
320,192,251986,1,0,0:0:0:0:
448,192,252352,1,0,0:0:0:0:
448,192,252535,1,0,0:0:0:0:
320,192,252718,1,0,0:0:0:0:
192,192,252718,1,0,0:0:0:0:
192,192,253084,1,0,0:0:0:0:
192,192,253267,1,0,0:0:0:0:
320,192,253450,1,0,0:0:0:0:
192,192,253450,128,0,254913:0:0:0:0:
448,192,253450,1,0,0:0:0:0:
64,192,253816,1,0,0:0:0:0:
64,192,253999,1,0,0:0:0:0:
320,192,254181,1,0,0:0:0:0:
448,192,254181,1,0,0:0:0:0:
448,192,254547,1,0,0:0:0:0:
320,192,254547,1,0,0:0:0:0:
320,192,254730,1,0,0:0:0:0:
448,192,254730,1,0,0:0:0:0:
64,192,254913,128,0,256377:0:0:0:0:
320,192,254913,1,0,0:0:0:0:
448,192,254913,1,0,0:0:0:0:
192,192,255279,1,0,0:0:0:0:
320,192,255462,1,0,0:0:0:0:
448,192,255645,1,0,0:0:0:0:
192,192,255645,1,0,0:0:0:0:
320,192,255828,1,0,0:0:0:0:
448,192,256011,1,0,0:0:0:0:
320,192,256194,1,0,0:0:0:0:
192,192,256377,1,0,0:0:0:0:
448,192,256377,128,0,257840:0:0:0:0:
64,192,256742,1,0,0:0:0:0:
64,192,256925,1,0,0:0:0:0:
192,192,256986,1,0,0:0:0:0:
320,192,257047,1,0,0:0:0:0:
64,192,257108,1,0,0:0:0:0:
192,192,257108,1,0,0:0:0:0:
192,192,257474,1,0,0:0:0:0:
320,192,257474,1,0,0:0:0:0:
192,192,257840,1,0,0:0:0:0:
64,192,257840,128,0,258206:0:0:0:0:
320,192,258206,1,0,0:0:0:0:
448,192,258389,1,0,0:0:0:0:
192,192,258572,1,0,0:0:0:0:
64,192,258572,128,0,258937:0:0:0:0:
192,192,259120,1,0,0:0:0:0:
320,192,259303,1,0,0:0:0:0:
448,192,259303,128,0,259669:0:0:0:0:
64,192,259669,1,0,0:0:0:0:
64,192,259852,1,0,0:0:0:0:
320,192,260035,1,0,0:0:0:0:
192,192,260035,1,0,0:0:0:0:
64,192,260401,1,0,0:0:0:0:
448,192,260401,1,0,0:0:0:0:
192,192,260584,1,0,0:0:0:0:
320,192,260584,1,0,0:0:0:0:
64,192,260767,128,0,262230:0:0:0:0:
448,192,260767,1,0,0:0:0:0:
320,192,261133,1,0,0:0:0:0:
448,192,261315,1,0,0:0:0:0:
320,192,261498,1,0,0:0:0:0:
192,192,261498,1,0,0:0:0:0:
448,192,261864,1,0,0:0:0:0:
320,192,262047,1,0,0:0:0:0:
192,192,262230,1,0,0:0:0:0:
448,192,262230,128,0,263693:0:0:0:0:
320,192,262596,1,0,0:0:0:0:
320,192,262779,1,0,0:0:0:0:
192,192,262962,1,0,0:0:0:0:
64,192,262962,1,0,0:0:0:0:
192,192,263328,1,0,0:0:0:0:
320,192,263328,1,0,0:0:0:0:
64,192,263511,1,0,0:0:0:0:
192,192,263511,1,0,0:0:0:0:
320,192,263693,1,0,0:0:0:0:
192,192,263693,128,0,265157:0:0:0:0:
64,192,264059,1,0,0:0:0:0:
64,192,264242,1,0,0:0:0:0:
320,192,264425,1,0,0:0:0:0:
448,192,264425,1,0,0:0:0:0:
64,192,264791,1,0,0:0:0:0:
320,192,264974,1,0,0:0:0:0:
64,192,265157,128,0,266620:0:0:0:0:
448,192,265157,1,0,0:0:0:0:
320,192,265523,1,0,0:0:0:0:
448,192,265706,1,0,0:0:0:0:
192,192,265889,1,0,0:0:0:0:
320,192,265889,1,0,0:0:0:0:
320,192,266254,1,0,0:0:0:0:
448,192,266254,1,0,0:0:0:0:
448,192,266437,1,0,0:0:0:0:
320,192,266437,1,0,0:0:0:0:
192,192,266620,1,0,0:0:0:0:
448,192,266620,128,0,267352:0:0:0:0:
320,192,266986,1,0,0:0:0:0:
320,192,267169,1,0,0:0:0:0:
192,192,267352,128,0,268084:0:0:0:0:
64,192,267352,1,0,0:0:0:0:
320,192,267718,1,0,0:0:0:0:
448,192,267901,1,0,0:0:0:0:
320,192,268084,1,0,0:0:0:0:
64,192,268084,128,0,269547:0:0:0:0:
448,192,268449,1,0,0:0:0:0:
448,192,268632,1,0,0:0:0:0:
320,192,268693,1,0,0:0:0:0:
448,192,268754,1,0,0:0:0:0:
320,192,268815,1,0,0:0:0:0:
192,192,268815,1,0,0:0:0:0:
448,192,269181,1,0,0:0:0:0:
448,192,269547,128,0,272474:0:0:0:0:
192,192,269547,1,0,0:0:0:0:
192,192,272474,128,0,275401:0:0:0:0:
320,192,272474,1,0,0:0:0:0:
320,192,275401,128,0,278327:0:0:0:0:
448,192,275401,1,0,0:0:0:0:
448,192,278327,128,0,279699:0:0:0:0:
64,192,278327,1,0,0:0:0:0:
320,192,279791,1,0,0:0:0:0:
64,192,279791,1,0,0:0:0:0:
448,192,279882,1,0,0:0:0:0:
192,192,279882,1,0,0:0:0:0:
320,192,279974,1,0,0:0:0:0:
64,192,279974,1,0,0:0:0:0:
448,192,280065,1,0,0:0:0:0:
192,192,280065,1,0,0:0:0:0:
320,192,280157,1,0,0:0:0:0:
64,192,280248,1,0,0:0:0:0:
192,192,280339,1,0,0:0:0:0:
448,192,280431,1,0,0:0:0:0:
64,192,280522,1,0,0:0:0:0:
192,192,280614,1,0,0:0:0:0:
320,192,280705,1,0,0:0:0:0:
448,192,280797,1,0,0:0:0:0:
192,192,280888,1,0,0:0:0:0:
64,192,280980,1,0,0:0:0:0:
320,192,281071,1,0,0:0:0:0:
64,192,281163,1,0,0:0:0:0:
192,192,281254,1,0,0:0:0:0:
448,192,281254,1,0,0:0:0:0:
320,192,281346,1,0,0:0:0:0:
64,192,281346,1,0,0:0:0:0:
192,192,281437,1,0,0:0:0:0:
448,192,281437,1,0,0:0:0:0:
320,192,281528,1,0,0:0:0:0:
64,192,281528,1,0,0:0:0:0:
448,192,281620,1,0,0:0:0:0:
320,192,281711,1,0,0:0:0:0:
192,192,281803,1,0,0:0:0:0:
448,192,281894,1,0,0:0:0:0:
64,192,281986,1,0,0:0:0:0:
320,192,281986,1,0,0:0:0:0:
192,192,282077,1,0,0:0:0:0:
320,192,282169,1,0,0:0:0:0:
448,192,282260,1,0,0:0:0:0:
64,192,282352,1,0,0:0:0:0:
320,192,282352,1,0,0:0:0:0:
192,192,282443,1,0,0:0:0:0:
320,192,282535,1,0,0:0:0:0:
448,192,282626,1,0,0:0:0:0:
64,192,282717,1,0,0:0:0:0:
320,192,282717,1,0,0:0:0:0:
192,192,282809,1,0,0:0:0:0:
320,192,282900,1,0,0:0:0:0:
448,192,282992,1,0,0:0:0:0:
320,192,283083,1,0,0:0:0:0:
64,192,283083,1,0,0:0:0:0:
192,192,283175,1,0,0:0:0:0:
320,192,283266,1,0,0:0:0:0:
448,192,283358,1,0,0:0:0:0:
320,192,283449,1,0,0:0:0:0:
64,192,283449,1,0,0:0:0:0:
192,192,283541,1,0,0:0:0:0:
320,192,283632,1,0,0:0:0:0:
448,192,283724,1,0,0:0:0:0:
320,192,283815,1,0,0:0:0:0:
64,192,283815,1,0,0:0:0:0:
192,192,283906,1,0,0:0:0:0:
320,192,283998,1,0,0:0:0:0:
448,192,284089,1,0,0:0:0:0:
320,192,284181,1,0,0:0:0:0:
64,192,284181,1,0,0:0:0:0:
448,192,284272,1,0,0:0:0:0:
320,192,284364,1,0,0:0:0:0:
192,192,284455,1,0,0:0:0:0:
64,192,284547,1,0,0:0:0:0:
320,192,284547,1,0,0:0:0:0:
192,192,284638,1,0,0:0:0:0:
320,192,284730,1,0,0:0:0:0:
448,192,284821,1,0,0:0:0:0:
320,192,284913,1,0,0:0:0:0:
192,192,284913,1,0,0:0:0:0:
64,192,285004,1,0,0:0:0:0:
192,192,285095,1,0,0:0:0:0:
320,192,285187,1,0,0:0:0:0:
448,192,285278,1,0,0:0:0:0:
192,192,285278,1,0,0:0:0:0:
320,192,285370,1,0,0:0:0:0:
192,192,285461,1,0,0:0:0:0:
64,192,285553,1,0,0:0:0:0:
192,192,285644,1,0,0:0:0:0:
320,192,285644,1,0,0:0:0:0:
448,192,285736,1,0,0:0:0:0:
320,192,285827,1,0,0:0:0:0:
192,192,285919,1,0,0:0:0:0:
64,192,286010,1,0,0:0:0:0:
448,192,286010,1,0,0:0:0:0:
320,192,286102,1,0,0:0:0:0:
192,192,286193,1,0,0:0:0:0:
64,192,286284,1,0,0:0:0:0:
320,192,286376,1,0,0:0:0:0:
448,192,286376,1,0,0:0:0:0:
192,192,286467,1,0,0:0:0:0:
64,192,286559,1,0,0:0:0:0:
192,192,286650,1,0,0:0:0:0:
64,192,286742,1,0,0:0:0:0:
320,192,286742,1,0,0:0:0:0:
448,192,286833,1,0,0:0:0:0:
320,192,286925,1,0,0:0:0:0:
448,192,287016,1,0,0:0:0:0:
320,192,287108,1,0,0:0:0:0:
192,192,287108,1,0,0:0:0:0:
64,192,287199,1,0,0:0:0:0:
192,192,287291,1,0,0:0:0:0:
320,192,287382,1,0,0:0:0:0:
448,192,287473,1,0,0:0:0:0:
64,192,287473,1,0,0:0:0:0:
192,192,287565,1,0,0:0:0:0:
320,192,287656,1,0,0:0:0:0:
448,192,287748,1,0,0:0:0:0:
192,192,287839,1,0,0:0:0:0:
64,192,287839,1,0,0:0:0:0:
320,192,287931,1,0,0:0:0:0:
448,192,288022,1,0,0:0:0:0:
320,192,288114,1,0,0:0:0:0:
192,192,288205,1,0,0:0:0:0:
64,192,288205,1,0,0:0:0:0:
448,192,288297,1,0,0:0:0:0:
320,192,288388,1,0,0:0:0:0:
192,192,288480,1,0,0:0:0:0:
448,192,288571,1,0,0:0:0:0:
64,192,288571,1,0,0:0:0:0:
320,192,288662,1,0,0:0:0:0:
192,192,288754,1,0,0:0:0:0:
64,192,288845,1,0,0:0:0:0:
320,192,288937,1,0,0:0:0:0:
448,192,288937,1,0,0:0:0:0:
192,192,289028,1,0,0:0:0:0:
64,192,289120,1,0,0:0:0:0:
192,192,289211,1,0,0:0:0:0:
320,192,289303,1,0,0:0:0:0:
448,192,289303,1,0,0:0:0:0:
192,192,289394,1,0,0:0:0:0:
64,192,289486,1,0,0:0:0:0:
192,192,289577,1,0,0:0:0:0:
448,192,289669,1,0,0:0:0:0:
64,192,289669,1,0,0:0:0:0:
320,192,289760,1,0,0:0:0:0:
192,192,289851,1,0,0:0:0:0:
320,192,289943,1,0,0:0:0:0:
448,192,290034,1,0,0:0:0:0:
64,192,290034,1,0,0:0:0:0:
192,192,290126,1,0,0:0:0:0:
320,192,290217,1,0,0:0:0:0:
448,192,290309,1,0,0:0:0:0:
320,192,290400,1,0,0:0:0:0:
64,192,290400,1,0,0:0:0:0:
192,192,290492,1,0,0:0:0:0:
320,192,290583,1,0,0:0:0:0:
448,192,290675,1,0,0:0:0:0:
320,192,290766,1,0,0:0:0:0:
192,192,290766,1,0,0:0:0:0:
64,192,290858,1,0,0:0:0:0:
192,192,290949,1,0,0:0:0:0:
320,192,291040,1,0,0:0:0:0:
448,192,291132,1,0,0:0:0:0:
64,192,291132,1,0,0:0:0:0:
192,192,291223,1,0,0:0:0:0:
320,192,291315,1,0,0:0:0:0:
448,192,291406,1,0,0:0:0:0:
192,192,291498,1,0,0:0:0:0:
64,192,291498,1,0,0:0:0:0:
320,192,291589,1,0,0:0:0:0:
448,192,291681,1,0,0:0:0:0:
320,192,291772,1,0,0:0:0:0:
448,192,291864,1,0,0:0:0:0:
192,192,291864,1,0,0:0:0:0:
64,192,291955,1,0,0:0:0:0:
192,192,292047,1,0,0:0:0:0:
320,192,292138,1,0,0:0:0:0:
448,192,292229,1,0,0:0:0:0:
64,192,292229,1,0,0:0:0:0:
192,192,292321,1,0,0:0:0:0:
320,192,292412,1,0,0:0:0:0:
192,192,292504,1,0,0:0:0:0:
64,192,292595,1,0,0:0:0:0:
448,192,292595,1,0,0:0:0:0:
320,192,292687,1,0,0:0:0:0:
192,192,292778,1,0,0:0:0:0:
448,192,292870,1,0,0:0:0:0:
64,192,292961,1,0,0:0:0:0:
320,192,293053,1,0,0:0:0:0:
448,192,293144,1,0,0:0:0:0:
192,192,293236,1,0,0:0:0:0:
64,192,293327,1,0,0:0:0:0:
320,192,293327,1,0,0:0:0:0:
448,192,293418,1,0,0:0:0:0:
320,192,293510,1,0,0:0:0:0:
192,192,293601,1,0,0:0:0:0:
64,192,293693,1,0,0:0:0:0:
448,192,293693,1,0,0:0:0:0:
320,192,293784,1,0,0:0:0:0:
192,192,293876,1,0,0:0:0:0:
64,192,293967,1,0,0:0:0:0:
320,192,294059,1,0,0:0:0:0:
448,192,294059,1,0,0:0:0:0:
192,192,294150,1,0,0:0:0:0:
64,192,294242,1,0,0:0:0:0:
320,192,294333,1,0,0:0:0:0:
448,192,294425,1,0,0:0:0:0:
192,192,294425,1,0,0:0:0:0:
64,192,294516,1,0,0:0:0:0:
192,192,294607,1,0,0:0:0:0:
320,192,294699,1,0,0:0:0:0:
448,192,294790,1,0,0:0:0:0:
64,192,294790,1,0,0:0:0:0:
192,192,294882,1,0,0:0:0:0:
320,192,294973,1,0,0:0:0:0:
448,192,295065,1,0,0:0:0:0:
192,192,295156,1,0,0:0:0:0:
64,192,295156,1,0,0:0:0:0:
320,192,295248,1,0,0:0:0:0:
192,192,295339,1,0,0:0:0:0:
64,192,295431,1,0,0:0:0:0:
320,192,295522,1,0,0:0:0:0:
448,192,295522,1,0,0:0:0:0:
192,192,295614,1,0,0:0:0:0:
320,192,295705,1,0,0:0:0:0:
448,192,295796,1,0,0:0:0:0:
192,192,295888,1,0,0:0:0:0:
64,192,295888,1,0,0:0:0:0:
320,192,295979,1,0,0:0:0:0:
448,192,296071,1,0,0:0:0:0:
192,192,296162,1,0,0:0:0:0:
64,192,296254,1,0,0:0:0:0:
320,192,296254,1,0,0:0:0:0:
448,192,296345,1,0,0:0:0:0:
192,192,296437,1,0,0:0:0:0:
320,192,296528,1,0,0:0:0:0:
64,192,296620,1,0,0:0:0:0:
448,192,296620,1,0,0:0:0:0:
192,192,296711,1,0,0:0:0:0:
320,192,296803,1,0,0:0:0:0:
448,192,296894,1,0,0:0:0:0:
192,192,296985,1,0,0:0:0:0:
64,192,296985,1,0,0:0:0:0:
320,192,297077,1,0,0:0:0:0:
192,192,297168,1,0,0:0:0:0:
64,192,297260,1,0,0:0:0:0:
320,192,297351,1,0,0:0:0:0:
448,192,297351,1,0,0:0:0:0:
192,192,297443,1,0,0:0:0:0:
64,192,297534,1,0,0:0:0:0:
320,192,297626,1,0,0:0:0:0:
448,192,297717,1,0,0:0:0:0:
192,192,297717,1,0,0:0:0:0:
64,192,297809,1,0,0:0:0:0:
320,192,297900,1,0,0:0:0:0:
448,192,297992,1,0,0:0:0:0:
192,192,298083,1,0,0:0:0:0:
64,192,298083,1,0,0:0:0:0:
320,192,298174,1,0,0:0:0:0:
448,192,298266,1,0,0:0:0:0:
192,192,298357,1,0,0:0:0:0:
64,192,298449,1,0,0:0:0:0:
320,192,298449,1,0,0:0:0:0:
448,192,298540,1,0,0:0:0:0:
192,192,298632,1,0,0:0:0:0:
64,192,298723,1,0,0:0:0:0:
320,192,298815,1,0,0:0:0:0:
448,192,298815,1,0,0:0:0:0:
192,192,298906,1,0,0:0:0:0:
320,192,298998,1,0,0:0:0:0:
64,192,299089,1,0,0:0:0:0:
192,192,299181,1,0,0:0:0:0:
448,192,299181,1,0,0:0:0:0:
320,192,299272,1,0,0:0:0:0:
64,192,299363,1,0,0:0:0:0:
192,192,299455,1,0,0:0:0:0:
320,192,299546,1,0,0:0:0:0:
448,192,299546,1,0,0:0:0:0:
192,192,299638,1,0,0:0:0:0:
320,192,299729,1,0,0:0:0:0:
448,192,299821,1,0,0:0:0:0:
192,192,299912,1,0,0:0:0:0:
64,192,299912,1,0,0:0:0:0:
320,192,300004,1,0,0:0:0:0:
448,192,300095,1,0,0:0:0:0:
192,192,300187,1,0,0:0:0:0:
320,192,300278,1,0,0:0:0:0:
448,192,300278,1,0,0:0:0:0:
64,192,300370,1,0,0:0:0:0:
192,192,300461,1,0,0:0:0:0:
448,192,300552,1,0,0:0:0:0:
320,192,300644,1,0,0:0:0:0:
64,192,300644,1,0,0:0:0:0:
192,192,300735,1,0,0:0:0:0:
320,192,300827,1,0,0:0:0:0:
448,192,300918,1,0,0:0:0:0:
192,192,301010,1,0,0:0:0:0:
64,192,301010,1,0,0:0:0:0:
320,192,301101,1,0,0:0:0:0:
192,192,301193,1,0,0:0:0:0:
64,192,301284,1,0,0:0:0:0:
320,192,301376,1,0,0:0:0:0:
448,192,301376,1,0,0:0:0:0:
192,192,301467,1,0,0:0:0:0:
64,192,301559,1,0,0:0:0:0:
320,192,301650,1,0,0:0:0:0:
192,192,301741,1,0,0:0:0:0:
448,192,301741,1,0,0:0:0:0:
64,192,301833,1,0,0:0:0:0:
320,192,301924,1,0,0:0:0:0:
192,192,302016,1,0,0:0:0:0:
64,192,302107,1,0,0:0:0:0:
448,192,302107,1,0,0:0:0:0:
320,192,302199,1,0,0:0:0:0:
192,192,302290,1,0,0:0:0:0:
64,192,302382,1,0,0:0:0:0:
320,192,302473,1,0,0:0:0:0:
448,192,302473,1,0,0:0:0:0:
192,192,302565,1,0,0:0:0:0:
64,192,302656,1,0,0:0:0:0:
320,192,302748,1,0,0:0:0:0:
448,192,302839,1,0,0:0:0:0:
192,192,302839,1,0,0:0:0:0:
320,192,302930,1,0,0:0:0:0:
192,192,303022,1,0,0:0:0:0:
64,192,303113,1,0,0:0:0:0:
320,192,303205,1,0,0:0:0:0:
448,192,303205,1,0,0:0:0:0:
192,192,303296,1,0,0:0:0:0:
64,192,303388,1,0,0:0:0:0:
192,192,303479,1,0,0:0:0:0:
320,192,303571,1,0,0:0:0:0:
448,192,303571,1,0,0:0:0:0:
64,192,303571,128,0,303936:0:0:0:0:
192,192,303936,1,0,0:0:0:0:
320,192,303936,1,0,0:0:0:0:
448,192,303936,128,0,304302:0:0:0:0:
192,192,304302,1,0,0:0:0:0:
320,192,304302,1,0,0:0:0:0:
64,192,304302,128,0,304577:0:0:0:0:
448,192,304653,128,0,307824:0:0:0:0:
192,192,304653,1,0,0:0:0:0:
320,192,304653,1,0,0:0:0:0:
320,192,307824,128,0,309775:0:0:0:0:
448,192,309775,128,0,310019:0:0:0:0:
192,192,309775,1,0,0:0:0:0:
320,192,310019,128,0,310263:0:0:0:0:
192,192,310019,1,0,0:0:0:0:
64,192,310141,1,0,0:0:0:0:
192,192,310263,1,0,0:0:0:0:
448,192,310263,128,0,310507:0:0:0:0:
64,192,310507,1,0,0:0:0:0:
192,192,310507,128,0,313435:0:0:0:0:
320,192,310507,1,0,0:0:0:0:
64,192,313435,128,0,314817:0:0:0:0:
192,192,314898,1,0,0:0:0:0:
320,192,314959,1,0,0:0:0:0:
192,192,315020,1,0,0:0:0:0:
64,192,315081,1,0,0:0:0:0:
320,192,315142,1,0,0:0:0:0:
448,192,315203,1,0,0:0:0:0:
192,192,315264,1,0,0:0:0:0:
64,192,315325,1,0,0:0:0:0:
320,192,315386,1,0,0:0:0:0:
192,192,315468,1,0,0:0:0:0:
320,192,315549,1,0,0:0:0:0:
448,192,315630,1,0,0:0:0:0:
64,192,315630,128,0,315874:0:0:0:0:
320,192,315874,128,0,316118:0:0:0:0:
192,192,315874,1,0,0:0:0:0:
448,192,315996,1,0,0:0:0:0:
64,192,316118,1,0,0:0:0:0:
192,192,316118,128,0,316362:0:0:0:0:
448,192,316240,1,0,0:0:0:0:
320,192,316362,128,0,316606:0:0:0:0:
64,192,316362,1,0,0:0:0:0:
448,192,316444,1,0,0:0:0:0:
192,192,316525,1,0,0:0:0:0:
64,192,316606,1,0,0:0:0:0:
192,192,316687,1,0,0:0:0:0:
320,192,316769,1,0,0:0:0:0:
448,192,316850,1,0,0:0:0:0:
64,192,316850,1,0,0:0:0:0:
320,192,316931,1,0,0:0:0:0:
192,192,317013,1,0,0:0:0:0:
448,192,317094,1,0,0:0:0:0:
64,192,317094,1,0,0:0:0:0:
320,192,317175,1,0,0:0:0:0:
192,192,317257,1,0,0:0:0:0:
64,192,317338,1,0,0:0:0:0:
448,192,317338,1,0,0:0:0:0:
192,192,317419,1,0,0:0:0:0:
320,192,317501,1,0,0:0:0:0:
448,192,317582,1,0,0:0:0:0:
192,192,317582,1,0,0:0:0:0:
64,192,317663,1,0,0:0:0:0:
320,192,317745,1,0,0:0:0:0:
448,192,317826,1,0,0:0:0:0:
192,192,317826,1,0,0:0:0:0:
320,192,317907,1,0,0:0:0:0:
64,192,317907,1,0,0:0:0:0:
192,192,317989,1,0,0:0:0:0:
448,192,317989,1,0,0:0:0:0:
320,192,318070,1,0,0:0:0:0:
64,192,318070,1,0,0:0:0:0:
448,192,318151,1,0,0:0:0:0:
192,192,318151,1,0,0:0:0:0:
320,192,318232,1,0,0:0:0:0:
448,192,318314,1,0,0:0:0:0:
192,192,318395,1,0,0:0:0:0:
64,192,318476,1,0,0:0:0:0:
320,192,318558,1,0,0:0:0:0:
448,192,318558,1,0,0:0:0:0:
192,192,318558,1,0,0:0:0:0:
64,192,318639,1,0,0:0:0:0:
192,192,318720,1,0,0:0:0:0:
320,192,318802,1,0,0:0:0:0:
448,192,318883,1,0,0:0:0:0:
192,192,318964,1,0,0:0:0:0:
320,192,319046,1,0,0:0:0:0:
448,192,319127,1,0,0:0:0:0:
64,192,319208,1,0,0:0:0:0:
192,192,319290,1,0,0:0:0:0:
320,192,319290,1,0,0:0:0:0:
448,192,319290,1,0,0:0:0:0:
64,192,319371,1,0,0:0:0:0:
192,192,319452,1,0,0:0:0:0:
320,192,319534,1,0,0:0:0:0:
448,192,319615,1,0,0:0:0:0:
320,192,319696,1,0,0:0:0:0:
448,192,319778,1,0,0:0:0:0:
192,192,319859,1,0,0:0:0:0:
64,192,319859,1,0,0:0:0:0:
320,192,319940,1,0,0:0:0:0:
448,192,320021,1,0,0:0:0:0:
192,192,320021,1,0,0:0:0:0:
64,192,320021,1,0,0:0:0:0:
320,192,320103,1,0,0:0:0:0:
192,192,320184,1,0,0:0:0:0:
64,192,320265,1,0,0:0:0:0:
448,192,320265,1,0,0:0:0:0:
320,192,320347,1,0,0:0:0:0:
448,192,320428,1,0,0:0:0:0:
192,192,320509,1,0,0:0:0:0:
320,192,320591,1,0,0:0:0:0:
448,192,320672,1,0,0:0:0:0:
64,192,320753,1,0,0:0:0:0:
192,192,320835,1,0,0:0:0:0:
320,192,320916,1,0,0:0:0:0:
64,192,320997,1,0,0:0:0:0:
320,192,321079,1,0,0:0:0:0:
192,192,321160,1,0,0:0:0:0:
64,192,321241,1,0,0:0:0:0:
192,192,321323,1,0,0:0:0:0:
320,192,321404,1,0,0:0:0:0:
192,192,321485,1,0,0:0:0:0:
64,192,321485,1,0,0:0:0:0:
448,192,321567,1,0,0:0:0:0:
320,192,321648,1,0,0:0:0:0:
192,192,321729,1,0,0:0:0:0:
448,192,321810,1,0,0:0:0:0:
64,192,321892,1,0,0:0:0:0:
320,192,321973,1,0,0:0:0:0:
448,192,321973,1,0,0:0:0:0:
192,192,322054,1,0,0:0:0:0:
64,192,322054,1,0,0:0:0:0:
320,192,322136,1,0,0:0:0:0:
448,192,322136,1,0,0:0:0:0:
64,192,322217,1,0,0:0:0:0:
192,192,322217,1,0,0:0:0:0:
320,192,322217,1,0,0:0:0:0:
448,192,322298,1,0,0:0:0:0:
320,192,322380,1,0,0:0:0:0:
192,192,322461,1,0,0:0:0:0:
448,192,322542,1,0,0:0:0:0:
192,192,322624,1,0,0:0:0:0:
320,192,322705,1,0,0:0:0:0:
64,192,322705,1,0,0:0:0:0:
448,192,322786,1,0,0:0:0:0:
320,192,322868,1,0,0:0:0:0:
192,192,322949,1,0,0:0:0:0:
64,192,322949,1,0,0:0:0:0:
320,192,323030,1,0,0:0:0:0:
64,192,323112,1,0,0:0:0:0:
192,192,323193,1,0,0:0:0:0:
320,192,323193,1,0,0:0:0:0:
448,192,323274,1,0,0:0:0:0:
320,192,323355,1,0,0:0:0:0:
192,192,323437,1,0,0:0:0:0:
64,192,323437,1,0,0:0:0:0:
320,192,323518,1,0,0:0:0:0:
192,192,323599,1,0,0:0:0:0:
64,192,323681,1,0,0:0:0:0:
448,192,323681,1,0,0:0:0:0:
320,192,323762,1,0,0:0:0:0:
448,192,323843,1,0,0:0:0:0:
192,192,323925,1,0,0:0:0:0:
320,192,324006,1,0,0:0:0:0:
448,192,324087,1,0,0:0:0:0:
192,192,324169,1,0,0:0:0:0:
64,192,324169,1,0,0:0:0:0:
320,192,324250,1,0,0:0:0:0:
448,192,324331,1,0,0:0:0:0:
192,192,324413,1,0,0:0:0:0:
320,192,324413,1,0,0:0:0:0:
64,192,324494,1,0,0:0:0:0:
192,192,324575,1,0,0:0:0:0:
320,192,324657,1,0,0:0:0:0:
448,192,324738,1,0,0:0:0:0:
192,192,324819,1,0,0:0:0:0:
320,192,324901,1,0,0:0:0:0:
64,192,324901,1,0,0:0:0:0:
192,192,324982,1,0,0:0:0:0:
448,192,324982,1,0,0:0:0:0:
320,192,325063,1,0,0:0:0:0:
64,192,325144,1,0,0:0:0:0:
448,192,325144,1,0,0:0:0:0:
192,192,325144,1,0,0:0:0:0:
320,192,325226,1,0,0:0:0:0:
192,192,325307,1,0,0:0:0:0:
64,192,325388,1,0,0:0:0:0:
320,192,325470,1,0,0:0:0:0:
448,192,325551,1,0,0:0:0:0:
64,192,325632,1,0,0:0:0:0:
192,192,325632,1,0,0:0:0:0:
320,192,325714,1,0,0:0:0:0:
192,192,325795,1,0,0:0:0:0:
320,192,325876,1,0,0:0:0:0:
448,192,325876,1,0,0:0:0:0:
64,192,325958,1,0,0:0:0:0:
192,192,326039,1,0,0:0:0:0:
320,192,326120,1,0,0:0:0:0:
448,192,326120,1,0,0:0:0:0:
64,192,326202,1,0,0:0:0:0:
192,192,326283,1,0,0:0:0:0:
64,192,326364,1,0,0:0:0:0:
192,192,326446,1,0,0:0:0:0:
448,192,326527,1,0,0:0:0:0:
64,192,326608,1,0,0:0:0:0:
320,192,326608,1,0,0:0:0:0:
192,192,326689,1,0,0:0:0:0:
320,192,326771,1,0,0:0:0:0:
64,192,326852,1,0,0:0:0:0:
192,192,326933,1,0,0:0:0:0:
320,192,327015,1,0,0:0:0:0:
448,192,327096,1,0,0:0:0:0:
192,192,327177,1,0,0:0:0:0:
64,192,327259,1,0,0:0:0:0:
320,192,327340,1,0,0:0:0:0:
448,192,327340,1,0,0:0:0:0:
192,192,327421,1,0,0:0:0:0:
448,192,327503,1,0,0:0:0:0:
64,192,327584,1,0,0:0:0:0:
320,192,327584,1,0,0:0:0:0:
192,192,327665,1,0,0:0:0:0:
320,192,327747,1,0,0:0:0:0:
448,192,327828,1,0,0:0:0:0:
64,192,327828,1,0,0:0:0:0:
192,192,327909,1,0,0:0:0:0:
320,192,327991,1,0,0:0:0:0:
64,192,328072,1,0,0:0:0:0:
448,192,328072,1,0,0:0:0:0:
192,192,328072,1,0,0:0:0:0:
320,192,328153,1,0,0:0:0:0:
448,192,328235,1,0,0:0:0:0:
192,192,328316,1,0,0:0:0:0:
64,192,328397,1,0,0:0:0:0:
320,192,328478,1,0,0:0:0:0:
448,192,328560,1,0,0:0:0:0:
192,192,328560,1,0,0:0:0:0:
64,192,328641,1,0,0:0:0:0:
448,192,328722,1,0,0:0:0:0:
320,192,328804,1,0,0:0:0:0:
192,192,328804,1,0,0:0:0:0:
64,192,328885,1,0,0:0:0:0:
448,192,328966,1,0,0:0:0:0:
192,192,329048,1,0,0:0:0:0:
320,192,329129,1,0,0:0:0:0:
448,192,329210,1,0,0:0:0:0:
320,192,329292,1,0,0:0:0:0:
192,192,329292,1,0,0:0:0:0:
64,192,329373,1,0,0:0:0:0:
192,192,329454,1,0,0:0:0:0:
448,192,329536,1,0,0:0:0:0:
320,192,329536,1,0,0:0:0:0:
64,192,329617,1,0,0:0:0:0:
192,192,329698,1,0,0:0:0:0:
448,192,329780,1,0,0:0:0:0:
320,192,329861,1,0,0:0:0:0:
64,192,329942,1,0,0:0:0:0:
192,192,330024,1,0,0:0:0:0:
448,192,330024,1,0,0:0:0:0:
320,192,330105,1,0,0:0:0:0:
448,192,330186,1,0,0:0:0:0:
64,192,330186,1,0,0:0:0:0:
192,192,330267,1,0,0:0:0:0:
320,192,330267,1,0,0:0:0:0:
64,192,330349,1,0,0:0:0:0:
448,192,330430,1,0,0:0:0:0:
320,192,330511,1,0,0:0:0:0:
64,192,330511,1,0,0:0:0:0:
192,192,330593,1,0,0:0:0:0:
448,192,330674,1,0,0:0:0:0:
320,192,330755,1,0,0:0:0:0:
64,192,330755,1,0,0:0:0:0:
192,192,330837,1,0,0:0:0:0:
448,192,330918,1,0,0:0:0:0:
320,192,330999,1,0,0:0:0:0:
64,192,330999,1,0,0:0:0:0:
192,192,330999,1,0,0:0:0:0:
448,192,331081,1,0,0:0:0:0:
320,192,331162,1,0,0:0:0:0:
192,192,331243,1,0,0:0:0:0:
448,192,331325,1,0,0:0:0:0:
320,192,331406,1,0,0:0:0:0:
448,192,331487,1,0,0:0:0:0:
192,192,331569,1,0,0:0:0:0:
320,192,331650,1,0,0:0:0:0:
64,192,331731,1,0,0:0:0:0:
448,192,331731,1,0,0:0:0:0:
192,192,331812,1,0,0:0:0:0:
320,192,331894,1,0,0:0:0:0:
64,192,331975,1,0,0:0:0:0:
448,192,331975,1,0,0:0:0:0:
192,192,332056,1,0,0:0:0:0:
64,192,332138,1,0,0:0:0:0:
192,192,332219,1,0,0:0:0:0:
448,192,332219,1,0,0:0:0:0:
320,192,332300,1,0,0:0:0:0:
192,192,332382,1,0,0:0:0:0:
320,192,332463,1,0,0:0:0:0:
64,192,332463,1,0,0:0:0:0:
448,192,332544,1,0,0:0:0:0:
320,192,332626,1,0,0:0:0:0:
448,192,332707,1,0,0:0:0:0:
192,192,332707,1,0,0:0:0:0:
64,192,332788,1,0,0:0:0:0:
192,192,332870,1,0,0:0:0:0:
64,192,332951,1,0,0:0:0:0:
320,192,332951,1,0,0:0:0:0:
448,192,333032,1,0,0:0:0:0:
192,192,333114,1,0,0:0:0:0:
64,192,333195,1,0,0:0:0:0:
320,192,333195,1,0,0:0:0:0:
192,192,333276,1,0,0:0:0:0:
320,192,333358,1,0,0:0:0:0:
448,192,333439,1,0,0:0:0:0:
64,192,333439,1,0,0:0:0:0:
192,192,333520,1,0,0:0:0:0:
320,192,333601,1,0,0:0:0:0:
192,192,333683,1,0,0:0:0:0:
448,192,333764,1,0,0:0:0:0:
320,192,333805,1,0,0:0:0:0:
64,192,333845,1,0,0:0:0:0:
320,192,333927,1,0,0:0:0:0:
448,192,333927,1,0,0:0:0:0:
192,192,333927,1,0,0:0:0:0:
64,192,334008,1,0,0:0:0:0:
320,192,334089,1,0,0:0:0:0:
192,192,334171,1,0,0:0:0:0:
448,192,334252,1,0,0:0:0:0:
320,192,334333,1,0,0:0:0:0:
64,192,334415,1,0,0:0:0:0:
192,192,334415,1,0,0:0:0:0:
448,192,334496,1,0,0:0:0:0:
192,192,334577,1,0,0:0:0:0:
320,192,334659,1,0,0:0:0:0:
64,192,334659,1,0,0:0:0:0:
448,192,334740,1,0,0:0:0:0:
192,192,334821,1,0,0:0:0:0:
320,192,334903,1,0,0:0:0:0:
448,192,334984,1,0,0:0:0:0:
192,192,335065,1,0,0:0:0:0:
64,192,335147,1,0,0:0:0:0:
320,192,335228,1,0,0:0:0:0:
448,192,335309,1,0,0:0:0:0:
192,192,335390,1,0,0:0:0:0:
64,192,335390,1,0,0:0:0:0:
320,192,335472,1,0,0:0:0:0:
448,192,335553,1,0,0:0:0:0:
192,192,335634,1,0,0:0:0:0:
320,192,335716,1,0,0:0:0:0:
448,192,335797,1,0,0:0:0:0:
64,192,335878,1,0,0:0:0:0:
320,192,335960,1,0,0:0:0:0:
192,192,336041,1,0,0:0:0:0:
64,192,336122,1,0,0:0:0:0:
448,192,336122,1,0,0:0:0:0:
192,192,336204,1,0,0:0:0:0:
320,192,336285,1,0,0:0:0:0:
448,192,336366,1,0,0:0:0:0:
64,192,336366,1,0,0:0:0:0:
192,192,336448,1,0,0:0:0:0:
320,192,336529,1,0,0:0:0:0:
192,192,336610,1,0,0:0:0:0:
64,192,336610,1,0,0:0:0:0:
448,192,336692,1,0,0:0:0:0:
320,192,336773,1,0,0:0:0:0:
192,192,336854,1,0,0:0:0:0:
64,192,336854,1,0,0:0:0:0:
448,192,336854,1,0,0:0:0:0:
320,192,336935,1,0,0:0:0:0:
192,192,337017,1,0,0:0:0:0:
64,192,337098,1,0,0:0:0:0:
320,192,337179,1,0,0:0:0:0:
448,192,337261,1,0,0:0:0:0:
192,192,337342,1,0,0:0:0:0:
64,192,337423,1,0,0:0:0:0:
320,192,337505,1,0,0:0:0:0:
192,192,337586,1,0,0:0:0:0:
448,192,337586,1,0,0:0:0:0:
320,192,337667,1,0,0:0:0:0:
64,192,337749,1,0,0:0:0:0:
192,192,337830,1,0,0:0:0:0:
448,192,337911,1,0,0:0:0:0:
320,192,337993,1,0,0:0:0:0:
64,192,338074,1,0,0:0:0:0:
192,192,338155,1,0,0:0:0:0:
448,192,338237,1,0,0:0:0:0:
320,192,338318,1,0,0:0:0:0:
192,192,338359,1,0,0:0:0:0:
64,192,338399,1,0,0:0:0:0:
448,192,338481,1,0,0:0:0:0:
320,192,338562,1,0,0:0:0:0:
448,192,338643,1,0,0:0:0:0:
320,192,338724,1,0,0:0:0:0:
192,192,338806,1,0,0:0:0:0:
64,192,338806,1,0,0:0:0:0:
448,192,338887,1,0,0:0:0:0:
192,192,338968,1,0,0:0:0:0:
448,192,339050,1,0,0:0:0:0:
64,192,339050,1,0,0:0:0:0:
320,192,339050,1,0,0:0:0:0:
192,192,339131,1,0,0:0:0:0:
320,192,339212,1,0,0:0:0:0:
448,192,339294,1,0,0:0:0:0:
192,192,339294,1,0,0:0:0:0:
64,192,339294,1,0,0:0:0:0:
320,192,339375,1,0,0:0:0:0:
192,192,339456,1,0,0:0:0:0:
64,192,339538,1,0,0:0:0:0:
320,192,339538,1,0,0:0:0:0:
448,192,339538,1,0,0:0:0:0:
192,192,339700,1,0,0:0:0:0:
64,192,339782,1,0,0:0:0:0:
320,192,339782,1,0,0:0:0:0:
448,192,339782,1,0,0:0:0:0:
192,192,340026,1,0,0:0:0:0:
320,192,340107,1,0,0:0:0:0:
448,192,340188,1,0,0:0:0:0:
64,192,340269,1,0,0:0:0:0:
192,192,340513,1,0,0:0:0:0:
320,192,340513,1,0,0:0:0:0:
448,192,340513,1,0,0:0:0:0:
64,192,340757,1,0,0:0:0:0:
192,192,340757,1,0,0:0:0:0:
192,192,340879,1,0,0:0:0:0:
320,192,340879,1,0,0:0:0:0:
320,192,341001,1,0,0:0:0:0:
448,192,341001,1,0,0:0:0:0:
64,192,341245,1,0,0:0:0:0:
320,192,341245,1,0,0:0:0:0:
320,192,341489,1,0,0:0:0:0:
64,192,341489,1,0,0:0:0:0:
192,192,341611,1,0,0:0:0:0:
448,192,341733,1,0,0:0:0:0:
320,192,341733,1,0,0:0:0:0:
64,192,341977,1,0,0:0:0:0:
320,192,341977,1,0,0:0:0:0:
448,192,341977,1,0,0:0:0:0:
320,192,342221,1,0,0:0:0:0:
448,192,342221,1,0,0:0:0:0:
192,192,342343,1,0,0:0:0:0:
320,192,342343,1,0,0:0:0:0:
64,192,342465,1,0,0:0:0:0:
192,192,342465,1,0,0:0:0:0:
192,192,342709,1,0,0:0:0:0:
320,192,342709,1,0,0:0:0:0:
448,192,342709,1,0,0:0:0:0:
64,192,342709,1,0,0:0:0:0:
320,192,342953,1,0,0:0:0:0:
192,192,343075,1,0,0:0:0:0:
64,192,343197,1,0,0:0:0:0:
192,192,343441,1,0,0:0:0:0:
320,192,343441,1,0,0:0:0:0:
448,192,343441,1,0,0:0:0:0:
64,192,343685,1,0,0:0:0:0:
192,192,343807,1,0,0:0:0:0:
448,192,343929,1,0,0:0:0:0:
64,192,344173,1,0,0:0:0:0:
448,192,344417,1,0,0:0:0:0:
192,192,344539,1,0,0:0:0:0:
320,192,344661,1,0,0:0:0:0:
448,192,344661,1,0,0:0:0:0:
320,192,344905,1,0,0:0:0:0:
64,192,344905,1,0,0:0:0:0:
448,192,344905,1,0,0:0:0:0:
192,192,345149,1,0,0:0:0:0:
448,192,345149,1,0,0:0:0:0:
64,192,345271,1,0,0:0:0:0:
192,192,345392,1,0,0:0:0:0:
320,192,345392,1,0,0:0:0:0:
448,192,345392,1,0,0:0:0:0:
64,192,345514,1,0,0:0:0:0:
320,192,345514,1,0,0:0:0:0:
192,192,345514,1,0,0:0:0:0:
192,192,345636,1,0,0:0:0:0:
320,192,345636,1,0,0:0:0:0:
448,192,345636,1,0,0:0:0:0:
64,192,345880,1,0,0:0:0:0:
192,192,346002,1,0,0:0:0:0:
448,192,346124,1,0,0:0:0:0:
320,192,346368,1,0,0:0:0:0:
192,192,346368,1,0,0:0:0:0:
64,192,346368,1,0,0:0:0:0:
192,192,346612,1,0,0:0:0:0:
448,192,346612,1,0,0:0:0:0:
320,192,346612,1,0,0:0:0:0:
64,192,346734,1,0,0:0:0:0:
320,192,346856,1,0,0:0:0:0:
448,192,346856,1,0,0:0:0:0:
192,192,347100,1,0,0:0:0:0:
448,192,347344,1,0,0:0:0:0:
192,192,347466,1,0,0:0:0:0:
64,192,347588,1,0,0:0:0:0:
320,192,347588,1,0,0:0:0:0:
192,192,347832,1,0,0:0:0:0:
448,192,347832,1,0,0:0:0:0:
320,192,348076,1,0,0:0:0:0:
64,192,348076,1,0,0:0:0:0:
192,192,348198,1,0,0:0:0:0:
448,192,348320,1,0,0:0:0:0:
320,192,348442,1,0,0:0:0:0:
64,192,348564,1,0,0:0:0:0:
448,192,348564,1,0,0:0:0:0:
192,192,348808,1,0,0:0:0:0:
320,192,348808,1,0,0:0:0:0:
64,192,348930,1,0,0:0:0:0:
320,192,349052,1,0,0:0:0:0:
448,192,349052,1,0,0:0:0:0:
64,192,349296,1,0,0:0:0:0:
192,192,349296,1,0,0:0:0:0:
320,192,349296,1,0,0:0:0:0:
320,192,349540,1,0,0:0:0:0:
64,192,349662,1,0,0:0:0:0:
448,192,349784,1,0,0:0:0:0:
64,192,350028,1,0,0:0:0:0:
192,192,350028,1,0,0:0:0:0:
320,192,350028,1,0,0:0:0:0:
448,192,350272,1,0,0:0:0:0:
320,192,350394,1,0,0:0:0:0:
64,192,350515,1,0,0:0:0:0:
320,192,350759,1,0,0:0:0:0:
448,192,350759,1,0,0:0:0:0:
192,192,351003,1,0,0:0:0:0:
320,192,351003,1,0,0:0:0:0:
448,192,351125,1,0,0:0:0:0:
64,192,351247,1,0,0:0:0:0:
192,192,351247,1,0,0:0:0:0:
320,192,351491,1,0,0:0:0:0:
448,192,351491,128,0,352955:0:0:0:0:
192,192,351735,1,0,0:0:0:0:
64,192,351979,1,0,0:0:0:0:
320,192,352223,1,0,0:0:0:0:
192,192,352223,1,0,0:0:0:0:
64,192,352304,1,0,0:0:0:0:
192,192,352386,1,0,0:0:0:0:
320,192,352467,1,0,0:0:0:0:
192,192,352548,1,0,0:0:0:0:
64,192,352630,1,0,0:0:0:0:
320,192,352711,1,0,0:0:0:0:
64,192,352792,1,0,0:0:0:0:
192,192,352874,1,0,0:0:0:0:
320,192,352955,1,0,0:0:0:0:
64,192,352955,1,0,0:0:0:0:
192,192,353036,1,0,0:0:0:0:
320,192,353118,1,0,0:0:0:0:
448,192,353199,1,0,0:0:0:0:
192,192,353280,1,0,0:0:0:0:
64,192,353362,1,0,0:0:0:0:
320,192,353443,1,0,0:0:0:0:
448,192,353443,1,0,0:0:0:0:
192,192,353524,1,0,0:0:0:0:
320,192,353606,1,0,0:0:0:0:
64,192,353687,1,0,0:0:0:0:
448,192,353687,1,0,0:0:0:0:
192,192,353768,1,0,0:0:0:0:
320,192,353849,1,0,0:0:0:0:
64,192,353931,1,0,0:0:0:0:
448,192,353931,1,0,0:0:0:0:
320,192,354012,1,0,0:0:0:0:
192,192,354093,1,0,0:0:0:0:
448,192,354175,1,0,0:0:0:0:
64,192,354175,1,0,0:0:0:0:
320,192,354256,1,0,0:0:0:0:
192,192,354337,1,0,0:0:0:0:
64,192,354419,1,0,0:0:0:0:
448,192,354419,1,0,0:0:0:0:
320,192,354500,1,0,0:0:0:0:
64,192,354581,1,0,0:0:0:0:
192,192,354663,1,0,0:0:0:0:
448,192,354744,1,0,0:0:0:0:
320,192,354825,1,0,0:0:0:0:
64,192,354907,1,0,0:0:0:0:
448,192,354988,1,0,0:0:0:0:
192,192,354988,1,0,0:0:0:0:
320,192,355069,1,0,0:0:0:0:
64,192,355151,1,0,0:0:0:0:
448,192,355151,1,0,0:0:0:0:
192,192,355232,1,0,0:0:0:0:
320,192,355313,1,0,0:0:0:0:
64,192,355395,1,0,0:0:0:0:
192,192,355476,1,0,0:0:0:0:
320,192,355557,1,0,0:0:0:0:
448,192,355638,1,0,0:0:0:0:
320,192,355720,1,0,0:0:0:0:
64,192,355801,1,0,0:0:0:0:
192,192,355882,1,0,0:0:0:0:
448,192,355882,1,0,0:0:0:0:
320,192,355964,1,0,0:0:0:0:
192,192,356045,1,0,0:0:0:0:
64,192,356126,1,0,0:0:0:0:
320,192,356208,1,0,0:0:0:0:
448,192,356289,1,0,0:0:0:0:
192,192,356370,1,0,0:0:0:0:
64,192,356452,1,0,0:0:0:0:
192,192,356533,1,0,0:0:0:0:
448,192,356614,1,0,0:0:0:0:
320,192,356614,1,0,0:0:0:0:
64,192,356696,1,0,0:0:0:0:
320,192,356777,1,0,0:0:0:0:
192,192,356858,1,0,0:0:0:0:
448,192,356940,1,0,0:0:0:0:
64,192,357021,1,0,0:0:0:0:
192,192,357102,1,0,0:0:0:0:
448,192,357184,1,0,0:0:0:0:
320,192,357265,1,0,0:0:0:0:
64,192,357346,1,0,0:0:0:0:
192,192,357427,1,0,0:0:0:0:
448,192,357509,1,0,0:0:0:0:
320,192,357590,1,0,0:0:0:0:
448,192,357671,1,0,0:0:0:0:
320,192,357753,1,0,0:0:0:0:
64,192,357834,1,0,0:0:0:0:
192,192,357915,1,0,0:0:0:0:
64,192,357997,1,0,0:0:0:0:
192,192,358078,1,0,0:0:0:0:
448,192,358078,1,0,0:0:0:0:
320,192,358159,1,0,0:0:0:0:
64,192,358241,1,0,0:0:0:0:
192,192,358322,1,0,0:0:0:0:
448,192,358403,1,0,0:0:0:0:
320,192,358485,1,0,0:0:0:0:
64,192,358566,1,0,0:0:0:0:
192,192,358566,1,0,0:0:0:0:
448,192,358647,1,0,0:0:0:0:
64,192,358688,1,0,0:0:0:0:
192,192,358688,1,0,0:0:0:0:
320,192,358729,1,0,0:0:0:0:
192,192,358810,1,0,0:0:0:0:
64,192,358810,1,0,0:0:0:0:
448,192,358810,1,0,0:0:0:0:
320,192,358891,1,0,0:0:0:0:
448,192,358972,1,0,0:0:0:0:
192,192,359054,1,0,0:0:0:0:
64,192,359135,1,0,0:0:0:0:
192,192,359216,1,0,0:0:0:0:
448,192,359298,1,0,0:0:0:0:
320,192,359379,1,0,0:0:0:0:
64,192,359460,1,0,0:0:0:0:
192,192,359542,1,0,0:0:0:0:
448,192,359542,1,0,0:0:0:0:
320,192,359623,1,0,0:0:0:0:
64,192,359704,1,0,0:0:0:0:
192,192,359786,1,0,0:0:0:0:
448,192,359867,1,0,0:0:0:0:
320,192,359948,1,0,0:0:0:0:
64,192,360030,1,0,0:0:0:0:
320,192,360111,1,0,0:0:0:0:
448,192,360192,1,0,0:0:0:0:
192,192,360274,1,0,0:0:0:0:
64,192,360355,1,0,0:0:0:0:
192,192,360436,1,0,0:0:0:0:
64,192,360518,1,0,0:0:0:0:
320,192,360599,1,0,0:0:0:0:
448,192,360680,1,0,0:0:0:0:
192,192,360761,1,0,0:0:0:0:
64,192,360843,1,0,0:0:0:0:
320,192,360924,1,0,0:0:0:0:
192,192,361005,1,0,0:0:0:0:
64,192,361005,1,0,0:0:0:0:
448,192,361087,1,0,0:0:0:0:
320,192,361168,1,0,0:0:0:0:
192,192,361249,1,0,0:0:0:0:
448,192,361331,1,0,0:0:0:0:
64,192,361331,1,0,0:0:0:0:
192,192,361412,1,0,0:0:0:0:
320,192,361493,1,0,0:0:0:0:
64,192,361575,1,0,0:0:0:0:
448,192,361656,1,0,0:0:0:0:
192,192,361737,1,0,0:0:0:0:
320,192,361737,1,0,0:0:0:0:
64,192,361819,1,0,0:0:0:0:
448,192,361819,1,0,0:0:0:0:
320,192,361900,1,0,0:0:0:0:
64,192,361981,1,0,0:0:0:0:
192,192,362063,1,0,0:0:0:0:
448,192,362144,1,0,0:0:0:0:
320,192,362225,1,0,0:0:0:0:
64,192,362306,1,0,0:0:0:0:
448,192,362388,1,0,0:0:0:0:
192,192,362469,1,0,0:0:0:0:
320,192,362469,1,0,0:0:0:0:
64,192,362550,1,0,0:0:0:0:
448,192,362632,1,0,0:0:0:0:
320,192,362713,1,0,0:0:0:0:
64,192,362794,1,0,0:0:0:0:
192,192,362876,1,0,0:0:0:0:
448,192,362957,1,0,0:0:0:0:
64,192,363038,1,0,0:0:0:0:
320,192,363120,1,0,0:0:0:0:
192,192,363201,1,0,0:0:0:0:
64,192,363282,1,0,0:0:0:0:
192,192,363364,1,0,0:0:0:0:
448,192,363445,1,0,0:0:0:0:
64,192,363526,1,0,0:0:0:0:
320,192,363608,1,0,0:0:0:0:
192,192,363689,1,0,0:0:0:0:
448,192,363770,1,0,0:0:0:0:
64,192,363852,1,0,0:0:0:0:
192,192,363933,1,0,0:0:0:0:
320,192,363933,128,0,364177:0:0:0:0:
448,192,364014,1,0,0:0:0:0:
64,192,364095,1,0,0:0:0:0:
192,192,364177,128,0,364421:0:0:0:0:
448,192,364258,1,0,0:0:0:0:
64,192,364339,1,0,0:0:0:0:
320,192,364421,128,0,364665:0:0:0:0:
448,192,364502,1,0,0:0:0:0:
64,192,364583,1,0,0:0:0:0:
192,192,364665,128,0,364909:0:0:0:0:
448,192,364746,1,0,0:0:0:0:
64,192,364827,1,0,0:0:0:0:
320,192,364909,1,0,0:0:0:0:
448,192,364990,1,0,0:0:0:0:
64,192,365071,1,0,0:0:0:0:
320,192,365153,1,0,0:0:0:0:
192,192,365234,1,0,0:0:0:0:
448,192,365315,1,0,0:0:0:0:
320,192,365397,1,0,0:0:0:0:
64,192,365397,1,0,0:0:0:0:
192,192,365478,1,0,0:0:0:0:
448,192,365559,1,0,0:0:0:0:
64,192,365641,1,0,0:0:0:0:
320,192,365722,1,0,0:0:0:0:
192,192,365803,1,0,0:0:0:0:
64,192,365884,1,0,0:0:0:0:
320,192,365966,1,0,0:0:0:0:
192,192,366047,1,0,0:0:0:0:
448,192,366128,1,0,0:0:0:0:
320,192,366210,1,0,0:0:0:0:
192,192,366291,1,0,0:0:0:0:
64,192,366372,1,0,0:0:0:0:
320,192,366454,1,0,0:0:0:0:
448,192,366535,1,0,0:0:0:0:
192,192,366616,1,0,0:0:0:0:
64,192,366698,1,0,0:0:0:0:
448,192,366779,1,0,0:0:0:0:
192,192,366860,1,0,0:0:0:0:
64,192,366860,1,0,0:0:0:0:
320,192,366942,1,0,0:0:0:0:
64,192,367023,1,0,0:0:0:0:
448,192,367104,1,0,0:0:0:0:
320,192,367186,1,0,0:0:0:0:
192,192,367267,1,0,0:0:0:0:
64,192,367348,1,0,0:0:0:0:
192,192,367429,1,0,0:0:0:0:
320,192,367511,1,0,0:0:0:0:
448,192,367592,1,0,0:0:0:0:
64,192,367592,1,0,0:0:0:0:
192,192,367673,1,0,0:0:0:0:
64,192,367755,1,0,0:0:0:0:
192,192,367836,1,0,0:0:0:0:
448,192,367917,1,0,0:0:0:0:
320,192,367999,1,0,0:0:0:0:
64,192,368080,1,0,0:0:0:0:
192,192,368080,1,0,0:0:0:0:
448,192,368161,1,0,0:0:0:0:
320,192,368243,1,0,0:0:0:0:
192,192,368324,1,0,0:0:0:0:
64,192,368324,1,0,0:0:0:0:
448,192,368405,1,0,0:0:0:0:
320,192,368487,1,0,0:0:0:0:
64,192,368568,1,0,0:0:0:0:
192,192,368649,1,0,0:0:0:0:
320,192,368731,1,0,0:0:0:0:
64,192,368812,1,0,0:0:0:0:
192,192,368893,1,0,0:0:0:0:
448,192,368975,1,0,0:0:0:0:
320,192,369056,1,0,0:0:0:0:
64,192,369137,1,0,0:0:0:0:
192,192,369218,1,0,0:0:0:0:
448,192,369300,1,0,0:0:0:0:
64,192,369381,1,0,0:0:0:0:
320,192,369462,1,0,0:0:0:0:
192,192,369544,1,0,0:0:0:0:
320,192,369625,1,0,0:0:0:0:
192,192,369706,1,0,0:0:0:0:
448,192,369788,1,0,0:0:0:0:
64,192,369788,1,0,0:0:0:0:
320,192,369869,1,0,0:0:0:0:
64,192,369950,1,0,0:0:0:0:
320,192,370032,1,0,0:0:0:0:
448,192,370113,1,0,0:0:0:0:
192,192,370194,1,0,0:0:0:0:
320,192,370276,1,0,0:0:0:0:
64,192,370357,1,0,0:0:0:0:
448,192,370438,1,0,0:0:0:0:
64,192,370520,1,0,0:0:0:0:
320,192,370520,1,0,0:0:0:0:
192,192,370601,1,0,0:0:0:0:
320,192,370682,1,0,0:0:0:0:
192,192,370763,1,0,0:0:0:0:
64,192,370845,1,0,0:0:0:0:
192,192,370926,1,0,0:0:0:0:
448,192,371007,1,0,0:0:0:0:
64,192,371089,1,0,0:0:0:0:
320,192,371170,1,0,0:0:0:0:
192,192,371251,1,0,0:0:0:0:
448,192,371251,1,0,0:0:0:0:
320,192,371333,1,0,0:0:0:0:
64,192,371414,1,0,0:0:0:0:
448,192,371495,1,0,0:0:0:0:
192,192,371577,1,0,0:0:0:0:
64,192,371658,1,0,0:0:0:0:
320,192,371739,1,0,0:0:0:0:
64,192,371821,1,0,0:0:0:0:
192,192,371902,1,0,0:0:0:0:
448,192,371983,1,0,0:0:0:0:
320,192,372065,1,0,0:0:0:0:
64,192,372146,1,0,0:0:0:0:
192,192,372227,1,0,0:0:0:0:
448,192,372309,1,0,0:0:0:0:
64,192,372390,1,0,0:0:0:0:
320,192,372471,1,0,0:0:0:0:
448,192,372552,1,0,0:0:0:0:
64,192,372634,1,0,0:0:0:0:
192,192,372715,1,0,0:0:0:0:
448,192,372715,1,0,0:0:0:0:
320,192,372796,1,0,0:0:0:0:
192,192,372878,1,0,0:0:0:0:
64,192,372959,1,0,0:0:0:0:
320,192,373040,1,0,0:0:0:0:
448,192,373122,1,0,0:0:0:0:
64,192,373203,1,0,0:0:0:0:
320,192,373284,1,0,0:0:0:0:
192,192,373366,1,0,0:0:0:0:
448,192,373447,1,0,0:0:0:0:
64,192,373447,1,0,0:0:0:0:
320,192,373528,1,0,0:0:0:0:
448,192,373610,1,0,0:0:0:0:
320,192,373691,1,0,0:0:0:0:
64,192,373772,1,0,0:0:0:0:
192,192,373854,1,0,0:0:0:0:
64,192,373935,1,0,0:0:0:0:
320,192,374016,1,0,0:0:0:0:
64,192,374098,1,0,0:0:0:0:
192,192,374179,1,0,0:0:0:0:
448,192,374179,1,0,0:0:0:0:
320,192,374260,1,0,0:0:0:0:
64,192,374341,1,0,0:0:0:0:
192,192,374423,1,0,0:0:0:0:
448,192,374504,1,0,0:0:0:0:
320,192,374585,1,0,0:0:0:0:
64,192,374667,1,0,0:0:0:0:
448,192,374748,1,0,0:0:0:0:
192,192,374829,1,0,0:0:0:0:
320,192,374911,1,0,0:0:0:0:
64,192,374911,1,0,0:0:0:0:
448,192,374992,1,0,0:0:0:0:
320,192,375073,1,0,0:0:0:0:
192,192,375155,1,0,0:0:0:0:
64,192,375236,1,0,0:0:0:0:
320,192,375317,1,0,0:0:0:0:
448,192,375399,1,0,0:0:0:0:
192,192,375480,1,0,0:0:0:0:
64,192,375561,1,0,0:0:0:0:
320,192,375643,128,0,375886:0:0:0:0:
448,192,375643,128,0,375886:0:0:0:0:
64,192,375886,1,0,0:0:0:0:
192,192,375886,1,0,0:0:0:0:
192,192,376008,1,0,0:0:0:0:
64,192,376008,1,0,0:0:0:0:
64,192,376130,1,0,0:0:0:0:
192,192,376130,1,0,0:0:0:0:
320,192,376130,128,0,376374:0:0:0:0:
448,192,376130,128,0,376374:0:0:0:0:
64,192,376374,128,0,376618:0:0:0:0:
192,192,376374,128,0,376618:0:0:0:0:
320,192,376618,128,0,376862:0:0:0:0:
448,192,376740,1,0,0:0:0:0:
192,192,376862,128,0,377106:0:0:0:0:
64,192,376862,1,0,0:0:0:0:
320,192,377106,128,0,377350:0:0:0:0:
448,192,377106,1,0,0:0:0:0:
192,192,377350,128,0,377472:0:0:0:0:
448,192,377350,1,0,0:0:0:0:
64,192,377472,128,0,377594:0:0:0:0:
320,192,377472,1,0,0:0:0:0:
448,192,377594,1,0,0:0:0:0:
192,192,377594,128,0,377716:0:0:0:0:
320,192,377716,128,0,377838:0:0:0:0:
448,192,377838,128,0,378082:0:0:0:0:
320,192,378082,128,0,378204:0:0:0:0:
64,192,378204,128,0,378326:0:0:0:0:
192,192,378326,128,0,378570:0:0:0:0:
448,192,378570,128,0,378814:0:0:0:0:
64,192,378814,128,0,378936:0:0:0:0:
320,192,378814,1,0,0:0:0:0:
192,192,378936,128,0,379058:0:0:0:0:
448,192,379058,128,0,379180:0:0:0:0:
320,192,379180,128,0,379302:0:0:0:0:
192,192,379302,1,0,0:0:0:0:
64,192,379302,128,0,379790:0:0:0:0:
448,192,379546,1,0,0:0:0:0:
320,192,379668,1,0,0:0:0:0:
192,192,379790,128,0,380034:0:0:0:0:
448,192,379790,1,0,0:0:0:0:
448,192,380034,128,0,380522:0:0:0:0:
64,192,380034,1,0,0:0:0:0:
320,192,380278,1,0,0:0:0:0:
192,192,380400,1,0,0:0:0:0:
320,192,380522,128,0,380766:0:0:0:0:
64,192,380522,1,0,0:0:0:0:
192,192,380766,1,0,0:0:0:0:
448,192,380766,128,0,381009:0:0:0:0:
192,192,381009,128,0,381497:0:0:0:0:
64,192,381009,1,0,0:0:0:0:
320,192,381131,1,0,0:0:0:0:
448,192,381253,1,0,0:0:0:0:
320,192,381497,1,0,0:0:0:0:
64,192,381497,1,0,0:0:0:0:
64,192,381741,128,0,381863:0:0:0:0:
448,192,381741,128,0,381863:0:0:0:0:
192,192,381863,128,0,381985:0:0:0:0:
320,192,381863,128,0,381985:0:0:0:0:
64,192,381985,128,0,382107:0:0:0:0:
448,192,381985,128,0,382107:0:0:0:0:
192,192,382107,128,0,382229:0:0:0:0:
320,192,382107,128,0,382229:0:0:0:0:
64,192,382229,128,0,382473:0:0:0:0:
448,192,382229,128,0,382473:0:0:0:0:
192,192,382473,128,0,382595:0:0:0:0:
320,192,382595,128,0,382717:0:0:0:0:
448,192,382717,128,0,382961:0:0:0:0:
64,192,382717,1,0,0:0:0:0:
320,192,382961,1,0,0:0:0:0:
192,192,382961,128,0,383205:0:0:0:0:
64,192,383205,128,0,383449:0:0:0:0:
320,192,383449,1,0,0:0:0:0:
192,192,383449,128,0,383693:0:0:0:0:
448,192,383693,128,0,383937:0:0:0:0:
320,192,383937,128,0,384059:0:0:0:0:
64,192,384059,128,0,384181:0:0:0:0:
192,192,384181,128,0,384425:0:0:0:0:
320,192,384425,1,0,0:0:0:0:
448,192,384425,128,0,384669:0:0:0:0:
64,192,384669,128,0,384913:0:0:0:0:
320,192,384791,1,0,0:0:0:0:
192,192,384913,128,0,385157:0:0:0:0:
448,192,384913,1,0,0:0:0:0:
448,192,385157,128,0,385523:0:0:0:0:
64,192,385157,1,0,0:0:0:0:
64,192,385401,1,0,0:0:0:0:
192,192,385523,128,0,385645:0:0:0:0:
64,192,385645,128,0,385889:0:0:0:0:
320,192,385645,1,0,0:0:0:0:
320,192,385889,1,0,0:0:0:0:
448,192,385889,128,0,386132:0:0:0:0:
192,192,385889,1,0,0:0:0:0:
320,192,386132,128,0,386376:0:0:0:0:
64,192,386132,1,0,0:0:0:0:
192,192,386254,1,0,0:0:0:0:
448,192,386376,128,0,386620:0:0:0:0:
64,192,386376,1,0,0:0:0:0:
320,192,386620,1,0,0:0:0:0:
192,192,386620,128,0,386864:0:0:0:0:
64,192,386864,128,0,386986:0:0:0:0:
320,192,386864,1,0,0:0:0:0:
448,192,386986,128,0,387108:0:0:0:0:
192,192,387108,1,0,0:0:0:0:
320,192,387108,128,0,387352:0:0:0:0:
64,192,387230,1,0,0:0:0:0:
448,192,387352,128,0,387596:0:0:0:0:
192,192,387352,1,0,0:0:0:0:
64,192,387596,1,0,0:0:0:0:
192,192,387596,128,0,388084:0:0:0:0:
320,192,387718,1,0,0:0:0:0:
448,192,387840,1,0,0:0:0:0:
64,192,387840,1,0,0:0:0:0:
320,192,388084,128,0,388328:0:0:0:0:
64,192,388328,128,0,388450:0:0:0:0:
192,192,388572,128,0,388694:0:0:0:0:
320,192,388816,128,0,388938:0:0:0:0:
448,192,389060,128,0,389182:0:0:0:0:
192,192,389304,128,0,389426:0:0:0:0:
448,192,389548,128,0,389792:0:0:0:0:
64,192,389548,128,0,389670:0:0:0:0:
320,192,389548,1,0,0:0:0:0:
192,192,389792,128,0,389914:0:0:0:0:
320,192,390036,128,0,390158:0:0:0:0:
64,192,390280,128,0,390402:0:0:0:0:
320,192,390524,128,0,390646:0:0:0:0:
192,192,390768,128,0,390890:0:0:0:0:
448,192,391012,128,0,391743:0:0:0:0:
64,192,391012,128,0,391133:0:0:0:0:
64,192,391743,128,0,392475:0:0:0:0:
192,192,391743,1,0,0:0:0:0:
320,192,391743,1,0,0:0:0:0:
320,192,392475,128,0,393207:0:0:0:0:
192,192,392475,1,0,0:0:0:0:
448,192,392475,1,0,0:0:0:0:
192,192,393207,128,0,393939:0:0:0:0:
448,192,393207,1,0,0:0:0:0:
64,192,393207,1,0,0:0:0:0:
448,192,393939,1,0,0:0:0:0:
320,192,393939,1,0,0:0:0:0:
192,192,394121,1,0,0:0:0:0:
320,192,394121,1,0,0:0:0:0:
64,192,394304,1,0,0:0:0:0:
192,192,394304,1,0,0:0:0:0:
320,192,394670,1,0,0:0:0:0:
448,192,394670,1,0,0:0:0:0:
64,192,395036,1,0,0:0:0:0:
192,192,395036,1,0,0:0:0:0:
192,192,395219,1,0,0:0:0:0:
320,192,395219,1,0,0:0:0:0:
320,192,395402,1,0,0:0:0:0:
448,192,395402,1,0,0:0:0:0:
64,192,395585,1,0,0:0:0:0:
192,192,395585,1,0,0:0:0:0:
448,192,395768,1,0,0:0:0:0:
320,192,395768,1,0,0:0:0:0:
64,192,396134,1,0,0:0:0:0:
192,192,396134,128,0,396317:0:0:0:0:
320,192,396317,128,0,396499:0:0:0:0:
448,192,396317,1,0,0:0:0:0:
192,192,396499,128,0,396682:0:0:0:0:
64,192,396499,1,0,0:0:0:0:
64,192,396682,128,0,396865:0:0:0:0:
320,192,396682,1,0,0:0:0:0:
448,192,396865,1,0,0:0:0:0:
192,192,396865,1,0,0:0:0:0:
320,192,397048,1,0,0:0:0:0:
64,192,397048,1,0,0:0:0:0:
192,192,397231,1,0,0:0:0:0:
448,192,397231,1,0,0:0:0:0:
64,192,397597,1,0,0:0:0:0:
192,192,397597,1,0,0:0:0:0:
320,192,397597,1,0,0:0:0:0:
448,192,397597,1,0,0:0:0:0:
192,192,397963,1,0,0:0:0:0:
448,192,397963,1,0,0:0:0:0:
320,192,398146,1,0,0:0:0:0:
64,192,398146,1,0,0:0:0:0:
192,192,398329,1,0,0:0:0:0:
448,192,398329,1,0,0:0:0:0:
64,192,398512,1,0,0:0:0:0:
192,192,398512,1,0,0:0:0:0:
320,192,398695,1,0,0:0:0:0:
448,192,398695,1,0,0:0:0:0:
64,192,399060,1,0,0:0:0:0:
192,192,399152,1,0,0:0:0:0:
320,192,399243,1,0,0:0:0:0:
448,192,399335,1,0,0:0:0:0:
64,192,399426,128,0,399792:0:0:0:0:
192,192,399426,1,0,0:0:0:0:
320,192,399518,1,0,0:0:0:0:
448,192,399609,1,0,0:0:0:0:
192,192,399609,1,0,0:0:0:0:
320,192,399701,1,0,0:0:0:0:
192,192,399792,1,0,0:0:0:0:
448,192,399792,128,0,400158:0:0:0:0:
320,192,399975,1,0,0:0:0:0:
64,192,399975,1,0,0:0:0:0:
192,192,400158,1,0,0:0:0:0:
64,192,400524,1,0,0:0:0:0:
448,192,400524,1,0,0:0:0:0:
320,192,400524,1,0,0:0:0:0:
192,192,400524,1,0,0:0:0:0:
64,192,400890,1,0,0:0:0:0:
192,192,400890,1,0,0:0:0:0:
320,192,401073,1,0,0:0:0:0:
192,192,401073,1,0,0:0:0:0:
320,192,401256,1,0,0:0:0:0:
448,192,401256,1,0,0:0:0:0:
192,192,401439,1,0,0:0:0:0:
64,192,401439,1,0,0:0:0:0:
320,192,401621,1,0,0:0:0:0:
448,192,401621,1,0,0:0:0:0:
64,192,401987,1,0,0:0:0:0:
192,192,401987,1,0,0:0:0:0:
448,192,401987,1,0,0:0:0:0:
320,192,401987,1,0,0:0:0:0:
320,192,402170,1,0,0:0:0:0:
192,192,402353,1,0,0:0:0:0:
448,192,402353,1,0,0:0:0:0:
64,192,402536,1,0,0:0:0:0:
320,192,402536,1,0,0:0:0:0:
192,192,402719,1,0,0:0:0:0:
448,192,402719,1,0,0:0:0:0:
320,192,402902,1,0,0:0:0:0:
192,192,403085,1,0,0:0:0:0:
64,192,403085,1,0,0:0:0:0:
320,192,403451,1,0,0:0:0:0:
448,192,403451,1,0,0:0:0:0:
320,192,403634,1,0,0:0:0:0:
192,192,403634,1,0,0:0:0:0:
448,192,403817,1,0,0:0:0:0:
320,192,403817,1,0,0:0:0:0:
64,192,404182,1,0,0:0:0:0:
192,192,404274,1,0,0:0:0:0:
320,192,404365,1,0,0:0:0:0:
448,192,404457,1,0,0:0:0:0:
192,192,404548,1,0,0:0:0:0:
64,192,404640,1,0,0:0:0:0:
320,192,404731,1,0,0:0:0:0:
448,192,404823,1,0,0:0:0:0:
64,192,404914,1,0,0:0:0:0:
192,192,405006,1,0,0:0:0:0:
448,192,405097,1,0,0:0:0:0:
320,192,405189,1,0,0:0:0:0:
448,192,405280,128,0,405646:0:0:0:0:
64,192,405280,1,0,0:0:0:0:
192,192,405371,1,0,0:0:0:0:
320,192,405463,1,0,0:0:0:0:
64,192,405463,1,0,0:0:0:0:
192,192,405554,1,0,0:0:0:0:
320,192,405646,1,0,0:0:0:0:
64,192,405646,128,0,406012:0:0:0:0:
192,192,405829,1,0,0:0:0:0:
320,192,406012,1,0,0:0:0:0:
192,192,406378,1,0,0:0:0:0:
448,192,406378,1,0,0:0:0:0:
64,192,406378,1,0,0:0:0:0:
320,192,406378,1,0,0:0:0:0:
320,192,406743,1,0,0:0:0:0:
448,192,406743,1,0,0:0:0:0:
320,192,406926,1,0,0:0:0:0:
192,192,406926,1,0,0:0:0:0:
192,192,407109,1,0,0:0:0:0:
64,192,407109,1,0,0:0:0:0:
64,192,407292,1,0,0:0:0:0:
192,192,407292,1,0,0:0:0:0:
64,192,407475,1,0,0:0:0:0:
192,192,407475,1,0,0:0:0:0:
320,192,407841,1,0,0:0:0:0:
448,192,407841,1,0,0:0:0:0:
64,192,408024,1,0,0:0:0:0:
192,192,408024,1,0,0:0:0:0:
320,192,408207,1,0,0:0:0:0:
448,192,408207,1,0,0:0:0:0:
64,192,408390,1,0,0:0:0:0:
320,192,408390,1,0,0:0:0:0:
192,192,408573,1,0,0:0:0:0:
448,192,408573,1,0,0:0:0:0:
320,192,408756,1,0,0:0:0:0:
64,192,408939,1,0,0:0:0:0:
192,192,408939,1,0,0:0:0:0:
64,192,409304,1,0,0:0:0:0:
192,192,409304,1,0,0:0:0:0:
64,192,409670,1,0,0:0:0:0:
192,192,409670,1,0,0:0:0:0:
192,192,409853,1,0,0:0:0:0:
448,192,409853,1,0,0:0:0:0:
320,192,410036,1,0,0:0:0:0:
64,192,410036,1,0,0:0:0:0:
192,192,410219,1,0,0:0:0:0:
320,192,410402,1,0,0:0:0:0:
448,192,410402,1,0,0:0:0:0:
64,192,410768,1,0,0:0:0:0:
192,192,410859,1,0,0:0:0:0:
64,192,410951,1,0,0:0:0:0:
192,192,411042,1,0,0:0:0:0:
448,192,411134,1,0,0:0:0:0:
320,192,411225,1,0,0:0:0:0:
64,192,411317,1,0,0:0:0:0:
192,192,411408,1,0,0:0:0:0:
448,192,411499,1,0,0:0:0:0:
320,192,411499,1,0,0:0:0:0:
320,192,411682,1,0,0:0:0:0:
448,192,411682,1,0,0:0:0:0:
320,192,411865,1,0,0:0:0:0:
448,192,411865,1,0,0:0:0:0:
192,192,412231,1,0,0:0:0:0:
64,192,412231,1,0,0:0:0:0:
320,192,412231,1,0,0:0:0:0:
448,192,412231,1,0,0:0:0:0:
320,192,412597,1,0,0:0:0:0:
448,192,412597,1,0,0:0:0:0:
320,192,412780,1,0,0:0:0:0:
192,192,412780,1,0,0:0:0:0:
64,192,412963,1,0,0:0:0:0:
192,192,412963,1,0,0:0:0:0:
448,192,413146,1,0,0:0:0:0:
320,192,413146,1,0,0:0:0:0:
192,192,413329,1,0,0:0:0:0:
320,192,413329,1,0,0:0:0:0:
64,192,413695,1,0,0:0:0:0:
448,192,413695,1,0,0:0:0:0:
320,192,413695,1,0,0:0:0:0:
192,192,413695,1,0,0:0:0:0:
192,192,413878,1,0,0:0:0:0:
320,192,413878,1,0,0:0:0:0:
64,192,414060,1,0,0:0:0:0:
448,192,414060,1,0,0:0:0:0:
192,192,414243,1,0,0:0:0:0:
320,192,414243,1,0,0:0:0:0:
64,192,414426,1,0,0:0:0:0:
448,192,414426,1,0,0:0:0:0:
320,192,414609,1,0,0:0:0:0:
64,192,414792,1,0,0:0:0:0:
448,192,414792,1,0,0:0:0:0:
64,192,415158,1,0,0:0:0:0:
192,192,415158,1,0,0:0:0:0:
320,192,415524,1,0,0:0:0:0:
192,192,415524,1,0,0:0:0:0:
320,192,415890,1,0,0:0:0:0:
448,192,415890,1,0,0:0:0:0:
64,192,415981,1,0,0:0:0:0:
192,192,416073,1,0,0:0:0:0:
320,192,416164,1,0,0:0:0:0:
64,192,416256,1,0,0:0:0:0:
448,192,416347,1,0,0:0:0:0:
192,192,416439,1,0,0:0:0:0:
320,192,416530,1,0,0:0:0:0:
64,192,416621,1,0,0:0:0:0:
192,192,416713,1,0,0:0:0:0:
448,192,416804,1,0,0:0:0:0:
320,192,416896,1,0,0:0:0:0:
64,192,416987,1,0,0:0:0:0:
192,192,417079,1,0,0:0:0:0:
448,192,417170,1,0,0:0:0:0:
320,192,417262,1,0,0:0:0:0:
64,192,417353,1,0,0:0:0:0:
192,192,417353,1,0,0:0:0:0:
448,192,417353,1,0,0:0:0:0:
320,192,417536,1,0,0:0:0:0:
448,192,417536,1,0,0:0:0:0:
192,192,417719,1,0,0:0:0:0:
320,192,417719,1,0,0:0:0:0:
64,192,418085,1,0,0:0:0:0:
192,192,418085,1,0,0:0:0:0:
448,192,418085,1,0,0:0:0:0:
320,192,418085,1,0,0:0:0:0:
192,192,418268,1,0,0:0:0:0:
320,192,418268,1,0,0:0:0:0:
192,192,418451,1,0,0:0:0:0:
320,192,418451,1,0,0:0:0:0:
64,192,418634,1,0,0:0:0:0:
448,192,418634,1,0,0:0:0:0:
192,192,418817,1,0,0:0:0:0:
320,192,418817,1,0,0:0:0:0:
192,192,418999,1,0,0:0:0:0:
320,192,418999,1,0,0:0:0:0:
448,192,419182,1,0,0:0:0:0:
64,192,419182,1,0,0:0:0:0:
64,192,419548,1,0,0:0:0:0:
192,192,419548,1,0,0:0:0:0:
320,192,419548,1,0,0:0:0:0:
448,192,419548,1,0,0:0:0:0:
64,192,419731,1,0,0:0:0:0:
320,192,419731,1,0,0:0:0:0:
192,192,419914,1,0,0:0:0:0:
448,192,419914,1,0,0:0:0:0:
64,192,420097,1,0,0:0:0:0:
320,192,420097,1,0,0:0:0:0:
192,192,420280,1,0,0:0:0:0:
448,192,420280,1,0,0:0:0:0:
320,192,420463,1,0,0:0:0:0:
448,192,420463,1,0,0:0:0:0:
448,192,420646,1,0,0:0:0:0:
320,192,420646,1,0,0:0:0:0:
64,192,421012,1,0,0:0:0:0:
192,192,421012,1,0,0:0:0:0:
320,192,421012,1,0,0:0:0:0:
320,192,421378,1,0,0:0:0:0:
448,192,421378,1,0,0:0:0:0:
192,192,421560,1,0,0:0:0:0:
320,192,421560,1,0,0:0:0:0:
64,192,421743,1,0,0:0:0:0:
192,192,421743,1,0,0:0:0:0:
192,192,421926,1,0,0:0:0:0:
320,192,421926,1,0,0:0:0:0:
320,192,422109,1,0,0:0:0:0:
448,192,422109,1,0,0:0:0:0:
64,192,422475,1,0,0:0:0:0:
192,192,422475,1,0,0:0:0:0:
320,192,422475,1,0,0:0:0:0:
448,192,422475,1,0,0:0:0:0:
64,192,422841,1,0,0:0:0:0:
192,192,422932,1,0,0:0:0:0:
64,192,423024,1,0,0:0:0:0:
192,192,423115,1,0,0:0:0:0:
320,192,423207,1,0,0:0:0:0:
448,192,423207,1,0,0:0:0:0:
64,192,423207,1,0,0:0:0:0:
320,192,423390,1,0,0:0:0:0:
448,192,423390,1,0,0:0:0:0:
320,192,423573,1,0,0:0:0:0:
448,192,423573,1,0,0:0:0:0:
64,192,423938,1,0,0:0:0:0:
192,192,423938,1,0,0:0:0:0:
448,192,423938,1,0,0:0:0:0:
320,192,423938,1,0,0:0:0:0:
192,192,424304,1,0,0:0:0:0:
320,192,424304,1,0,0:0:0:0:
64,192,424487,1,0,0:0:0:0:
448,192,424487,1,0,0:0:0:0:
192,192,424670,1,0,0:0:0:0:
320,192,424670,1,0,0:0:0:0:
448,192,424853,1,0,0:0:0:0:
320,192,424853,1,0,0:0:0:0:
64,192,425036,1,0,0:0:0:0:
192,192,425036,1,0,0:0:0:0:
320,192,425402,1,0,0:0:0:0:
448,192,425402,1,0,0:0:0:0:
64,192,425585,1,0,0:0:0:0:
192,192,425585,1,0,0:0:0:0:
320,192,425768,1,0,0:0:0:0:
448,192,425768,1,0,0:0:0:0:
192,192,425951,1,0,0:0:0:0:
320,192,425951,1,0,0:0:0:0:
64,192,426134,1,0,0:0:0:0:
192,192,426134,1,0,0:0:0:0:
320,192,426317,1,0,0:0:0:0:
448,192,426317,1,0,0:0:0:0:
192,192,426499,1,0,0:0:0:0:
320,192,426499,1,0,0:0:0:0:
64,192,426865,128,0,427140:0:0:0:0:
448,192,426865,128,0,427140:0:0:0:0:
64,192,427231,128,0,427506:0:0:0:0:
448,192,427231,128,0,427506:0:0:0:0:
320,192,427231,1,0,0:0:0:0:
192,192,427323,1,0,0:0:0:0:
320,192,427414,1,0,0:0:0:0:
192,192,427506,1,0,0:0:0:0:
320,192,427597,128,0,427871:0:0:0:0:
320,192,428146,128,0,428329:0:0:0:0:
192,192,428512,1,0,0:0:0:0:
64,192,428573,1,0,0:0:0:0:
320,192,428634,1,0,0:0:0:0:
192,192,428695,1,0,0:0:0:0:
64,192,428695,1,0,0:0:0:0:
448,192,428695,128,0,429060:0:0:0:0:
64,192,429060,1,0,0:0:0:0:
192,192,429060,1,0,0:0:0:0:
320,192,429060,128,0,429426:0:0:0:0:
448,192,429243,1,0,0:0:0:0:
192,192,429335,1,0,0:0:0:0:
64,192,429426,1,0,0:0:0:0:
448,192,429426,1,0,0:0:0:0:
192,192,429609,1,0,0:0:0:0:
320,192,429701,1,0,0:0:0:0:
448,192,429792,1,0,0:0:0:0:
64,192,429884,1,0,0:0:0:0:
448,192,429975,1,0,0:0:0:0:
192,192,430067,1,0,0:0:0:0:
64,192,430158,1,0,0:0:0:0:
448,192,430158,1,0,0:0:0:0:
320,192,430249,1,0,0:0:0:0:
64,192,430341,1,0,0:0:0:0:
192,192,430432,1,0,0:0:0:0:
320,192,430524,1,0,0:0:0:0:
448,192,430615,1,0,0:0:0:0:
192,192,430615,1,0,0:0:0:0:
320,192,430707,1,0,0:0:0:0:
64,192,430707,1,0,0:0:0:0:
448,192,430798,1,0,0:0:0:0:
192,192,430798,1,0,0:0:0:0:
64,192,430890,1,0,0:0:0:0:
320,192,430890,1,0,0:0:0:0:
192,192,430981,1,0,0:0:0:0:
320,192,431073,1,0,0:0:0:0:
448,192,431164,1,0,0:0:0:0:
320,192,431256,1,0,0:0:0:0:
192,192,431256,1,0,0:0:0:0:
64,192,431438,1,0,0:0:0:0:
192,192,431438,1,0,0:0:0:0:
320,192,431530,1,0,0:0:0:0:
448,192,431621,1,0,0:0:0:0:
192,192,431621,1,0,0:0:0:0:
320,192,431804,1,0,0:0:0:0:
448,192,431896,1,0,0:0:0:0:
320,192,431987,1,0,0:0:0:0:
64,192,431987,1,0,0:0:0:0:
192,192,432170,1,0,0:0:0:0:
448,192,432170,1,0,0:0:0:0:
320,192,432262,1,0,0:0:0:0:
64,192,432353,1,0,0:0:0:0:
448,192,432353,1,0,0:0:0:0:
192,192,432445,1,0,0:0:0:0:
320,192,432536,1,0,0:0:0:0:
448,192,432628,1,0,0:0:0:0:
64,192,432719,1,0,0:0:0:0:
192,192,432719,1,0,0:0:0:0:
448,192,432810,1,0,0:0:0:0:
320,192,432902,1,0,0:0:0:0:
192,192,432993,1,0,0:0:0:0:
64,192,433085,1,0,0:0:0:0:
320,192,433085,1,0,0:0:0:0:
448,192,433085,1,0,0:0:0:0:
192,192,433268,1,0,0:0:0:0:
320,192,433359,1,0,0:0:0:0:
448,192,433451,1,0,0:0:0:0:
192,192,433451,1,0,0:0:0:0:
64,192,433451,1,0,0:0:0:0:
320,192,433634,1,0,0:0:0:0:
192,192,433725,1,0,0:0:0:0:
64,192,433817,1,0,0:0:0:0:
448,192,433817,1,0,0:0:0:0:
320,192,433999,1,0,0:0:0:0:
64,192,434091,1,0,0:0:0:0:
448,192,434182,1,0,0:0:0:0:
192,192,434365,1,0,0:0:0:0:
320,192,434457,1,0,0:0:0:0:
448,192,434548,1,0,0:0:0:0:
64,192,434548,1,0,0:0:0:0:
192,192,434640,1,0,0:0:0:0:
448,192,434731,1,0,0:0:0:0:
320,192,434823,1,0,0:0:0:0:
192,192,434914,1,0,0:0:0:0:
64,192,434914,1,0,0:0:0:0:
448,192,435006,1,0,0:0:0:0:
192,192,435097,1,0,0:0:0:0:
320,192,435188,1,0,0:0:0:0:
64,192,435280,1,0,0:0:0:0:
448,192,435280,1,0,0:0:0:0:
192,192,435371,1,0,0:0:0:0:
448,192,435463,1,0,0:0:0:0:
64,192,435554,1,0,0:0:0:0:
320,192,435646,1,0,0:0:0:0:
192,192,435646,1,0,0:0:0:0:
448,192,435737,1,0,0:0:0:0:
64,192,435829,1,0,0:0:0:0:
192,192,435920,1,0,0:0:0:0:
448,192,436012,1,0,0:0:0:0:
320,192,436012,1,0,0:0:0:0:
64,192,436195,1,0,0:0:0:0:
192,192,436286,1,0,0:0:0:0:
448,192,436378,1,0,0:0:0:0:
320,192,436378,1,0,0:0:0:0:
64,192,436378,1,0,0:0:0:0:
192,192,436560,1,0,0:0:0:0:
64,192,436652,1,0,0:0:0:0:
448,192,436743,1,0,0:0:0:0:
320,192,436743,1,0,0:0:0:0:
192,192,436743,1,0,0:0:0:0:
64,192,436926,1,0,0:0:0:0:
448,192,437018,1,0,0:0:0:0:
192,192,437109,1,0,0:0:0:0:
320,192,437109,1,0,0:0:0:0:
448,192,437292,1,0,0:0:0:0:
64,192,437384,1,0,0:0:0:0:
192,192,437475,1,0,0:0:0:0:
320,192,437475,1,0,0:0:0:0:
448,192,437475,1,0,0:0:0:0:
320,192,437658,1,0,0:0:0:0:
192,192,437749,1,0,0:0:0:0:
64,192,437841,1,0,0:0:0:0:
448,192,437841,1,0,0:0:0:0:
320,192,437841,1,0,0:0:0:0:
192,192,438024,1,0,0:0:0:0:
320,192,438115,1,0,0:0:0:0:
64,192,438207,1,0,0:0:0:0:
192,192,438207,1,0,0:0:0:0:
448,192,438298,1,0,0:0:0:0:
320,192,438390,1,0,0:0:0:0:
64,192,438481,1,0,0:0:0:0:
192,192,438573,1,0,0:0:0:0:
448,192,438573,1,0,0:0:0:0:
320,192,438664,1,0,0:0:0:0:
64,192,438756,1,0,0:0:0:0:
448,192,438756,1,0,0:0:0:0:
192,192,438847,1,0,0:0:0:0:
448,192,438938,1,0,0:0:0:0:
320,192,438938,1,0,0:0:0:0:
64,192,439121,1,0,0:0:0:0:
192,192,439213,1,0,0:0:0:0:
448,192,439304,1,0,0:0:0:0:
64,192,439304,1,0,0:0:0:0:
320,192,439304,1,0,0:0:0:0:
192,192,439487,1,0,0:0:0:0:
320,192,439579,1,0,0:0:0:0:
448,192,439670,1,0,0:0:0:0:
64,192,439670,1,0,0:0:0:0:
192,192,439670,1,0,0:0:0:0:
320,192,439853,1,0,0:0:0:0:
192,192,439945,1,0,0:0:0:0:
64,192,440036,1,0,0:0:0:0:
448,192,440128,1,0,0:0:0:0:
192,192,440219,1,0,0:0:0:0:
320,192,440310,1,0,0:0:0:0:
64,192,440402,1,0,0:0:0:0:
448,192,440402,1,0,0:0:0:0:
192,192,440402,1,0,0:0:0:0:
320,192,440585,1,0,0:0:0:0:
64,192,440676,1,0,0:0:0:0:
192,192,440768,1,0,0:0:0:0:
448,192,440768,1,0,0:0:0:0:
320,192,440768,1,0,0:0:0:0:
64,192,440951,1,0,0:0:0:0:
448,192,441042,1,0,0:0:0:0:
320,192,441134,1,0,0:0:0:0:
192,192,441134,1,0,0:0:0:0:
64,192,441134,1,0,0:0:0:0:
192,192,441225,1,0,0:0:0:0:
320,192,441225,1,0,0:0:0:0:
64,192,441317,1,0,0:0:0:0:
448,192,441317,1,0,0:0:0:0:
192,192,441408,1,0,0:0:0:0:
320,192,441408,1,0,0:0:0:0:
64,192,441499,1,0,0:0:0:0:
320,192,441499,1,0,0:0:0:0:
448,192,441499,1,0,0:0:0:0:
192,192,441591,1,0,0:0:0:0:
320,192,441682,1,0,0:0:0:0:
448,192,441774,1,0,0:0:0:0:
64,192,441865,1,0,0:0:0:0:
192,192,441865,1,0,0:0:0:0:
320,192,441957,1,0,0:0:0:0:
64,192,442048,1,0,0:0:0:0:
192,192,442140,1,0,0:0:0:0:
448,192,442231,1,0,0:0:0:0:
320,192,442231,1,0,0:0:0:0:
64,192,442323,1,0,0:0:0:0:
320,192,442414,1,0,0:0:0:0:
192,192,442506,1,0,0:0:0:0:
448,192,442597,1,0,0:0:0:0:
64,192,442597,1,0,0:0:0:0:
320,192,442688,1,0,0:0:0:0:
64,192,442780,1,0,0:0:0:0:
448,192,442871,1,0,0:0:0:0:
192,192,442963,1,0,0:0:0:0:
320,192,442963,1,0,0:0:0:0:
192,192,443146,1,0,0:0:0:0:
64,192,443237,1,0,0:0:0:0:
448,192,443237,1,0,0:0:0:0:
448,192,443329,1,0,0:0:0:0:
192,192,443329,1,0,0:0:0:0:
320,192,443329,1,0,0:0:0:0:
192,192,443512,1,0,0:0:0:0:
320,192,443512,1,0,0:0:0:0:
448,192,443603,1,0,0:0:0:0:
64,192,443695,1,0,0:0:0:0:
192,192,443695,1,0,0:0:0:0:
320,192,443695,1,0,0:0:0:0:
448,192,443786,1,0,0:0:0:0:
320,192,443878,1,0,0:0:0:0:
192,192,443969,1,0,0:0:0:0:
64,192,444060,1,0,0:0:0:0:
320,192,444060,1,0,0:0:0:0:
448,192,444060,1,0,0:0:0:0:
192,192,444152,1,0,0:0:0:0:
320,192,444243,1,0,0:0:0:0:
448,192,444335,1,0,0:0:0:0:
64,192,444426,1,0,0:0:0:0:
192,192,444426,1,0,0:0:0:0:
320,192,444426,1,0,0:0:0:0:
448,192,444518,1,0,0:0:0:0:
320,192,444609,1,0,0:0:0:0:
192,192,444701,1,0,0:0:0:0:
320,192,444792,1,0,0:0:0:0:
448,192,444792,1,0,0:0:0:0:
64,192,444792,1,0,0:0:0:0:
192,192,444884,1,0,0:0:0:0:
320,192,444975,1,0,0:0:0:0:
64,192,444975,1,0,0:0:0:0:
192,192,445067,1,0,0:0:0:0:
448,192,445158,1,0,0:0:0:0:
64,192,445158,1,0,0:0:0:0:
320,192,445158,1,0,0:0:0:0:
320,192,445341,1,0,0:0:0:0:
64,192,445432,1,0,0:0:0:0:
192,192,445524,1,0,0:0:0:0:
448,192,445524,1,0,0:0:0:0:
320,192,445524,1,0,0:0:0:0:
64,192,445707,1,0,0:0:0:0:
192,192,445707,1,0,0:0:0:0:
320,192,445798,1,0,0:0:0:0:
192,192,445890,1,0,0:0:0:0:
448,192,445981,1,0,0:0:0:0:
64,192,446073,1,0,0:0:0:0:
320,192,446073,1,0,0:0:0:0:
192,192,446164,1,0,0:0:0:0:
320,192,446256,1,0,0:0:0:0:
448,192,446256,1,0,0:0:0:0:
64,192,446256,1,0,0:0:0:0:
320,192,446438,1,0,0:0:0:0:
448,192,446530,1,0,0:0:0:0:
192,192,446621,1,0,0:0:0:0:
64,192,446621,1,0,0:0:0:0:
320,192,446621,1,0,0:0:0:0:
448,192,446804,1,0,0:0:0:0:
192,192,446896,1,0,0:0:0:0:
320,192,446987,1,0,0:0:0:0:
448,192,446987,1,0,0:0:0:0:
64,192,446987,1,0,0:0:0:0:
192,192,447079,1,0,0:0:0:0:
320,192,447170,1,0,0:0:0:0:
448,192,447262,1,0,0:0:0:0:
64,192,447353,1,0,0:0:0:0:
192,192,447353,1,0,0:0:0:0:
320,192,447353,1,0,0:0:0:0:
448,192,447445,1,0,0:0:0:0:
192,192,447536,1,0,0:0:0:0:
448,192,447628,1,0,0:0:0:0:
64,192,447719,1,0,0:0:0:0:
192,192,447719,1,0,0:0:0:0:
320,192,447719,1,0,0:0:0:0:
320,192,447902,1,0,0:0:0:0:
448,192,447902,1,0,0:0:0:0:
64,192,447993,1,0,0:0:0:0:
192,192,448085,1,0,0:0:0:0:
320,192,448085,1,0,0:0:0:0:
448,192,448085,1,0,0:0:0:0:
64,192,448268,1,0,0:0:0:0:
192,192,448359,1,0,0:0:0:0:
448,192,448451,1,0,0:0:0:0:
320,192,448451,1,0,0:0:0:0:
64,192,448451,1,0,0:0:0:0:
192,192,448634,1,0,0:0:0:0:
448,192,448725,1,0,0:0:0:0:
64,192,448817,1,0,0:0:0:0:
320,192,448817,1,0,0:0:0:0:
192,192,448999,1,0,0:0:0:0:
320,192,449091,1,0,0:0:0:0:
64,192,449182,1,0,0:0:0:0:
448,192,449182,1,0,0:0:0:0:
192,192,449182,1,0,0:0:0:0:
320,192,449365,1,0,0:0:0:0:
192,192,449457,1,0,0:0:0:0:
448,192,449548,1,0,0:0:0:0:
64,192,449548,1,0,0:0:0:0:
320,192,449548,1,0,0:0:0:0:
192,192,449731,1,0,0:0:0:0:
448,192,449823,1,0,0:0:0:0:
64,192,449823,1,0,0:0:0:0:
192,192,449914,1,0,0:0:0:0:
320,192,449914,1,0,0:0:0:0:
448,192,450097,1,0,0:0:0:0:
64,192,450188,1,0,0:0:0:0:
192,192,450280,1,0,0:0:0:0:
320,192,450280,1,0,0:0:0:0:
64,192,450463,1,0,0:0:0:0:
448,192,450463,1,0,0:0:0:0:
320,192,450646,1,0,0:0:0:0:
192,192,450646,1,0,0:0:0:0:
448,192,450646,1,0,0:0:0:0:
64,192,450829,1,0,0:0:0:0:
192,192,450920,1,0,0:0:0:0:
64,192,451012,1,0,0:0:0:0:
320,192,451012,1,0,0:0:0:0:
448,192,451012,1,0,0:0:0:0:
64,192,451195,1,0,0:0:0:0:
192,192,451195,1,0,0:0:0:0:
320,192,451286,1,0,0:0:0:0:
64,192,451378,1,0,0:0:0:0:
192,192,451378,1,0,0:0:0:0:
448,192,451378,1,0,0:0:0:0:
320,192,451469,1,0,0:0:0:0:
448,192,451560,1,0,0:0:0:0:
320,192,451652,1,0,0:0:0:0:
448,192,451743,1,0,0:0:0:0:
192,192,451743,1,0,0:0:0:0:
64,192,451743,1,0,0:0:0:0:
320,192,451835,1,0,0:0:0:0:
192,192,451926,1,0,0:0:0:0:
64,192,452018,1,0,0:0:0:0:
192,192,452109,1,0,0:0:0:0:
448,192,452109,128,0,452475:0:0:0:0:
64,192,452475,128,0,453573:0:0:0:0:
192,192,452475,128,0,453207:0:0:0:0:
320,192,452475,128,0,452841:0:0:0:0:
192,192,453756,5,0,0:0:0:0:
64,192,453756,1,0,0:0:0:0:
320,192,453847,1,0,0:0:0:0:
192,192,453847,1,0,0:0:0:0:
320,192,453938,128,0,454304:0:0:0:0:
448,192,453938,128,0,464182:0:0:0:0:
