osu file format v14

[General]
AudioFilename: audio.mp3
AudioLeadIn: 0
PreviewTime: -1
Countdown: 0
SampleSet: None
StackLeniency: 0.4
Mode: 0
LetterboxInBreaks: 0
WidescreenStoryboard: 1

[Editor]
DistanceSpacing: 2.7
BeatDivisor: 4
GridSize: 8
TimelineZoom: 1.8

[Metadata]
Title:gigi za shagi
TitleUnicode:гиги за шаги
Artist:Aleksandr Revva
ArtistUnicode:Александр Ревва
Creator:EijiKuinbii
Version:Remus' megabayti
Source:
Tags:
BeatmapID:1774608
BeatmapSetID:848620

[Difficulty]
HPDrainRate:6
CircleSize:5
OverallDifficulty:8.3
ApproachRate:8.5
SliderMultiplier:1.9
SliderTickRate:1

[Events]
//Background and Video events
0,0,"reva.mp3.png",0,0
//Break Periods
//Storyboard Layer 0 (Background)
//Storyboard Layer 1 (Fail)
//Storyboard Layer 2 (Pass)
//Storyboard Layer 3 (Foreground)
//Storyboard Sound Samples

[TimingPoints]
-63,461.538461538462,4,2,0,70,1,0
167,-133.333333333333,4,2,0,70,0,0
7321,-100,4,2,0,70,0,0
8244,-125,4,2,0,70,0,0
8937,-100,4,2,0,70,0,0
11937,-125,4,2,0,70,0,0
12860,-100,4,2,0,70,0,0
15629,-125,4,2,0,70,0,0
16090,-111.111111111111,4,2,0,70,0,0
16552,-100,4,2,0,70,0,0
19321,-125,4,2,0,70,0,0
20244,-100,4,2,0,70,0,0
22090,-100,4,2,0,70,0,1
23013,-125,4,2,0,70,0,1
23475,-100,4,2,0,70,0,1
25783,-83.3333333333333,4,2,0,70,0,0
26244,-100,4,2,0,70,0,1
26706,-100,4,2,0,70,0,0
29475,-125,4,2,0,70,0,0
29937,-111.111111111111,4,2,0,70,0,0
30398,-100,4,2,0,70,0,0
32244,-125,4,2,0,70,0,0
32706,-166.666666666667,4,2,0,70,0,0

[Colours]
Combo1 : 213,213,0
Combo2 : 106,255,255
Combo3 : 18,124,255

[HitObjects]
108,298,167,6,0,L|209:303,1,71.2500027179719,2|0,0:0|0:0,0:0:0:0:
273,344,629,1,2,0:0:0:0:
348,277,860,2,0,P|359:201|350:130,1,142.500005435944,2|2,0:0|0:0,0:0:0:0:
343,115,1437,1,2,0:0:0:0:
333,95,1552,1,2,0:0:0:0:
49,175,1783,6,0,P|125:186|196:177,1,142.500005435944,0|2,0:0|0:0,0:0:0:0:
248,74,2476,1,2,0:0:0:0:
338,250,2706,2,0,L|343:178,1,71.2500027179719,2|2,0:0|0:0,0:0:0:0:
123,158,3167,2,0,L|128:229,1,71.2500027179719,2|2,0:0|0:0,0:0:0:0:
247,308,3629,6,0,L|236:164,1,142.500005435944,2|0,0:0|0:0,0:0:0:0:
366,32,4321,2,0,L|357:182,1,142.500005435944,0|0,0:0|0:0,0:0:0:0:
182,243,5013,5,2,0:0:0:0:
163,212,5128,1,2,0:0:0:0:
151,179,5243,1,2,0:0:0:0:
293,269,5475,5,2,0:0:0:0:
271,306,5590,1,2,0:0:0:0:
245,338,5705,1,2,0:0:0:0:
257,166,5937,5,2,0:0:0:0:
308,166,6052,1,2,0:0:0:0:
357,174,6167,1,2,0:0:0:0:
151,241,6398,5,10,0:0:0:0:
151,179,6513,1,10,0:0:0:0:
152,117,6628,1,10,0:0:0:0:
420,55,6860,5,10,0:0:0:0:
413,116,6975,1,10,0:0:0:0:
406,178,7090,1,10,0:0:0:0:
399,240,7206,1,10,0:0:0:0:
382,304,7321,2,0,P|333:312|263:293,1,95,10|0,0:0|0:0,0:0:0:0:
166,225,7667,1,0,0:0:0:0:
166,225,7783,2,0,L|155:344,1,95,10|0,0:0|0:0,0:0:0:0:
29,270,8244,2,0,P|21:226|26:180,1,76,8|0,0:0|0:0,0:0:0:0:
153,28,8706,1,8,0:0:0:0:
280,202,8937,1,2,0:0:0:0:
85,108,9167,6,0,L|194:116,1,95,10|0,0:0|0:0,0:0:0:0:
389,221,9513,1,0,0:0:0:0:
389,221,9629,2,0,L|280:229,1,95,8|2,0:0|0:0,0:0:0:0:
140,312,10090,1,10,0:0:0:0:
334,334,10321,1,2,0:0:0:0:
263,75,10552,1,10,0:0:0:0:
205,244,10783,1,2,0:0:0:0:
400,142,11013,6,0,P|410:90|405:44,1,95,10|0,0:0|0:0,0:0:0:0:
211,150,11360,1,0,0:0:0:0:
211,150,11475,2,0,P|201:202|206:248,1,95,10|0,0:0|0:0,0:0:0:0:
303,54,11937,2,0,L|212:52,1,76,8|0,0:0|0:0,0:0:0:0:
312,203,12398,1,8,0:0:0:0:
377,212,12513,1,2,0:0:0:0:
443,221,12628,1,2,0:0:0:0:
189,136,12860,6,0,P|141:132|89:139,1,95,10|0,0:0|0:0,0:0:0:0:
268,286,13206,1,0,0:0:0:0:
268,286,13321,2,0,P|295:246|315:197,1,95,8|2,0:0|0:0,0:0:0:0:
149,243,13783,1,10,0:0:0:0:
363,356,14013,1,2,0:0:0:0:
277,110,14244,1,10,0:0:0:0:
206,358,14475,1,2,0:0:0:0:
413,228,14706,6,0,L|429:122,1,95,10|0,0:0|0:0,0:0:0:0:
460,328,15052,1,0,0:0:0:0:
460,328,15167,2,0,P|412:334|348:319,1,95,10|0,0:0|0:0,0:0:0:0:
209,226,15629,2,0,L|303:237,1,76,8|0,0:0|0:0,0:0:0:0:
115,286,16090,1,8,0:0:0:0:
106,211,16205,1,0,0:0:0:0:
97,137,16320,1,2,0:0:0:0:
250,36,16552,6,0,P|299:34|352:46,1,95,10|0,0:0|0:0,0:0:0:0:
469,178,16898,1,0,0:0:0:0:
469,178,17013,2,0,L|371:192,1,95,8|2,0:0|0:0,0:0:0:0:
188,242,17475,1,10,0:0:0:0:
393,107,17706,1,2,0:0:0:0:
393,343,17937,1,0,0:0:0:0:
256,126,18167,1,2,0:0:0:0:
175,270,18398,6,0,P|126:277|59:271,1,95,10|0,0:0|0:0,0:0:0:0:
304,216,18744,1,0,0:0:0:0:
304,216,18860,2,0,P|311:265|305:332,1,95,10|0,0:0|0:0,0:0:0:0:
125,145,19321,2,0,L|121:46,1,76,8|0,0:0|0:0,0:0:0:0:
354,146,19783,1,8,0:0:0:0:
360,212,19898,1,2,0:0:0:0:
366,278,20013,1,2,0:0:0:0:
293,58,20244,6,0,P|342:47|397:53,1,95,10|0,0:0|0:0,0:0:0:0:
484,182,20590,1,0,0:0:0:0:
484,182,20706,2,0,P|435:193|380:187,1,95,8|2,0:0|0:0,0:0:0:0:
218,114,21167,1,10,0:0:0:0:
314,295,21398,1,2,0:0:0:0:
344,77,21629,1,10,0:0:0:0:
190,303,21860,1,2,0:0:0:0:
333,166,22090,6,0,L|434:163,1,95,10|0,0:0|0:0,0:0:0:0:
302,323,22437,1,0,0:0:0:0:
272,331,22552,2,0,L|171:328,1,95,8|2,1:0|0:0,0:0:0:0:
95,122,23013,1,8,0:0:0:0:
222,239,23244,1,0,0:0:0:0:
9,186,23475,2,0,P|-1:130|1:87,1,95,8|2,1:0|0:0,0:0:0:0:
230,162,23937,6,0,P|240:218|238:261,1,95,10|0,0:0|0:0,0:0:0:0:
146,87,24283,1,0,0:0:0:0:
166,59,24398,2,0,P|222:49|265:51,1,95,8|2,1:0|0:0,0:0:0:0:
418,135,24860,1,10,0:0:0:0:
211,211,25090,1,2,0:0:0:0:
493,216,25321,1,8,1:0:0:0:
286,140,25551,1,2,0:0:0:0:
450,328,25783,6,0,L|332:336,1,113.999996520996,10|0,0:0|0:0,0:0:0:0:
70,256,26244,2,0,L|133:262,1,47.5,8|2,0:0|0:0,0:0:0:0:
220,300,26475,1,2,0:0:0:0:
96,153,26706,6,0,P|86:99|92:57,1,95,10|0,0:0|0:0,0:0:0:0:
299,96,27052,1,0,0:0:0:0:
299,96,27167,2,0,L|183:105,1,95,8|2,0:0|0:0,0:0:0:0:
410,39,27629,1,10,0:0:0:0:
364,271,27860,1,2,0:0:0:0:
189,81,28090,1,10,0:0:0:0:
235,313,28321,1,2,0:0:0:0:
457,226,28552,6,0,P|465:276|458:330,1,95,10|0,0:0|0:0,0:0:0:0:
373,153,28898,1,0,0:0:0:0:
397,133,29013,2,0,L|503:122,1,95,10|0,0:0|0:0,0:0:0:0:
315,301,29475,2,0,L|211:290,1,76,8|0,0:0|0:0,0:0:0:0:
201,119,29937,1,8,0:0:0:0:
275,124,30052,1,0,0:0:0:0:
350,130,30167,1,2,0:0:0:0:
116,259,30398,6,0,L|16:271,1,95,10|0,0:0|0:0,0:0:0:0:
177,54,30744,1,0,0:0:0:0:
177,54,30860,2,0,P|180:101|170:153,1,95,8|2,0:0|0:0,0:0:0:0:
58,101,31321,1,10,0:0:0:0:
326,73,31552,1,2,0:0:0:0:
179,206,31783,1,0,0:0:0:0:
409,224,32013,1,0,0:0:0:0:
283,320,32244,6,0,L|378:315,1,76,10|0,0:0|0:0,0:0:0:0:
466,133,32590,1,0,0:0:0:0:
466,133,32706,2,0,L|392:139,1,56.9999982604981,2|0,0:0|0:0,0:0:0:0:
305,201,33167,1,0,0:0:0:0:
