osu file format v14

[General]
AudioFilename: audio.mp3
AudioLeadIn: 0
PreviewTime: -1
Countdown: 0
SampleSet: Soft
StackLeniency: 0.7
Mode: 0
LetterboxInBreaks: 0
WidescreenStoryboard: 0

[Editor]
DistanceSpacing: 2.7
BeatDivisor: 4
GridSize: 8
TimelineZoom: 1

[Metadata]
Title:gigi za shagi
TitleUnicode:гиги за шаги
Artist:Aleksandr Revva
ArtistUnicode:Александр Ревва
Creator:EijiKuinbii
Version:Masha's gigigi
Source:
Tags:mashasg remus anishina kodoku soldatracer
BeatmapID:1774607
BeatmapSetID:848620

[Difficulty]
HPDrainRate:5
CircleSize:4
OverallDifficulty:8
ApproachRate:9
SliderMultiplier:1.9
SliderTickRate:1

[Events]
//Background and Video events
0,0,"reva.mp3.png",0,0
//Break Periods
//Storyboard Layer 0 (Background)
//Storyboard Layer 1 (Fail)
//Storyboard Layer 2 (Pass)
//Storyboard Layer 3 (Foreground)
//Storyboard Sound Samples

[TimingPoints]
-63,461.538461538462,4,2,0,70,1,0
167,-133.333333333333,4,2,0,70,0,0
7321,-100,4,2,0,70,0,0
8244,-125,4,2,0,70,0,0
8937,-100,4,2,0,70,0,0
11937,-125,4,2,0,70,0,0
12860,-100,4,2,0,70,0,0
15629,-125,4,2,0,70,0,0
16090,-111.111111111111,4,2,0,70,0,0
16552,-100,4,2,0,70,0,0
19321,-125,4,2,0,70,0,0
20244,-100,4,2,0,70,0,0
23013,-125,4,2,0,70,0,0
23475,-100,4,2,0,70,0,0
25783,-83.3333333333333,4,2,0,70,0,0
26244,-100,4,2,0,70,0,0
29475,-125,4,2,0,70,0,0
29937,-111.111111111111,4,2,0,70,0,0
30398,-100,4,2,0,70,0,0
32244,-125,4,2,0,70,0,0
32706,-166.666666666667,4,2,0,70,0,0

[Colours]
Combo1 : 213,213,0
Combo2 : 106,255,255
Combo3 : 18,124,255

[HitObjects]
406,314,167,6,0,L|390:400,1,71.2500027179719,2|0,0:0|0:0,0:0:0:0:
337,221,629,1,2,0:0:0:0:
486,174,860,2,0,L|501:260,1,71.2500027179719,2|0,0:0|0:0,0:0:0:0:
335,62,1321,1,2,0:0:0:0:
352,65,1436,1,2,0:0:0:0:
370,68,1551,1,2,0:0:0:0:
256,142,1783,5,0,0:0:0:0:
155,0,2013,2,0,L|171:86,1,71.2500027179719,2|2,0:0|0:0,0:0:0:0:
110,220,2475,1,2,0:0:0:0:
36,62,2706,1,2,0:0:0:0:
36,62,2937,1,2,0:0:0:0:
256,142,3167,1,2,0:0:0:0:
256,142,3398,1,2,0:0:0:0:
41,300,3629,6,0,B|12:233|12:233|25:152,1,142.500005435944,2|0,0:0|0:0,0:0:0:0:
204,262,4321,1,0,0:0:0:0:
70,372,4552,2,0,L|-16:387,1,71.2500027179719
161,255,5013,5,2,0:0:0:0:
182,259,5128,1,2,0:0:0:0:
204,262,5243,1,2,0:0:0:0:
71,152,5475,1,2,0:0:0:0:
47,156,5590,1,2,0:0:0:0:
22,160,5705,1,2,0:0:0:0:
185,33,5937,1,2,0:0:0:0:
213,38,6052,1,2,0:0:0:0:
241,43,6167,1,2,0:0:0:0:
416,187,6398,5,10,0:0:0:0:
451,181,6513,1,10,0:0:0:0:
486,174,6628,1,10,0:0:0:0:
241,43,6860,5,10,0:0:0:0:
232,92,6975,1,10,0:0:0:0:
223,141,7090,1,10,0:0:0:0:
215,190,7206,1,10,0:0:0:0:
206,239,7321,6,0,L|189:145,1,95,10|0,0:0|0:0,0:0:0:0:
344,330,7783,2,0,L|360:236,1,95,10|0,0:0|0:0,0:0:0:0:
134,350,8244,2,0,P|179:369|216:370,1,76,8|0,0:0|0:0,0:0:0:0:
94,210,8706,1,8,0:0:0:0:
56,214,8821,1,2,0:0:0:0:
22,230,8936,1,2,0:0:0:0:
241,43,9167,6,0,L|224:136,1,95,10|0,0:0|0:0,0:0:0:0:
344,330,9629,1,8,0:0:0:0:
436,124,9860,5,2,0:0:0:0:
175,265,10090,1,10,0:0:0:0:
436,124,10321,5,2,0:0:0:0:
175,265,10551,1,10,0:0:0:0:
241,43,10783,1,2,0:0:0:0:
360,236,11013,6,0,L|344:330,1,95,10|0,0:0|0:0,0:0:0:0:
158,171,11475,2,0,L|174:264,1,95,10|0,0:0|0:0,0:0:0:0:
312,63,11937,2,0,P|274:58|240:42,1,76,8|0,0:0|0:0,0:0:0:0:
87,192,12398,1,8,0:0:0:0:
121,175,12513,1,2,0:0:0:0:
158,171,12628,1,2,0:0:0:0:
0,0,12860,6,0,L|16:93,1,95,10|0,0:0|0:0,0:0:0:0:
150,277,13321,1,8,0:0:0:0:
240,42,13552,5,2,0:0:0:0:
344,330,13783,1,10,0:0:0:0:
240,42,14013,5,2,0:0:0:0:
344,330,14244,1,10,0:0:0:0:
436,124,14475,1,2,0:0:0:0:
158,171,14706,6,0,L|64:187,1,95,10|0,0:0|0:0,0:0:0:0:
250,313,15167,2,0,L|343:329,1,95,10|0,0:0|0:0,0:0:0:0:
436,124,15629,2,0,P|419:158|415:195,1,76,8|0,0:0|0:0,0:0:0:0:
240,42,16090,2,0,P|256:76|260:128,1,85.4999973907472,8|2,0:0|0:0,0:0:0:0:
512,16,16552,6,0,L|409:-2,1,95,10|0,0:0|0:0,0:0:0:0:
316,203,17013,1,8,0:0:0:0:
66,62,17244,5,2,0:0:0:0:
134,350,17474,1,10,0:0:0:0:
66,62,17705,5,2,0:0:0:0:
134,350,17935,1,10,0:0:0:0:
0,170,18167,1,2,0:0:0:0:
240,42,18398,6,0,L|220:152,1,95,10|0,0:0|0:0,0:0:0:0:
134,350,18860,2,0,L|117:256,1,95,10|0,0:0|0:0,0:0:0:0:
343,329,19321,2,0,P|308:345|271:349,1,76,8|0,0:0|0:0,0:0:0:0:
415,195,19783,1,8,0:0:0:0:
452,199,19898,1,2,0:0:0:0:
486,215,20013,1,2,0:0:0:0:
223,135,20244,6,0,L|206:40,1,95,10|0,0:0|0:0,0:0:0:0:
0,170,20706,1,8,0:0:0:0:
271,349,20937,5,2,0:0:0:0:
339,61,21167,1,10,0:0:0:0:
271,349,21398,5,2,0:0:0:0:
339,61,21628,1,10,0:0:0:0:
433,290,21860,1,2,0:0:0:0:
202,160,22090,2,0,L|185:65,1,95,10|0,0:0|0:0,0:0:0:0:
0,335,22552,5,8,1:0:0:0:
222,276,22783,1,2,0:0:0:0:
71,149,23013,2,0,P|33:153|0:169,1,76,8|0,0:0|0:0,0:0:0:0:
207,366,23475,5,8,1:0:0:0:
214,321,23590,1,2,0:0:0:0:
222,276,23705,1,2,0:0:0:0:
339,61,23937,2,0,L|355:154,1,95,10|0,0:0|0:0,0:0:0:0:
0,0,24398,5,8,1:0:0:0:
121,325,24629,5,2,0:0:0:0:
206,41,24859,1,10,0:0:0:0:
121,325,25090,5,2,0:0:0:0:
339,61,25320,1,8,1:0:0:0:
0,169,25552,1,2,0:0:0:0:
271,349,25783,6,0,L|420:322,1,113.999996520996,10|0,0:0|0:0,0:0:0:0:
198,205,26244,1,8,0:0:0:0:
165,199,26359,1,2,0:0:0:0:
132,193,26474,1,2,0:0:0:0:
339,61,26706,2,0,L|358:171,1,95,10|0,0:0|0:0,0:0:0:0:
271,349,27167,1,8,0:0:0:0:
164,112,27398,5,2,0:0:0:0:
455,164,27628,1,10,0:0:0:0:
164,112,27859,5,2,0:0:0:0:
455,164,28089,1,10,0:0:0:0:
266,8,28321,1,2,0:0:0:0:
254,255,28552,2,0,L|273:365,1,95,10|0,0:0|0:0,0:0:0:0:
455,164,29013,2,0,L|435:274,1,95,10|0,0:0|0:0,0:0:0:0:
255,101,29475,2,0,P|292:96|326:80,1,76,8|0,0:0|0:0,0:0:0:0:
438,257,29937,2,0,P|395:254|356:236,1,85.4999973907472,8|2,0:0|0:0,0:0:0:0:
176,365,30398,6,0,L|269:348,1,95,10|0,0:0|0:0,0:0:0:0:
132,193,30860,1,8,0:0:0:0:
43,384,31090,5,2,0:0:0:0:
0,140,31320,1,10,0:0:0:0:
43,384,31551,5,2,0:0:0:0:
0,140,31781,1,10,0:0:0:0:
112,305,32013,1,0,0:0:0:0:
132,193,32244,6,0,L|150:90,1,76,10|0,0:0|0:0,0:0:0:0:
254,255,32706,2,0,L|239:173,1,56.9999982604981,2|0,0:0|0:0,0:0:0:0:
112,305,33167,1,0,0:0:0:0:
