osu file format v14

[General]
AudioFilename: audio.mp3
AudioLeadIn: 0
PreviewTime: 27408
Countdown: 0
SampleSet: Normal
StackLeniency: 0.7
Mode: 3
LetterboxInBreaks: 0
SpecialStyle: 0
WidescreenStoryboard: 1

[Editor]
DistanceSpacing: 0.8
BeatDivisor: 4
GridSize: 8
TimelineZoom: 1

[Metadata]
Title:Iz Rossii v Ukrainu
TitleUnicode:Iz Rossii v Ukrainu
Artist:Aleksandr Pistoletov
ArtistUnicode:Aleksandr Pistoletov
Creator:colltern
Version:Advanced
Source:
Tags:from russia to ukraine skachem na delfinah александр пистолетов скачем на дельфинах из россии в украину
BeatmapID:1424668
BeatmapSetID:661936

[Difficulty]
HPDrainRate:7
CircleSize:4
OverallDifficulty:7
ApproachRate:5
SliderMultiplier:1.6
SliderTickRate:1

[Events]
//Background and Video events
0,0,"1412852404612030c6b.jpg",0,0
//Break Periods
//Storyboard Layer 0 (Background)
//Storyboard Layer 1 (Fail)
//Storyboard Layer 2 (Pass)
//Storyboard Layer 3 (Foreground)
//Storyboard Layer 4 (Overlay)
//Storyboard Sound Samples

[TimingPoints]
2994.87812199751,413.793103448276,4,1,1,100,1,0
7546,-100,4,1,1,40,0,0
14167,-100,4,2,1,40,0,0
14270,-100,4,1,1,40,0,0
27408,-100,4,2,1,40,0,0
29063,-100,4,2,1,40,0,1
98374,-100,4,2,1,40,0,0

[HitObjects]
64,192,7546,5,0,0:0:0:0:
448,192,7546,128,0,8374:0:0:0:0:
320,192,7753,1,0,0:0:0:0:
192,192,7960,5,0,0:0:0:0:
64,192,8167,1,0,0:0:0:0:
320,192,8374,128,0,9615:0:0:0:0:
192,192,8374,1,0,0:0:0:0:
448,192,8581,1,0,0:0:0:0:
192,192,8787,1,0,0:0:0:0:
64,192,8994,1,0,0:0:0:0:
448,192,9201,1,0,0:0:0:0:
192,192,9408,1,0,0:0:0:0:
448,192,9615,1,0,0:0:0:0:
192,192,9822,1,0,0:0:0:0:
64,192,10029,128,0,10443:0:0:0:0:
320,192,10029,1,0,0:0:0:0:
448,192,10236,1,0,0:0:0:0:
192,192,10443,1,0,0:0:0:0:
448,192,10650,1,0,0:0:0:0:
320,192,10856,128,0,11684:0:0:0:0:
64,192,10856,1,0,0:0:0:0:
448,192,11063,1,0,0:0:0:0:
192,192,11270,1,0,0:0:0:0:
64,192,11477,1,0,0:0:0:0:
192,192,11684,1,0,0:0:0:0:
448,192,11891,1,0,0:0:0:0:
192,192,12098,128,0,12925:0:0:0:0:
64,192,12098,1,0,0:0:0:0:
448,192,12305,1,0,0:0:0:0:
64,192,12512,1,0,0:0:0:0:
320,192,12719,1,0,0:0:0:0:
448,192,12925,1,0,0:0:0:0:
320,192,13132,1,0,0:0:0:0:
448,192,13339,1,0,0:0:0:0:
64,192,13339,128,0,13753:0:0:0:0:
192,192,13546,1,0,0:0:0:0:
448,192,13753,1,0,0:0:0:0:
192,192,13960,1,0,0:0:0:0:
320,192,14167,128,4,15408:0:0:0:0:
64,192,14374,1,0,0:0:0:0:
448,192,14581,1,0,0:0:0:0:
192,192,14787,1,0,0:0:0:0:
448,192,14994,1,0,0:0:0:0:
64,192,15201,1,0,0:0:0:0:
192,192,15408,1,0,0:0:0:0:
448,192,15615,1,0,0:0:0:0:
64,192,15822,128,0,16236:0:0:0:0:
320,192,15822,1,0,0:0:0:0:
448,192,16029,1,0,0:0:0:0:
192,192,16236,128,0,17063:0:0:0:0:
320,192,16236,1,0,0:0:0:0:
448,192,16443,1,0,0:0:0:0:
64,192,16650,1,0,0:0:0:0:
448,192,16856,1,0,0:0:0:0:
64,192,17063,1,0,0:0:0:0:
320,192,17270,1,0,0:0:0:0:
448,192,17477,128,0,18719:0:0:0:0:
192,192,17477,1,0,0:0:0:0:
320,192,17684,1,0,0:0:0:0:
64,192,17891,1,0,0:0:0:0:
192,192,18098,1,0,0:0:0:0:
320,192,18305,1,0,0:0:0:0:
64,192,18512,1,0,0:0:0:0:
320,192,18719,128,0,19960:0:0:0:0:
192,192,18719,1,0,0:0:0:0:
448,192,18925,1,0,0:0:0:0:
64,192,19132,1,0,0:0:0:0:
192,192,19339,1,0,0:0:0:0:
448,192,19546,1,0,0:0:0:0:
64,192,19753,1,0,0:0:0:0:
192,192,19960,1,0,0:0:0:0:
64,192,20167,1,0,0:0:0:0:
192,192,20374,1,0,0:0:0:0:
320,192,20581,1,0,0:0:0:0:
64,192,20787,1,0,0:0:0:0:
448,192,20787,128,0,21408:0:0:0:0:
320,192,20994,1,0,0:0:0:0:
192,192,21201,1,0,0:0:0:0:
64,192,21408,1,0,0:0:0:0:
320,192,21615,1,0,0:0:0:0:
192,192,21615,128,0,22236:0:0:0:0:
448,192,21822,1,0,0:0:0:0:
64,192,22029,1,0,0:0:0:0:
448,192,22236,1,0,0:0:0:0:
448,192,22443,1,0,0:0:0:0:
320,192,22443,1,0,0:0:0:0:
64,192,22443,128,0,22856:0:0:0:0:
192,192,22650,1,0,0:0:0:0:
320,192,22856,1,0,0:0:0:0:
448,192,22856,1,0,0:0:0:0:
448,192,23063,1,0,0:0:0:0:
64,192,23270,1,0,0:0:0:0:
320,192,23270,128,0,23477:0:0:0:0:
448,192,23477,128,0,23891:0:0:0:0:
192,192,23477,1,0,0:0:0:0:
64,192,23684,1,0,0:0:0:0:
320,192,23891,1,0,0:0:0:0:
192,192,24098,1,0,0:0:0:0:
64,192,24098,128,0,24512:0:0:0:0:
448,192,24305,1,0,0:0:0:0:
320,192,24512,1,0,0:0:0:0:
64,192,24719,1,0,0:0:0:0:
448,192,24925,1,0,0:0:0:0:
192,192,24925,128,0,25339:0:0:0:0:
320,192,25132,1,0,0:0:0:0:
64,192,25339,1,0,0:0:0:0:
64,192,25753,128,0,26994:0:0:0:0:
448,192,25753,1,0,0:0:0:0:
192,192,25960,1,0,0:0:0:0:
320,192,26167,1,0,0:0:0:0:
192,192,26374,1,0,0:0:0:0:
448,192,26581,1,0,0:0:0:0:
320,192,26787,1,0,0:0:0:0:
448,192,26994,1,0,0:0:0:0:
192,192,27408,1,0,0:0:0:0:
320,192,27408,1,8,0:0:0:0:
320,192,27615,1,0,0:0:0:0:
448,192,27822,1,0,0:0:0:0:
64,192,28029,1,0,0:0:0:0:
192,192,28236,1,0,0:0:0:0:
448,192,28443,1,0,0:0:0:0:
320,192,28546,1,0,0:0:0:0:
448,192,28650,1,0,0:0:0:0:
320,192,28856,1,0,0:0:0:0:
64,192,29063,1,0,0:0:0:0:
192,192,29063,1,4,0:0:0:0:
448,192,29063,128,0,29270:0:0:0:0:
192,192,29270,1,0,0:0:0:0:
64,192,29477,128,0,29684:0:0:0:0:
448,192,29477,1,0,0:0:0:0:
320,192,29477,1,8,0:0:0:0:
448,192,29684,1,0,0:0:0:0:
320,192,29891,1,8,0:0:0:0:
192,192,29891,128,0,30098:0:0:0:0:
64,192,30098,1,0,0:0:0:0:
448,192,30305,128,0,30512:0:0:0:0:
192,192,30305,1,8,0:0:0:0:
64,192,30305,1,0,0:0:0:0:
320,192,30512,1,0,0:0:0:0:
64,192,30719,1,0,0:0:0:0:
192,192,30719,1,8,0:0:0:0:
320,192,30719,128,0,30925:0:0:0:0:
192,192,30925,1,0,0:0:0:0:
64,192,31132,1,0,0:0:0:0:
192,192,31132,1,8,0:0:0:0:
448,192,31132,128,0,31339:0:0:0:0:
320,192,31339,1,0,0:0:0:0:
320,192,31546,128,0,31753:0:0:0:0:
192,192,31546,1,0,0:0:0:0:
64,192,31546,1,8,0:0:0:0:
192,192,31753,1,0,0:0:0:0:
320,192,31960,1,8,0:0:0:0:
448,192,31960,1,0,0:0:0:0:
192,192,31960,128,0,32167:0:0:0:0:
64,192,32167,1,0,0:0:0:0:
64,192,32374,128,0,32787:0:0:0:0:
320,192,32374,1,8,0:0:0:0:
448,192,32581,1,0,0:0:0:0:
192,192,32787,128,0,32994:0:0:0:0:
320,192,32787,1,2,0:0:0:0:
64,192,32994,1,0,0:0:0:0:
448,192,33201,128,0,33408:0:0:0:0:
320,192,33201,1,8,0:0:0:0:
320,192,33408,128,0,33822:0:0:0:0:
192,192,33408,1,0,0:0:0:0:
448,192,33615,1,2,0:0:0:0:
64,192,33822,1,0,0:0:0:0:
192,192,34029,1,8,0:0:0:0:
64,192,34029,128,0,34236:0:0:0:0:
320,192,34236,1,0,0:0:0:0:
192,192,34443,1,8,0:0:0:0:
448,192,34443,128,0,34650:0:0:0:0:
320,192,34650,1,0,0:0:0:0:
448,192,34856,1,8,0:0:0:0:
192,192,34856,128,0,35063:0:0:0:0:
64,192,35063,1,0,0:0:0:0:
320,192,35270,1,8,0:0:0:0:
448,192,35270,128,0,35477:0:0:0:0:
192,192,35477,1,0,0:0:0:0:
320,192,35684,1,8,0:0:0:0:
64,192,35684,128,0,36098:0:0:0:0:
192,192,35891,1,0,0:0:0:0:
448,192,36098,128,0,36305:0:0:0:0:
320,192,36098,1,8,0:0:0:0:
192,192,36305,1,0,0:0:0:0:
320,192,36512,128,0,36925:0:0:0:0:
64,192,36512,1,8,0:0:0:0:
192,192,36719,1,0,0:0:0:0:
64,192,36925,128,0,37132:0:0:0:0:
448,192,36925,1,8,0:0:0:0:
192,192,37132,1,0,0:0:0:0:
320,192,37339,1,8,0:0:0:0:
448,192,37339,128,0,37546:0:0:0:0:
64,192,37546,1,0,0:0:0:0:
448,192,37753,1,8,0:0:0:0:
192,192,37753,128,0,37960:0:0:0:0:
320,192,37960,1,0,0:0:0:0:
64,192,38167,128,0,38374:0:0:0:0:
448,192,38167,1,8,0:0:0:0:
192,192,38374,1,0,0:0:0:0:
64,192,38581,1,8,0:0:0:0:
320,192,38581,128,0,38787:0:0:0:0:
448,192,38787,1,0,0:0:0:0:
192,192,38994,128,0,39408:0:0:0:0:
320,192,38994,1,8,0:0:0:0:
448,192,39201,1,0,0:0:0:0:
64,192,39408,1,2,0:0:0:0:
320,192,39408,128,0,39822:0:0:0:0:
448,192,39615,1,0,0:0:0:0:
64,192,39822,128,0,40236:0:0:0:0:
192,192,39822,1,8,0:0:0:0:
320,192,40029,1,0,0:0:0:0:
448,192,40236,1,2,0:0:0:0:
320,192,40236,128,0,40443:0:0:0:0:
448,192,40650,1,8,0:0:0:0:
64,192,40650,128,0,40856:0:0:0:0:
192,192,40856,1,0,0:0:0:0:
320,192,41063,1,8,0:0:0:0:
448,192,41063,128,0,41891:0:0:0:0:
64,192,41270,1,0,0:0:0:0:
320,192,41477,1,8,0:0:0:0:
192,192,41684,1,0,0:0:0:0:
64,192,41891,1,8,0:0:0:0:
64,192,42305,1,0,0:0:0:0:
192,192,42305,1,4,0:0:0:0:
320,192,42305,128,0,42512:0:0:0:0:
64,192,42512,128,0,42925:0:0:0:0:
448,192,42719,1,4,0:0:0:0:
320,192,42719,1,0,0:0:0:0:
192,192,42925,1,0,0:0:0:0:
320,192,43132,1,8,0:0:0:0:
192,192,43132,128,0,43339:0:0:0:0:
448,192,43132,1,0,0:0:0:0:
320,192,43339,1,0,0:0:0:0:
192,192,43546,1,8,0:0:0:0:
320,192,43546,128,0,43753:0:0:0:0:
64,192,43546,1,0,0:0:0:0:
192,192,43753,1,0,0:0:0:0:
192,192,43960,128,0,44167:0:0:0:0:
448,192,43960,1,8,0:0:0:0:
320,192,43960,1,0,0:0:0:0:
320,192,44167,1,0,0:0:0:0:
192,192,44374,1,8,0:0:0:0:
320,192,44374,128,0,44581:0:0:0:0:
64,192,44374,1,0,0:0:0:0:
192,192,44581,1,0,0:0:0:0:
448,192,44787,1,8,0:0:0:0:
64,192,44787,128,0,44994:0:0:0:0:
192,192,44994,1,0,0:0:0:0:
320,192,45201,1,8,0:0:0:0:
448,192,45201,128,0,45408:0:0:0:0:
64,192,45408,1,0,0:0:0:0:
320,192,45615,128,0,45822:0:0:0:0:
192,192,45615,1,8,0:0:0:0:
64,192,45822,128,0,46236:0:0:0:0:
448,192,46029,1,2,0:0:0:0:
320,192,46236,1,0,0:0:0:0:
448,192,46443,128,0,46650:0:0:0:0:
192,192,46443,1,8,0:0:0:0:
320,192,46650,128,0,47063:0:0:0:0:
64,192,46650,1,0,0:0:0:0:
192,192,46856,1,2,0:0:0:0:
448,192,47063,1,0,0:0:0:0:
64,192,47270,1,8,0:0:0:0:
448,192,47270,128,0,47684:0:0:0:0:
192,192,47477,1,0,0:0:0:0:
64,192,47684,1,8,0:0:0:0:
320,192,47684,128,0,48512:0:0:0:0:
192,192,47891,1,0,0:0:0:0:
448,192,48098,1,8,0:0:0:0:
64,192,48305,1,0,0:0:0:0:
448,192,48512,1,8,0:0:0:0:
192,192,48719,1,0,0:0:0:0:
192,192,48925,1,0,0:0:0:0:
320,192,48925,1,8,0:0:0:0:
64,192,48925,128,0,49132:0:0:0:0:
192,192,49132,1,0,0:0:0:0:
448,192,49132,128,0,49339:0:0:0:0:
192,192,49339,1,0,0:0:0:0:
320,192,49339,1,8,0:0:0:0:
64,192,49546,1,0,0:0:0:0:
320,192,49753,1,8,0:0:0:0:
192,192,49753,128,0,49960:0:0:0:0:
448,192,49960,1,0,0:0:0:0:
192,192,50167,1,8,0:0:0:0:
320,192,50167,128,0,50374:0:0:0:0:
64,192,50374,1,0,0:0:0:0:
448,192,50581,1,8,0:0:0:0:
64,192,50581,128,0,50787:0:0:0:0:
192,192,50787,1,0,0:0:0:0:
320,192,50994,1,8,0:0:0:0:
192,192,50994,128,0,51201:0:0:0:0:
64,192,51201,1,0,0:0:0:0:
192,192,51408,1,8,0:0:0:0:
320,192,51408,128,0,51615:0:0:0:0:
448,192,51615,1,0,0:0:0:0:
448,192,51822,128,0,52029:0:0:0:0:
64,192,51822,1,8,0:0:0:0:
320,192,52029,1,0,0:0:0:0:
192,192,52236,128,0,53477:0:0:0:0:
64,192,52236,1,8,0:0:0:0:
320,192,52443,1,8,0:0:0:0:
448,192,52650,1,2,0:0:0:0:
64,192,52856,1,0,0:0:0:0:
320,192,53063,1,8,0:0:0:0:
64,192,53270,1,0,0:0:0:0:
320,192,53477,128,0,53684:0:0:0:0:
448,192,53477,1,2,0:0:0:0:
64,192,53684,1,0,0:0:0:0:
192,192,53891,1,8,0:0:0:0:
320,192,53891,128,0,55132:0:0:0:0:
448,192,54098,1,0,0:0:0:0:
64,192,54305,1,8,0:0:0:0:
448,192,54512,1,0,0:0:0:0:
192,192,54719,1,8,0:0:0:0:
448,192,54925,1,0,0:0:0:0:
192,192,55132,128,0,55339:0:0:0:0:
64,192,55132,1,8,0:0:0:0:
320,192,55339,1,0,0:0:0:0:
192,192,55546,1,4,0:0:0:0:
320,192,55546,1,0,0:0:0:0:
448,192,55546,128,0,55960:0:0:0:0:
320,192,55960,1,0,0:0:0:0:
192,192,55960,128,0,56374:0:0:0:0:
64,192,56167,1,0,0:0:0:0:
320,192,56374,128,0,56787:0:0:0:0:
448,192,56581,1,0,0:0:0:0:
64,192,56787,128,0,57201:0:0:0:0:
192,192,56787,1,0,0:0:0:0:
448,192,56994,1,0,0:0:0:0:
320,192,57201,1,8,0:0:0:0:
448,192,57201,128,0,58650:0:0:0:0:
192,192,57408,1,0,0:0:0:0:
320,192,57615,1,8,0:0:0:0:
64,192,57822,1,0,0:0:0:0:
192,192,58029,1,8,0:0:0:0:
64,192,58236,1,0,0:0:0:0:
320,192,58443,1,8,0:0:0:0:
64,192,58650,1,0,0:0:0:0:
320,192,58856,1,8,0:0:0:0:
448,192,58856,1,0,0:0:0:0:
64,192,58856,128,0,59063:0:0:0:0:
192,192,59063,1,0,0:0:0:0:
192,192,59270,1,2,0:0:0:0:
64,192,59270,1,0,0:0:0:0:
448,192,59270,128,0,59477:0:0:0:0:
320,192,59477,1,0,0:0:0:0:
320,192,59684,1,8,0:0:0:0:
448,192,59684,1,0,0:0:0:0:
192,192,59684,128,0,59891:0:0:0:0:
64,192,59891,1,0,0:0:0:0:
64,192,60098,1,0,0:0:0:0:
192,192,60098,1,2,0:0:0:0:
320,192,60098,128,0,60305:0:0:0:0:
448,192,60305,1,0,0:0:0:0:
192,192,60512,128,0,60719:0:0:0:0:
320,192,60512,1,8,0:0:0:0:
448,192,60719,1,0,0:0:0:0:
64,192,60719,128,0,61339:0:0:0:0:
192,192,60925,1,8,0:0:0:0:
320,192,61132,1,0,0:0:0:0:
320,192,61339,128,0,61546:0:0:0:0:
448,192,61339,1,8,0:0:0:0:
64,192,61546,1,0,0:0:0:0:
192,192,61546,128,0,61960:0:0:0:0:
448,192,61753,1,8,0:0:0:0:
320,192,61960,1,0,0:0:0:0:
192,192,62167,1,4,0:0:0:0:
64,192,62167,1,0,0:0:0:0:
320,192,62167,1,0,0:0:0:0:
320,192,62374,1,0,0:0:0:0:
192,192,62581,1,2,0:0:0:0:
448,192,62581,1,0,0:0:0:0:
64,192,62787,1,0,0:0:0:0:
448,192,62994,1,0,0:0:0:0:
320,192,62994,1,8,0:0:0:0:
192,192,62994,1,0,0:0:0:0:
64,192,63201,1,0,0:0:0:0:
192,192,63408,1,2,0:0:0:0:
448,192,63408,1,0,0:0:0:0:
320,192,63615,1,0,0:0:0:0:
64,192,63822,1,0,0:0:0:0:
192,192,63822,1,4,0:0:0:0:
448,192,64029,1,0,0:0:0:0:
320,192,64236,1,2,0:0:0:0:
64,192,64236,1,0,0:0:0:0:
192,192,64443,1,0,0:0:0:0:
448,192,64650,1,8,0:0:0:0:
320,192,64650,1,0,0:0:0:0:
64,192,64856,1,0,0:0:0:0:
192,192,65063,1,2,0:0:0:0:
448,192,65063,1,0,0:0:0:0:
320,192,65270,1,0,0:0:0:0:
64,192,65477,1,4,0:0:0:0:
320,192,65477,1,0,0:0:0:0:
192,192,65477,1,0,0:0:0:0:
448,192,65684,1,0,0:0:0:0:
320,192,65891,1,2,0:0:0:0:
64,192,65891,1,0,0:0:0:0:
192,192,66098,1,0,0:0:0:0:
448,192,66305,1,0,0:0:0:0:
192,192,66305,1,4,0:0:0:0:
320,192,66305,1,0,0:0:0:0:
64,192,66512,1,0,0:0:0:0:
448,192,66719,1,2,0:0:0:0:
192,192,66719,1,0,0:0:0:0:
320,192,66925,1,0,0:0:0:0:
64,192,67132,1,4,0:0:0:0:
192,192,67132,1,0,0:0:0:0:
320,192,67339,1,0,0:0:0:0:
448,192,67339,128,0,67546:0:0:0:0:
64,192,67546,1,4,0:0:0:0:
192,192,67546,1,0,0:0:0:0:
448,192,67753,1,4,0:0:0:0:
320,192,67753,128,0,67960:0:0:0:0:
64,192,67960,1,4,0:0:0:0:
192,192,67960,1,0,0:0:0:0:
320,192,68167,1,0,0:0:0:0:
448,192,68167,128,0,68374:0:0:0:0:
64,192,68374,1,0,0:0:0:0:
192,192,68374,1,4,0:0:0:0:
320,192,68581,1,0,0:0:0:0:
192,192,68787,1,0,0:0:0:0:
320,192,68787,1,8,0:0:0:0:
448,192,68787,1,0,0:0:0:0:
64,192,68994,1,0,0:0:0:0:
192,192,69098,1,0,0:0:0:0:
64,192,69201,1,8,0:0:0:0:
448,192,69408,1,0,0:0:0:0:
320,192,69512,1,0,0:0:0:0:
448,192,69615,1,8,0:0:0:0:
64,192,69822,1,0,0:0:0:0:
192,192,69925,1,0,0:0:0:0:
320,192,70029,1,8,0:0:0:0:
320,192,70236,1,0,0:0:0:0:
192,192,70236,1,0,0:0:0:0:
64,192,70443,1,0,0:0:0:0:
320,192,70443,1,0,0:0:0:0:
192,192,70443,1,4,0:0:0:0:
448,192,70443,1,0,0:0:0:0:
320,192,70650,1,0,0:0:0:0:
64,192,70856,128,0,71063:0:0:0:0:
192,192,70856,1,2,0:0:0:0:
448,192,71063,1,0,0:0:0:0:
192,192,71270,128,0,71684:0:0:0:0:
320,192,71270,1,8,0:0:0:0:
64,192,71477,1,0,0:0:0:0:
448,192,71684,1,2,0:0:0:0:
320,192,71891,1,0,0:0:0:0:
64,192,72098,1,8,0:0:0:0:
448,192,72098,128,0,72305:0:0:0:0:
192,192,72305,1,0,0:0:0:0:
320,192,72512,1,8,0:0:0:0:
192,192,72512,128,0,72719:0:0:0:0:
64,192,72719,1,0,0:0:0:0:
320,192,72925,128,0,73132:0:0:0:0:
448,192,72925,1,8,0:0:0:0:
192,192,73132,1,0,0:0:0:0:
448,192,73339,1,8,0:0:0:0:
64,192,73339,128,0,73546:0:0:0:0:
192,192,73546,1,0,0:0:0:0:
320,192,73753,1,0,0:0:0:0:
448,192,73753,1,8,0:0:0:0:
192,192,73753,1,0,0:0:0:0:
64,192,73960,1,0,0:0:0:0:
320,192,74167,1,2,0:0:0:0:
448,192,74167,128,0,74374:0:0:0:0:
64,192,74374,1,0,0:0:0:0:
192,192,74581,1,8,0:0:0:0:
320,192,74581,128,0,74994:0:0:0:0:
448,192,74787,1,0,0:0:0:0:
64,192,74994,1,2,0:0:0:0:
192,192,75201,1,0,0:0:0:0:
64,192,75408,128,0,75615:0:0:0:0:
448,192,75408,1,8,0:0:0:0:
320,192,75615,1,0,0:0:0:0:
320,192,75822,128,0,76029:0:0:0:0:
192,192,75822,1,8,0:0:0:0:
448,192,76029,1,0,0:0:0:0:
64,192,76236,1,8,0:0:0:0:
192,192,76236,128,0,76443:0:0:0:0:
320,192,76443,1,0,0:0:0:0:
448,192,76650,128,0,76856:0:0:0:0:
64,192,76650,1,8,0:0:0:0:
320,192,76856,1,0,0:0:0:0:
192,192,77063,1,8,0:0:0:0:
64,192,77063,1,0,0:0:0:0:
320,192,77063,1,0,0:0:0:0:
448,192,77270,1,0,0:0:0:0:
192,192,77477,1,2,0:0:0:0:
64,192,77477,128,0,77684:0:0:0:0:
448,192,77684,1,0,0:0:0:0:
320,192,77891,1,8,0:0:0:0:
192,192,77891,128,0,78305:0:0:0:0:
64,192,78098,1,0,0:0:0:0:
448,192,78305,1,2,0:0:0:0:
320,192,78512,1,0,0:0:0:0:
64,192,78719,1,8,0:0:0:0:
448,192,78719,128,0,78925:0:0:0:0:
192,192,78925,1,0,0:0:0:0:
320,192,79132,1,8,0:0:0:0:
192,192,79132,128,0,79339:0:0:0:0:
64,192,79339,1,0,0:0:0:0:
320,192,79546,128,0,79753:0:0:0:0:
448,192,79546,1,0,0:0:0:0:
192,192,79753,1,0,0:0:0:0:
448,192,79960,1,8,0:0:0:0:
64,192,79960,128,0,80167:0:0:0:0:
192,192,80167,1,0,0:0:0:0:
192,192,80374,128,0,80581:0:0:0:0:
448,192,80374,1,8,0:0:0:0:
320,192,80581,1,0,0:0:0:0:
320,192,80787,128,0,80994:0:0:0:0:
192,192,80787,1,8,0:0:0:0:
448,192,80994,1,0,0:0:0:0:
64,192,81201,1,8,0:0:0:0:
192,192,81201,128,0,81408:0:0:0:0:
320,192,81408,1,0,0:0:0:0:
448,192,81615,128,0,81822:0:0:0:0:
64,192,81615,1,8,0:0:0:0:
320,192,81822,1,0,0:0:0:0:
64,192,82029,1,0,0:0:0:0:
192,192,82029,1,4,0:0:0:0:
320,192,82029,128,0,82236:0:0:0:0:
192,192,82236,1,0,0:0:0:0:
320,192,82443,1,4,0:0:0:0:
448,192,82443,1,0,0:0:0:0:
192,192,82443,128,0,82650:0:0:0:0:
320,192,82650,1,0,0:0:0:0:
320,192,82856,128,0,83063:0:0:0:0:
64,192,82856,1,0,0:0:0:0:
192,192,82856,1,4,0:0:0:0:
192,192,83063,1,0,0:0:0:0:
192,192,83270,1,0,0:0:0:0:
320,192,83270,1,4,0:0:0:0:
64,192,83477,1,0,0:0:0:0:
448,192,83477,1,0,0:0:0:0:
192,192,83684,1,0,0:0:0:0:
320,192,83684,1,8,0:0:0:0:
64,192,83684,1,0,0:0:0:0:
448,192,83684,1,0,0:0:0:0:
64,192,83891,1,0,0:0:0:0:
192,192,83891,128,0,84098:0:0:0:0:
320,192,84098,1,8,0:0:0:0:
448,192,84098,1,0,0:0:0:0:
64,192,84305,1,0,0:0:0:0:
448,192,84512,128,0,84719:0:0:0:0:
192,192,84512,1,8,0:0:0:0:
320,192,84512,1,0,0:0:0:0:
320,192,84719,1,0,0:0:0:0:
192,192,84925,1,8,0:0:0:0:
64,192,84925,1,0,0:0:0:0:
448,192,84925,128,0,85132:0:0:0:0:
320,192,85132,1,0,0:0:0:0:
192,192,85339,128,0,85753:0:0:0:0:
448,192,85339,1,8,0:0:0:0:
64,192,85546,1,0,0:0:0:0:
320,192,85753,1,8,0:0:0:0:
64,192,85753,128,0,85960:0:0:0:0:
448,192,85960,1,0,0:0:0:0:
192,192,86167,1,8,0:0:0:0:
320,192,86167,128,0,86374:0:0:0:0:
64,192,86374,1,0,0:0:0:0:
192,192,86374,128,0,86581:0:0:0:0:
448,192,86581,1,8,0:0:0:0:
320,192,86787,1,0,0:0:0:0:
448,192,86994,128,0,87201:0:0:0:0:
192,192,86994,1,8,0:0:0:0:
320,192,87201,1,0,0:0:0:0:
64,192,87201,128,0,87408:0:0:0:0:
448,192,87408,1,8,0:0:0:0:
320,192,87408,128,0,87615:0:0:0:0:
192,192,87615,128,0,88236:0:0:0:0:
64,192,87615,1,0,0:0:0:0:
448,192,87822,1,8,0:0:0:0:
320,192,88029,1,0,0:0:0:0:
64,192,88236,1,8,0:0:0:0:
448,192,88236,128,0,88443:0:0:0:0:
320,192,88443,1,0,0:0:0:0:
192,192,88650,1,8,0:0:0:0:
64,192,88650,128,0,89270:0:0:0:0:
320,192,88856,1,0,0:0:0:0:
448,192,89063,1,8,0:0:0:0:
192,192,89270,1,0,0:0:0:0:
320,192,89477,128,0,89891:0:0:0:0:
448,192,89477,1,8,0:0:0:0:
64,192,89684,1,0,0:0:0:0:
192,192,89891,1,8,0:0:0:0:
448,192,90098,1,0,0:0:0:0:
192,192,90305,1,0,0:0:0:0:
320,192,90305,1,4,0:0:0:0:
64,192,90305,1,0,0:0:0:0:
64,192,90512,1,0,0:0:0:0:
448,192,90719,1,0,0:0:0:0:
320,192,90719,1,2,0:0:0:0:
192,192,90925,1,0,0:0:0:0:
192,192,91132,1,8,0:0:0:0:
64,192,91132,1,0,0:0:0:0:
320,192,91132,1,0,0:0:0:0:
64,192,91339,1,0,0:0:0:0:
320,192,91546,1,2,0:0:0:0:
448,192,91546,1,0,0:0:0:0:
192,192,91753,1,0,0:0:0:0:
64,192,91960,128,0,92787:0:0:0:0:
320,192,91960,1,4,0:0:0:0:
192,192,92167,1,0,0:0:0:0:
448,192,92374,1,2,0:0:0:0:
192,192,92581,1,0,0:0:0:0:
320,192,92787,1,8,0:0:0:0:
448,192,92787,128,0,93201:0:0:0:0:
64,192,92994,1,0,0:0:0:0:
320,192,93201,1,2,0:0:0:0:
192,192,93408,1,0,0:0:0:0:
64,192,93615,128,0,94029:0:0:0:0:
192,192,93615,128,0,94029:0:0:0:0:
320,192,93615,1,4,0:0:0:0:
448,192,93822,1,0,0:0:0:0:
320,192,94029,1,2,0:0:0:0:
192,192,94236,1,0,0:0:0:0:
320,192,94236,1,0,0:0:0:0:
320,192,94443,128,0,94856:0:0:0:0:
448,192,94443,128,0,94856:0:0:0:0:
64,192,94443,1,4,0:0:0:0:
192,192,94650,1,0,0:0:0:0:
64,192,94856,1,2,0:0:0:0:
448,192,95063,1,0,0:0:0:0:
192,192,95270,1,4,0:0:0:0:
64,192,95270,1,0,0:0:0:0:
320,192,95270,1,0,0:0:0:0:
64,192,95477,1,0,0:0:0:0:
192,192,95684,1,0,0:0:0:0:
320,192,95684,1,0,0:0:0:0:
448,192,95684,1,4,0:0:0:0:
448,192,95891,1,0,0:0:0:0:
64,192,96098,1,4,0:0:0:0:
192,192,96098,1,0,0:0:0:0:
320,192,96098,1,0,0:0:0:0:
448,192,96305,1,0,0:0:0:0:
192,192,96512,1,4,0:0:0:0:
320,192,96512,1,0,0:0:0:0:
448,192,96512,1,0,0:0:0:0:
320,192,96719,1,0,0:0:0:0:
64,192,96925,1,0,0:0:0:0:
192,192,96925,1,0,0:0:0:0:
320,192,96925,1,8,0:0:0:0:
448,192,96925,1,0,0:0:0:0:
448,192,97132,1,0,0:0:0:0:
320,192,97236,1,0,0:0:0:0:
448,192,97339,1,0,0:0:0:0:
64,192,97546,1,0,0:0:0:0:
192,192,97650,1,0,0:0:0:0:
64,192,97753,1,0,0:0:0:0:
448,192,97960,1,0,0:0:0:0:
320,192,98063,1,0,0:0:0:0:
192,192,98167,1,0,0:0:0:0:
320,192,98374,1,0,0:0:0:0:
192,192,98374,1,0,0:0:0:0:
