osu file format v14

[General]
AudioFilename: audio.mp3
AudioLeadIn: 0
PreviewTime: 75
Countdown: 1
SampleSet: Normal
StackLeniency: 0.7
Mode: 1
LetterboxInBreaks: 0
WidescreenStoryboard: 0

[Editor]
Bookmarks: 16075,37075,40075,52075,56075,60075,64075,69075,70075,85075
DistanceSpacing: 0.9
BeatDivisor: 4
GridSize: 32
TimelineZoom: 2.999999

[Metadata]
Title:alma parta
TitleUnicode:alma parta
Artist:Alejandro Sans
ArtistUnicode:Alejandro Sans
Creator:[_Chichinya_]
Version:nunk me abandones
Source:
Tags:Mashup Archivos del Stano Megalovania UNDERTALE
BeatmapID:1984802
BeatmapSetID:950393

[Difficulty]
HPDrainRate:7
CircleSize:2
OverallDifficulty:7
ApproachRate:10
SliderMultiplier:1.4
SliderTickRate:1

[Events]
//Background and Video events
0,0,"why.jpg",0,0
//Break Periods
//Storyboard Layer 0 (Background)
//Storyboard Layer 1 (Fail)
//Storyboard Layer 2 (Pass)
//Storyboard Layer 3 (Foreground)
//Storyboard Sound Samples

[TimingPoints]
75,250,4,1,0,49,1,0

[HitObjects]
256,192,75,5,0,0:0:0:0:
256,192,200,1,0,0:0:0:0:
256,192,325,1,8,0:0:0:0:
256,192,575,1,0,0:0:0:0:
256,192,950,1,8,0:0:0:0:
256,192,1200,1,8,0:0:0:0:
256,192,1450,1,0,0:0:0:0:
256,192,1700,1,8,0:0:0:0:
256,192,1825,1,0,0:0:0:0:
256,192,1950,1,8,0:0:0:0:
256,192,2075,1,8,0:0:0:0:
256,192,2200,1,0,0:0:0:0:
256,192,2325,1,8,0:0:0:0:
256,192,2575,1,0,0:0:0:0:
256,192,2950,1,8,0:0:0:0:
256,192,3200,1,8,0:0:0:0:
256,192,3450,1,0,0:0:0:0:
256,192,3700,1,8,0:0:0:0:
256,192,3825,1,0,0:0:0:0:
256,192,3950,1,8,0:0:0:0:
256,192,4075,1,8,0:0:0:0:
256,192,4200,1,0,0:0:0:0:
256,192,4325,1,8,0:0:0:0:
256,192,4575,1,0,0:0:0:0:
256,192,4950,1,8,0:0:0:0:
256,192,5200,1,8,0:0:0:0:
256,192,5450,1,0,0:0:0:0:
256,192,5700,1,0,0:0:0:0:
256,192,5825,1,8,0:0:0:0:
256,192,5950,1,0,0:0:0:0:
256,192,6075,1,8,0:0:0:0:
256,192,6200,1,8,0:0:0:0:
256,192,6325,1,0,0:0:0:0:
256,192,6575,1,0,0:0:0:0:
256,192,6950,1,8,0:0:0:0:
256,192,7200,1,8,0:0:0:0:
256,192,7450,1,0,0:0:0:0:
256,192,7700,1,0,0:0:0:0:
256,192,7825,1,8,0:0:0:0:
256,192,7950,1,0,0:0:0:0:
256,192,8075,1,8,0:0:0:0:
256,192,8200,1,8,0:0:0:0:
256,192,8325,1,0,0:0:0:0:
256,192,8575,1,0,0:0:0:0:
256,192,8700,1,8,0:0:0:0:
256,192,8950,1,0,0:0:0:0:
256,192,9075,1,8,0:0:0:0:
256,192,9200,1,0,0:0:0:0:
256,192,9450,1,0,0:0:0:0:
256,192,9575,1,8,0:0:0:0:
256,192,9700,1,8,0:0:0:0:
256,192,9762,1,8,0:0:0:0:
256,192,9825,1,0,0:0:0:0:
256,192,9950,1,0,0:0:0:0:
256,192,10075,1,0,0:0:0:0:
256,192,10137,1,0,0:0:0:0:
256,192,10200,1,8,0:0:0:0:
256,192,10262,1,8,0:0:0:0:
256,192,10325,1,0,0:0:0:0:
256,192,10575,1,0,0:0:0:0:
256,192,10700,1,8,0:0:0:0:
256,192,10950,1,0,0:0:0:0:
256,192,11075,1,8,0:0:0:0:
256,192,11200,1,0,0:0:0:0:
256,192,11325,1,8,0:0:0:0:
256,192,11387,1,8,0:0:0:0:
256,192,11450,1,0,0:0:0:0:
256,192,11575,1,0,0:0:0:0:
256,192,11700,1,8,0:0:0:0:
256,192,11762,1,8,0:0:0:0:
256,192,11825,1,0,0:0:0:0:
256,192,11950,1,8,0:0:0:0:
256,192,12075,1,0,0:0:0:0:
256,192,12137,1,8,0:0:0:0:
256,192,12200,1,0,0:0:0:0:
256,192,12262,1,8,0:0:0:0:
256,192,12325,1,0,0:0:0:0:
256,192,12450,1,8,0:0:0:0:
256,192,12575,1,0,0:0:0:0:
256,192,12700,1,8,0:0:0:0:
256,192,12950,1,0,0:0:0:0:
256,192,13075,1,8,0:0:0:0:
256,192,13200,1,0,0:0:0:0:
256,192,13262,1,8,0:0:0:0:
256,192,13325,1,0,0:0:0:0:
256,192,13450,1,0,0:0:0:0:
256,192,13575,1,8,0:0:0:0:
256,192,13637,1,8,0:0:0:0:
256,192,13700,1,0,0:0:0:0:
256,192,13762,1,8,0:0:0:0:
256,192,13825,1,0,0:0:0:0:
256,192,13950,1,8,0:0:0:0:
256,192,14012,1,8,0:0:0:0:
256,192,14075,1,0,0:0:0:0:
256,192,14200,1,8,0:0:0:0:
256,192,14325,1,0,0:0:0:0:
256,192,14575,1,0,0:0:0:0:
256,192,14700,1,8,0:0:0:0:
256,192,14825,1,8,0:0:0:0:
256,192,14950,1,0,0:0:0:0:
256,192,15012,1,0,0:0:0:0:
256,192,15075,1,8,0:0:0:0:
256,192,15137,1,0,0:0:0:0:
256,192,15200,1,8,0:0:0:0:
256,192,15325,1,8,0:0:0:0:
256,192,15450,1,0,0:0:0:0:
256,192,15575,1,0,0:0:0:0:
256,192,15637,1,8,0:0:0:0:
256,192,15700,1,0,0:0:0:0:
256,192,15825,1,8,0:0:0:0:
256,192,15887,1,8,0:0:0:0:
256,192,15950,1,0,0:0:0:0:
256,192,16012,1,8,0:0:0:0:
256,192,16075,1,0,0:0:0:0:
256,192,16200,1,8,0:0:0:0:
256,192,16325,1,8,0:0:0:0:
256,192,16450,1,0,0:0:0:0:
256,192,16512,1,8,0:0:0:0:
256,192,16575,1,0,0:0:0:0:
256,192,16700,1,8,0:0:0:0:
256,192,16762,1,0,0:0:0:0:
256,192,16825,1,8,0:0:0:0:
256,192,16887,1,8,0:0:0:0:
256,192,16950,1,0,0:0:0:0:
256,192,17012,1,0,0:0:0:0:
256,192,17075,1,8,0:0:0:0:
256,192,17137,1,0,0:0:0:0:
256,192,17200,1,8,0:0:0:0:
256,192,17325,1,8,0:0:0:0:
256,192,17387,1,8,0:0:0:0:
256,192,17450,1,0,0:0:0:0:
256,192,17575,1,8,0:0:0:0:
256,192,17700,1,0,0:0:0:0:
256,192,17762,1,8,0:0:0:0:
256,192,17825,1,0,0:0:0:0:
256,192,17887,1,0,0:0:0:0:
256,192,17950,1,8,0:0:0:0:
256,192,18012,1,0,0:0:0:0:
256,192,18075,1,8,0:0:0:0:
256,192,18137,1,0,0:0:0:0:
256,192,18200,1,8,0:0:0:0:
256,192,18262,1,8,0:0:0:0:
256,192,18325,1,0,0:0:0:0:
256,192,18387,1,0,0:0:0:0:
256,192,18450,1,8,0:0:0:0:
256,192,18512,1,0,0:0:0:0:
256,192,18575,1,0,0:0:0:0:
256,192,18637,1,8,0:0:0:0:
256,192,18700,1,0,0:0:0:0:
256,192,18825,1,8,0:0:0:0:
256,192,18950,1,0,0:0:0:0:
256,192,19012,1,8,0:0:0:0:
256,192,19075,1,0,0:0:0:0:
256,192,19200,1,0,0:0:0:0:
256,192,19325,1,8,0:0:0:0:
256,192,19450,1,8,0:0:0:0:
256,192,19575,1,0,0:0:0:0:
256,192,19637,1,8,0:0:0:0:
256,192,19700,1,0,0:0:0:0:
256,192,19762,1,0,0:0:0:0:
256,192,19825,1,8,0:0:0:0:
256,192,19887,1,8,0:0:0:0:
256,192,19950,1,0,0:0:0:0:
256,192,20012,1,8,0:0:0:0:
256,192,20075,1,0,0:0:0:0:
256,192,20137,1,8,0:0:0:0:
256,192,20200,1,0,0:0:0:0:
256,192,20262,1,0,0:0:0:0:
256,192,20325,1,8,0:0:0:0:
256,192,20387,1,8,0:0:0:0:
256,192,20450,1,0,0:0:0:0:
256,192,20512,1,8,0:0:0:0:
256,192,20575,1,0,0:0:0:0:
256,192,20637,1,8,0:0:0:0:
256,192,20700,1,0,0:0:0:0:
256,192,20825,1,8,0:0:0:0:
256,192,20950,1,0,0:0:0:0:
256,192,21075,1,8,0:0:0:0:
256,192,21137,1,8,0:0:0:0:
256,192,21200,1,0,0:0:0:0:
256,192,21325,1,8,0:0:0:0:
256,192,21450,1,0,0:0:0:0:
256,192,21575,1,8,0:0:0:0:
256,192,21700,1,0,0:0:0:0:
256,192,21762,1,8,0:0:0:0:
256,192,21825,1,0,0:0:0:0:
256,192,21887,1,8,0:0:0:0:
256,192,21950,1,0,0:0:0:0:
256,192,22012,1,0,0:0:0:0:
256,192,22075,1,8,0:0:0:0:
256,192,22137,1,8,0:0:0:0:
256,192,22200,1,0,0:0:0:0:
256,192,22262,1,0,0:0:0:0:
256,192,22325,1,8,0:0:0:0:
256,192,22387,1,0,0:0:0:0:
256,192,22450,1,8,0:0:0:0:
256,192,22512,1,0,0:0:0:0:
256,192,22575,1,8,0:0:0:0:
256,192,22637,1,8,0:0:0:0:
256,192,22700,1,0,0:0:0:0:
256,192,22825,1,8,0:0:0:0:
256,192,22887,1,8,0:0:0:0:
256,192,22950,1,0,0:0:0:0:
256,192,23075,1,8,0:0:0:0:
256,192,23200,1,0,0:0:0:0:
256,192,23325,1,0,0:0:0:0:
256,192,23450,1,8,0:0:0:0:
256,192,23512,1,8,0:0:0:0:
256,192,23575,1,0,0:0:0:0:
256,192,23637,1,8,0:0:0:0:
256,192,23700,1,0,0:0:0:0:
256,192,23762,1,0,0:0:0:0:
256,192,23825,1,8,0:0:0:0:
256,192,23887,1,0,0:0:0:0:
256,192,23950,1,8,0:0:0:0:
256,192,24012,1,8,0:0:0:0:
256,192,24075,1,0,0:0:0:0:
256,192,24137,1,8,0:0:0:0:
256,192,24200,1,0,0:0:0:0:
256,192,24262,1,0,0:0:0:0:
256,192,24325,1,8,0:0:0:0:
256,192,24387,1,0,0:0:0:0:
256,192,24450,1,8,0:0:0:0:
256,192,24512,1,8,0:0:0:0:
256,192,24575,1,0,0:0:0:0:
256,192,24637,1,8,0:0:0:0:
256,192,24700,1,0,0:0:0:0:
256,192,24825,1,8,0:0:0:0:
256,192,24950,1,0,0:0:0:0:
256,192,25075,1,8,0:0:0:0:
256,192,25137,1,0,0:0:0:0:
256,192,25200,1,8,0:0:0:0:
256,192,25325,1,8,0:0:0:0:
256,192,25450,1,0,0:0:0:0:
256,192,25575,1,0,0:0:0:0:
256,192,25637,1,8,0:0:0:0:
256,192,25700,1,8,0:0:0:0:
256,192,25762,1,0,0:0:0:0:
256,192,25825,1,8,0:0:0:0:
256,192,25887,1,0,0:0:0:0:
256,192,25950,1,8,0:0:0:0:
256,192,26012,1,0,0:0:0:0:
256,192,26075,1,8,0:0:0:0:
256,192,26137,1,8,0:0:0:0:
256,192,26200,1,0,0:0:0:0:
256,192,26262,1,0,0:0:0:0:
256,192,26325,1,8,0:0:0:0:
256,192,26387,1,0,0:0:0:0:
256,192,26450,1,8,0:0:0:0:
256,192,26512,1,0,0:0:0:0:
256,192,26575,1,8,0:0:0:0:
256,192,26700,1,8,0:0:0:0:
256,192,26825,1,0,0:0:0:0:
256,192,26950,1,0,0:0:0:0:
256,192,27012,1,0,0:0:0:0:
256,192,27075,1,8,0:0:0:0:
256,192,27200,1,0,0:0:0:0:
256,192,27262,1,8,0:0:0:0:
256,192,27325,1,0,0:0:0:0:
256,192,27450,1,8,0:0:0:0:
256,192,27575,1,0,0:0:0:0:
256,192,27637,1,8,0:0:0:0:
256,192,27700,1,8,0:0:0:0:
256,192,27762,1,0,0:0:0:0:
256,192,27825,1,8,0:0:0:0:
256,192,27887,1,0,0:0:0:0:
256,192,27950,1,8,0:0:0:0:
256,192,28012,1,8,0:0:0:0:
256,192,28075,1,0,0:0:0:0:
256,192,28137,1,0,0:0:0:0:
256,192,28200,1,8,0:0:0:0:
256,192,28262,1,0,0:0:0:0:
256,192,28325,1,8,0:0:0:0:
256,192,28387,1,8,0:0:0:0:
256,192,28450,1,0,0:0:0:0:
256,192,28512,1,8,0:0:0:0:
256,192,28575,1,0,0:0:0:0:
256,192,28637,1,0,0:0:0:0:
256,192,28700,1,8,0:0:0:0:
256,192,28762,1,0,0:0:0:0:
256,192,28825,1,8,0:0:0:0:
256,192,28887,1,8,0:0:0:0:
256,192,28950,1,0,0:0:0:0:
256,192,29012,1,0,0:0:0:0:
256,192,29075,1,8,0:0:0:0:
256,192,29200,1,0,0:0:0:0:
256,192,29325,1,8,0:0:0:0:
256,192,29450,1,0,0:0:0:0:
256,192,29575,1,0,0:0:0:0:
256,192,29637,1,8,0:0:0:0:
256,192,29700,1,0,0:0:0:0:
256,192,29825,1,0,0:0:0:0:
256,192,29887,1,8,0:0:0:0:
256,192,29950,1,8,0:0:0:0:
256,192,30012,1,0,0:0:0:0:
256,192,30075,1,8,0:0:0:0:
256,192,30137,1,0,0:0:0:0:
256,192,30200,1,0,0:0:0:0:
256,192,30262,1,8,0:0:0:0:
256,192,30325,1,0,0:0:0:0:
256,192,30387,1,0,0:0:0:0:
256,192,30450,1,8,0:0:0:0:
256,192,30512,1,0,0:0:0:0:
256,192,30575,1,8,0:0:0:0:
256,192,30637,1,0,0:0:0:0:
256,192,30700,1,8,0:0:0:0:
256,192,30762,1,8,0:0:0:0:
256,192,30825,1,0,0:0:0:0:
256,192,30950,1,0,0:0:0:0:
256,192,31075,1,8,0:0:0:0:
256,192,31200,1,0,0:0:0:0:
256,192,31262,1,0,0:0:0:0:
256,192,31325,1,0,0:0:0:0:
256,192,31450,1,8,0:0:0:0:
256,192,31575,1,0,0:0:0:0:
256,192,31700,1,0,0:0:0:0:
256,192,31825,1,8,0:0:0:0:
256,192,31887,1,8,0:0:0:0:
256,192,31950,1,8,0:0:0:0:
256,192,31991,1,8,0:0:0:0:
256,192,32033,1,8,0:0:0:0:
256,192,32075,1,0,0:0:0:0:
256,192,32200,1,0,0:0:0:0:
256,192,32325,1,0,0:0:0:0:
256,192,32387,1,8,0:0:0:0:
256,192,32450,1,0,0:0:0:0:
256,192,32512,1,8,0:0:0:0:
256,192,32575,1,0,0:0:0:0:
256,192,32700,1,8,0:0:0:0:
256,192,32762,1,8,0:0:0:0:
256,192,32825,1,0,0:0:0:0:
256,192,32950,1,0,0:0:0:0:
256,192,33075,1,8,0:0:0:0:
256,192,33137,1,8,0:0:0:0:
256,192,33200,1,0,0:0:0:0:
256,192,33325,1,8,0:0:0:0:
256,192,33450,1,0,0:0:0:0:
256,192,33512,1,8,0:0:0:0:
256,192,33575,1,0,0:0:0:0:
256,192,33700,1,8,0:0:0:0:
256,192,33762,1,8,0:0:0:0:
256,192,33825,1,0,0:0:0:0:
256,192,33887,1,8,0:0:0:0:
256,192,33950,1,0,0:0:0:0:
256,192,34012,1,0,0:0:0:0:
256,192,34075,1,8,0:0:0:0:
256,192,34137,1,8,0:0:0:0:
256,192,34200,1,0,0:0:0:0:
256,192,34262,1,8,0:0:0:0:
256,192,34325,1,0,0:0:0:0:
256,192,34387,1,8,0:0:0:0:
256,192,34450,1,0,0:0:0:0:
256,192,34575,1,8,0:0:0:0:
256,192,34700,1,0,0:0:0:0:
256,192,34825,1,8,0:0:0:0:
256,192,34950,1,0,0:0:0:0:
256,192,35012,1,0,0:0:0:0:
256,192,35075,1,0,0:0:0:0:
256,192,35241,1,8,0:0:0:0:
256,192,35408,1,8,0:0:0:0:
256,192,35575,1,0,0:0:0:0:
256,192,35741,1,0,0:0:0:0:
256,192,35908,1,0,0:0:0:0:
256,192,35991,1,0,0:0:0:0:
256,192,36075,1,0,0:0:0:0:
256,192,36241,1,8,0:0:0:0:
256,192,36491,1,0,0:0:0:0:
256,192,36575,1,0,0:0:0:0:
256,192,36658,1,8,0:0:0:0:
256,192,36741,1,8,0:0:0:0:
256,192,36825,1,0,0:0:0:0:
256,192,36950,1,0,0:0:0:0:
256,192,37200,1,0,0:0:0:0:
256,192,37450,1,8,0:0:0:0:
256,192,37700,1,8,0:0:0:0:
256,192,37950,1,0,0:0:0:0:
256,192,38075,1,8,0:0:0:0:
256,192,38325,1,8,0:0:0:0:
256,192,38575,1,8,0:0:0:0:
256,192,38700,1,0,0:0:0:0:
256,192,38825,1,8,0:0:0:0:
256,192,38950,1,0,0:0:0:0:
256,192,39075,1,12,0:0:0:0:
256,192,39325,1,0,0:0:0:0:
256,192,39450,1,12,0:0:0:0:
256,192,39700,1,0,0:0:0:0:
256,192,39825,1,12,0:0:0:0:
256,192,39950,1,12,0:0:0:0:
256,192,40075,1,4,0:0:0:0:
256,192,40325,1,0,0:0:0:0:
256,192,40387,1,8,0:0:0:0:
256,192,40450,1,0,0:0:0:0:
256,192,40512,1,0,0:0:0:0:
256,192,40575,1,8,0:0:0:0:
256,192,40637,1,8,0:0:0:0:
256,192,40700,1,0,0:0:0:0:
256,192,40762,1,8,0:0:0:0:
256,192,40825,1,0,0:0:0:0:
256,192,40887,1,8,0:0:0:0:
256,192,40950,1,8,0:0:0:0:
256,192,41012,1,0,0:0:0:0:
256,192,41075,1,0,0:0:0:0:
256,192,41137,1,8,0:0:0:0:
256,192,41200,1,0,0:0:0:0:
256,192,41262,1,8,0:0:0:0:
256,192,41325,1,8,0:0:0:0:
256,192,41387,1,0,0:0:0:0:
256,192,41450,1,8,0:0:0:0:
256,192,41512,1,0,0:0:0:0:
256,192,41575,1,8,0:0:0:0:
256,192,41637,1,0,0:0:0:0:
256,192,41700,1,0,0:0:0:0:
256,192,41762,1,8,0:0:0:0:
256,192,41825,1,0,0:0:0:0:
256,192,41887,1,8,0:0:0:0:
256,192,41950,1,8,0:0:0:0:
256,192,42012,1,8,0:0:0:0:
256,192,42075,1,0,0:0:0:0:
256,192,42137,1,8,0:0:0:0:
256,192,42262,1,0,0:0:0:0:
256,192,42325,1,8,0:0:0:0:
256,192,42450,1,8,0:0:0:0:
256,192,42512,1,0,0:0:0:0:
256,192,42575,1,8,0:0:0:0:
256,192,42700,1,0,0:0:0:0:
256,192,42762,1,8,0:0:0:0:
256,192,42825,1,0,0:0:0:0:
256,192,42950,1,8,0:0:0:0:
256,192,43075,1,0,0:0:0:0:
256,192,43137,1,8,0:0:0:0:
256,192,43262,1,8,0:0:0:0:
256,192,43325,1,8,0:0:0:0:
256,192,43387,1,0,0:0:0:0:
256,192,43450,1,8,0:0:0:0:
256,192,43512,1,0,0:0:0:0:
256,192,43575,1,0,0:0:0:0:
256,192,43637,1,8,0:0:0:0:
256,192,43700,1,0,0:0:0:0:
256,192,43762,1,8,0:0:0:0:
256,192,43825,1,8,0:0:0:0:
256,192,43887,1,0,0:0:0:0:
256,192,43950,1,8,0:0:0:0:
256,192,44012,1,0,0:0:0:0:
256,192,44075,1,8,0:0:0:0:
256,192,44200,1,8,0:0:0:0:
256,192,44262,1,0,0:0:0:0:
256,192,44325,1,8,0:0:0:0:
256,192,44450,1,0,0:0:0:0:
256,192,44575,1,8,0:0:0:0:
256,192,44637,1,8,0:0:0:0:
256,192,44700,1,0,0:0:0:0:
256,192,44825,1,8,0:0:0:0:
256,192,44950,1,0,0:0:0:0:
256,192,45075,1,8,0:0:0:0:
256,192,45200,1,8,0:0:0:0:
256,192,45262,1,0,0:0:0:0:
256,192,45387,1,8,0:0:0:0:
256,192,45450,1,0,0:0:0:0:
256,192,45512,1,8,0:0:0:0:
256,192,45637,1,0,0:0:0:0:
256,192,45700,1,8,0:0:0:0:
256,192,45762,1,0,0:0:0:0:
256,192,45825,1,8,0:0:0:0:
256,192,45887,1,8,0:0:0:0:
256,192,45950,1,0,0:0:0:0:
256,192,46075,1,8,0:0:0:0:
256,192,46200,1,0,0:0:0:0:
256,192,46325,1,8,0:0:0:0:
256,192,46450,1,0,0:0:0:0:
256,192,46575,1,0,0:0:0:0:
256,192,46700,1,8,0:0:0:0:
256,192,46825,1,0,0:0:0:0:
256,192,46950,1,8,0:0:0:0:
256,192,47075,1,8,0:0:0:0:
256,192,47325,1,8,0:0:0:0:
256,192,47450,1,8,0:0:0:0:
256,192,47700,1,8,0:0:0:0:
256,192,47825,1,8,0:0:0:0:
256,192,47950,1,8,0:0:0:0:
256,192,48075,1,0,0:0:0:0:
256,192,48137,1,8,0:0:0:0:
256,192,48200,1,0,0:0:0:0:
256,192,48262,1,8,0:0:0:0:
256,192,48325,1,8,0:0:0:0:
256,192,48387,1,0,0:0:0:0:
256,192,48450,1,0,0:0:0:0:
256,192,48512,1,8,0:0:0:0:
256,192,48575,1,0,0:0:0:0:
256,192,48637,1,8,0:0:0:0:
256,192,48700,1,8,0:0:0:0:
256,192,48762,1,8,0:0:0:0:
256,192,48825,1,0,0:0:0:0:
256,192,48887,1,0,0:0:0:0:
256,192,48950,1,8,0:0:0:0:
256,192,49012,1,8,0:0:0:0:
256,192,49075,1,0,0:0:0:0:
256,192,49137,1,8,0:0:0:0:
256,192,49200,1,0,0:0:0:0:
256,192,49262,1,0,0:0:0:0:
256,192,49325,1,8,0:0:0:0:
256,192,49450,1,8,0:0:0:0:
256,192,49512,1,0,0:0:0:0:
256,192,49575,1,8,0:0:0:0:
256,192,49700,1,0,0:0:0:0:
256,192,49825,1,0,0:0:0:0:
256,192,49950,1,8,0:0:0:0:
256,192,50012,1,0,0:0:0:0:
256,192,50075,1,8,0:0:0:0:
256,192,50200,1,0,0:0:0:0:
256,192,50325,1,0,0:0:0:0:
256,192,50450,1,8,0:0:0:0:
256,192,50512,1,8,0:0:0:0:
256,192,50575,1,0,0:0:0:0:
256,192,50637,1,8,0:0:0:0:
256,192,50700,1,8,0:0:0:0:
256,192,50762,1,0,0:0:0:0:
256,192,50825,1,0,0:0:0:0:
256,192,50887,1,8,0:0:0:0:
256,192,50950,1,0,0:0:0:0:
256,192,51012,1,8,0:0:0:0:
256,192,51075,1,0,0:0:0:0:
256,192,51137,1,8,0:0:0:0:
256,192,51200,1,8,0:0:0:0:
256,192,51262,1,0,0:0:0:0:
256,192,51325,1,8,0:0:0:0:
256,192,51387,1,0,0:0:0:0:
256,192,51450,1,8,0:0:0:0:
256,192,51512,1,0,0:0:0:0:
256,192,51575,1,8,0:0:0:0:
256,192,51637,1,8,0:0:0:0:
256,192,51700,1,0,0:0:0:0:
256,192,51825,1,8,0:0:0:0:
256,192,51950,1,8,0:0:0:0:
256,192,52075,1,0,0:0:0:0:
256,192,52325,1,8,0:0:0:0:
256,192,52450,1,8,0:0:0:0:
256,192,52575,1,0,0:0:0:0:
256,192,52700,1,8,0:0:0:0:
256,192,52825,1,0,0:0:0:0:
256,192,52950,1,0,0:0:0:0:
256,192,53075,1,8,0:0:0:0:
256,192,53325,1,0,0:0:0:0:
256,192,53575,1,8,0:0:0:0:
256,192,53825,1,0,0:0:0:0:
256,192,54075,1,0,0:0:0:0:
256,192,54325,1,8,0:0:0:0:
256,192,54575,1,8,0:0:0:0:
256,192,54700,1,8,0:0:0:0:
256,192,54825,1,0,0:0:0:0:
256,192,54950,1,8,0:0:0:0:
256,192,55075,1,0,0:0:0:0:
256,192,55325,1,8,0:0:0:0:
256,192,55450,1,0,0:0:0:0:
256,192,55700,1,0,0:0:0:0:
256,192,55825,1,0,0:0:0:0:
256,192,55950,1,8,0:0:0:0:
256,192,56075,1,0,0:0:0:0:
256,192,56262,1,0,0:0:0:0:
256,192,56450,1,0,0:0:0:0:
256,192,56700,1,0,0:0:0:0:
256,192,56825,1,0,0:0:0:0:
256,192,56950,1,0,0:0:0:0:
256,192,57075,1,0,0:0:0:0:
256,192,57200,1,0,0:0:0:0:
256,192,57325,1,0,0:0:0:0:
256,192,57700,1,0,0:0:0:0:
256,192,57825,1,0,0:0:0:0:
256,192,57950,1,0,0:0:0:0:
256,192,58075,1,0,0:0:0:0:
256,192,58200,1,0,0:0:0:0:
256,192,58325,1,0,0:0:0:0:
256,192,58450,1,0,0:0:0:0:
256,192,58575,1,0,0:0:0:0:
256,192,58825,1,0,0:0:0:0:
256,192,58950,1,0,0:0:0:0:
256,192,59075,1,0,0:0:0:0:
256,192,59200,1,0,0:0:0:0:
256,192,59325,1,0,0:0:0:0:
256,192,59450,1,0,0:0:0:0:
256,192,59700,1,0,0:0:0:0:
256,192,59950,1,0,0:0:0:0:
256,192,64075,1,0,0:0:0:0:
256,192,64325,1,0,0:0:0:0:
256,192,64450,1,0,0:0:0:0:
256,192,64637,1,0,0:0:0:0:
256,192,64762,1,0,0:0:0:0:
256,192,64950,1,0,0:0:0:0:
256,192,65075,1,0,0:0:0:0:
256,192,65200,1,0,0:0:0:0:
256,192,65325,1,0,0:0:0:0:
256,192,65450,1,0,0:0:0:0:
256,192,65575,1,0,0:0:0:0:
256,192,65700,1,0,0:0:0:0:
256,192,65887,1,0,0:0:0:0:
256,192,66012,1,0,0:0:0:0:
256,192,66137,1,0,0:0:0:0:
256,192,66325,1,0,0:0:0:0:
256,192,66512,1,0,0:0:0:0:
256,192,66762,1,0,0:0:0:0:
256,192,66887,1,0,0:0:0:0:
256,192,67075,1,0,0:0:0:0:
256,192,67262,1,0,0:0:0:0:
256,192,67450,1,0,0:0:0:0:
256,192,67762,1,0,0:0:0:0:
256,192,67887,1,0,0:0:0:0:
256,192,68012,1,0,0:0:0:0:
256,192,68200,1,0,0:0:0:0:
256,192,68450,1,0,0:0:0:0:
256,192,68700,1,0,0:0:0:0:
256,192,68825,1,0,0:0:0:0:
256,192,69012,1,0,0:0:0:0:
256,192,69200,1,0,0:0:0:0:
256,192,69512,1,0,0:0:0:0:
256,192,69825,1,0,0:0:0:0:
256,192,69950,1,0,0:0:0:0:
256,192,70075,1,0,0:0:0:0:
256,192,70262,1,0,0:0:0:0:
256,192,70387,1,0,0:0:0:0:
256,192,70450,1,0,0:0:0:0:
256,192,70700,1,0,0:0:0:0:
256,192,70950,1,0,0:0:0:0:
256,192,71200,1,0,0:0:0:0:
256,192,71325,1,0,0:0:0:0:
256,192,71700,1,0,0:0:0:0:
256,192,71825,1,0,0:0:0:0:
256,192,71950,1,0,0:0:0:0:
256,192,72075,1,0,0:0:0:0:
256,192,72325,1,0,0:0:0:0:
256,192,72450,1,0,0:0:0:0:
256,192,72637,1,0,0:0:0:0:
256,192,72887,1,0,0:0:0:0:
256,192,73012,1,0,0:0:0:0:
256,192,73200,1,0,0:0:0:0:
256,192,73325,1,0,0:0:0:0:
256,192,73512,1,0,0:0:0:0:
256,192,73762,1,0,0:0:0:0:
256,192,73887,1,0,0:0:0:0:
256,192,74012,1,0,0:0:0:0:
256,192,74200,1,0,0:0:0:0:
256,192,74450,1,0,0:0:0:0:
256,192,74700,1,0,0:0:0:0:
256,192,74825,1,0,0:0:0:0:
256,192,74950,1,0,0:0:0:0:
256,192,75137,1,0,0:0:0:0:
256,192,75325,1,0,0:0:0:0:
256,192,75512,1,0,0:0:0:0:
256,192,75700,1,0,0:0:0:0:
