osu file format v14

[General]
AudioFilename: audio.mp3
AudioLeadIn: 0
PreviewTime: -1
Countdown: 0
SampleSet: None
StackLeniency: 0.7
Mode: 0
LetterboxInBreaks: 0
WidescreenStoryboard: 0

[Editor]
DistanceSpacing: 1
BeatDivisor: 4
GridSize: 4
TimelineZoom: 1

[Metadata]
Title:Menned kell
TitleUnicode:Menned kell
Artist:Alee x Apu
ArtistUnicode:Alee x Apu
Creator:h-jtomi
Version:Normal
Source:
Tags:
BeatmapID:3383003
BeatmapSetID:1657435

[Difficulty]
HPDrainRate:5
CircleSize:5
OverallDifficulty:5
ApproachRate:6
SliderMultiplier:1.40000000596046
SliderTickRate:1

[Events]
//Background and Video events
//Break Periods
//Storyboard Layer 0 (Background)
//Storyboard Layer 1 (Fail)
//Storyboard Layer 2 (Pass)
//Storyboard Layer 3 (Foreground)
//Storyboard Layer 4 (Overlay)
//Storyboard Sound Samples

[TimingPoints]
407,324.324324324324,4,1,0,100,1,0
407,-100,4,1,0,100,0,0

[HitObjects]
96,95,731,5,0,0:0:0:0:
207,179,1055,1,0,0:0:0:0:
410,99,2028,1,0,0:0:0:0:
297,182,2352,1,0,0:0:0:0:
180,299,3325,5,0,0:0:0:0:
320,297,3650,1,0,0:0:0:0:
171,141,4298,6,0,L|320:140,3,140.000000596046
85,68,5920,5,0,0:0:0:0:
85,207,6244,1,0,0:0:0:0:
434,77,7217,1,0,0:0:0:0:
437,217,7542,1,0,0:0:0:0:
257,65,8515,5,0,0:0:0:0:
255,204,8839,1,0,0:0:0:0:
113,38,9488,2,0,P|110:156|112:157,3,140.000000596046
231,211,10785,6,0,P|278:130|275:128,1,140.000000596046
164,43,11434,1,0,0:0:0:0:
85,158,11758,2,0,P|181:187|182:185,1,140.000000596046
275,87,12406,5,0,0:0:0:0:
421,92,12731,2,0,P|409:168|396:162,1,140.000000596046
275,87,13379,5,0,0:0:0:0:
140,91,13704,2,0,P|48:100|49:118,1,140.000000596046
137,220,14352,1,0,0:0:0:0:
276,230,14677,2,0,P|373:206|372:203,1,140.000000596046
360,88,15325,1,0,0:0:0:0:
220,77,15650,2,0,P|157:142|161:146,1,140.000000596046
155,248,16298,5,0,0:0:0:0:
232,321,16623,2,0,P|308:323|303:310,1,140.000000596046
321,202,17271,1,0,0:0:0:0:
381,144,17596,6,0,P|431:89|417:84,1,140.000000596046
289,52,18244,1,0,0:0:0:0:
149,68,18569,2,0,P|84:139|92:147,1,140.000000596046
78,242,19217,5,0,0:0:0:0:
159,299,19542,2,0,P|183:212|174:212,1,140.000000596046
139,129,20190,1,0,0:0:0:0:
235,66,20515,2,0,P|284:122|256:132,1,140.000000596046
295,267,21163,5,0,0:0:0:0:
435,275,21488,1,0,0:0:0:0:
433,135,21812,2,0,P|212:163|211:167,1,280.000001192092
103,71,22785,5,0,0:0:0:0:
83,209,23109,2,0,P|284:288|288:283,1,280.000001192092
378,189,24082,1,0,0:0:0:0:
258,115,24406,2,0,L|147:220,1,140.000000596046
195,269,24893,1,0,0:0:0:0:
243,320,25055,6,0,L|388:319,1,140.000000596046
383,178,25704,2,0,L|236:178,1,140.000000596046
103,188,26352,1,0,0:0:0:0:
78,49,26677,5,0,0:0:0:0:
217,64,27001,2,0,P|365:256|364:260,1,280.000001192092
259,164,27974,5,0,0:0:0:0:
119,169,28298,2,0,P|275:328|279:326,1,280.000001192092
380,254,29271,5,0,0:0:0:0:
422,120,29596,2,0,P|321:108|321:116,1,140.000000596046
295,147,30082,1,0,0:0:0:0:
266,210,30244,2,0,P|172:173|174:168,1,140.000000596046
176,46,30893,6,0,P|67:87|61:82,1,140.000000596046
92,81,34136,5,0,0:0:0:0:
431,328,35109,1,0,0:0:0:0:
407,119,35596,1,0,0:0:0:0:
243,250,36082,1,0,0:0:0:0:
228,59,36731,5,0,0:0:0:0:
98,75,37704,1,0,0:0:0:0:
100,144,37866,1,0,0:0:0:0:
247,293,38352,1,0,0:0:0:0:
353,109,39325,5,0,0:0:0:0:
177,84,40298,1,0,0:0:0:0:
245,282,40785,1,0,0:0:0:0:
388,128,41271,1,0,0:0:0:0:
111,80,41920,6,0,L|253:78,1,140.000000596046
128,145,42569,2,0,L|270:144,1,140.000000596046
146,212,43217,2,0,L|305:213,1,140.000000596046
165,284,43866,2,0,L|316:284,1,140.000000596046
182,351,44515,2,0,L|327:350,1,140.000000596046
198,284,45163,2,0,L|343:283,1,140.000000596046
215,214,45812,2,0,L|369:213,1,140.000000596046
232,145,46461,2,0,L|384:144,1,140.000000596046
249,76,47109,6,0,P|371:75|374:80,1,140.000000596046
414,233,47920,1,0,0:0:0:0:
361,278,48082,6,0,L|278:298,1,70.000000298023
226,271,48406,2,0,L|165:222,1,70.000000298023
145,161,48731,2,0,L|178:82,1,70.000000298023
310,77,49217,6,0,P|344:233|340:235,1,210.000000894069
142,272,50190,6,0,P|148:104|152:103,1,210.000000894069
272,75,51001,6,0,L|290:155,1,70.000000298023
287,213,51325,2,0,L|246:276,1,70.000000298023
73,56,52298,6,0,P|200:163|202:159,1,280.000001192092
128,120,53596,2,0,P|250:254|234:265,1,280.000001192092
87,79,54893,6,0,L|230:80,1,140.000000596046
267,214,55542,2,0,L|393:285,1,140.000000596046
454,159,56190,2,0,L|320:88,1,140.000000596046
193,126,56839,2,0,L|67:223,1,140.000000596046
205,277,57488,6,0,L|368:234,1,140.000000596046
480,237,58136,2,0,L|414:102,1,140.000000596046
291,52,58785,2,0,L|350:191,1,140.000000596046
409,305,59434,2,0,L|241:324,1,140.000000596046
130,325,60082,2,0,L|97:173,1,140.000000596046
175,69,60731,2,0,L|259:194,1,140.000000596046
62,76,62677,6,0,L|157:79,1,70.000000298023
201,81,63001,1,0,0:0:0:0:
270,82,63163,2,0,L|363:81,1,70.000000298023
410,81,63488,1,0,0:0:0:0:
416,150,63650,2,0,L|411:229,1,70.000000298023
341,215,63974,1,0,0:0:0:0:
334,145,64136,2,0,L|239:146,1,70.000000298023
263,216,64461,1,0,0:0:0:0:
193,217,64623,1,0,0:0:0:0:
121,145,64947,1,0,0:0:0:0:
68,98,65109,2,0,L|42:169,1,70.000000298023
78,225,65434,1,0,0:0:0:0:
115,289,65596,2,0,L|38:287,1,70.000000298023
46,357,65920,1,0,0:0:0:0:
115,359,66082,2,0,L|195:358,1,70.000000298023
186,288,66406,1,0,0:0:0:0:
256,286,66569,2,0,L|253:362,1,70.000000298023
323,353,66893,1,0,0:0:0:0:
325,283,67055,2,0,L|401:284,1,70.000000298023
460,159,67542,6,0,L|402:98,1,70.000000298023
355,66,67866,1,0,0:0:0:0:
285,66,68028,2,0,L|194:84,1,70.000000298023
234,147,68352,1,0,0:0:0:0:
304,152,68515,2,0,L|393:192,1,70.000000298023
426,219,68839,1,0,0:0:0:0:
389,278,69001,2,0,L|291:283,1,70.000000298023
262,323,69325,1,0,0:0:0:0:
193,308,69488,2,0,L|63:219,1,140.000000596046
77,89,70136,6,0,L|167:90,1,70.000000298023
217,94,70461,1,0,0:0:0:0:
286,97,70623,2,0,L|361:98,1,70.000000298023
425,99,70947,1,0,0:0:0:0:
429,168,71109,2,0,L|428:242,1,70.000000298023
427,308,71434,1,0,0:0:0:0:
357,313,71596,2,0,L|266:313,1,70.000000298023
217,312,71920,1,0,0:0:0:0:
147,308,72082,2,0,L|54:307,1,70.000000298023
75,237,72406,1,0,0:0:0:0:
82,96,72731,6,0,L|161:80,1,70.000000298023
220,87,73055,1,0,0:0:0:0:
261,220,73379,5,0,0:0:0:0:
371,306,73704,2,0,P|408:238|404:237,1,140.000000596046
365,104,74352,1,0,0:0:0:0:
231,60,74677,2,0,P|137:78|138:89,1,140.000000596046
131,224,75325,1,0,0:0:0:0:
233,319,75650,2,0,P|327:278|326:275,1,140.000000596046
400,167,76298,1,0,0:0:0:0:
325,48,76623,5,0,0:0:0:0:
256,62,76785,1,0,0:0:0:0:
188,76,76947,2,0,P|165:155|179:156,3,140.000000596046
435,58,78569,5,0,0:0:0:0:
369,181,78893,2,0,L|322:316,1,140.000000596046
183,302,79542,1,0,0:0:0:0:
162,163,79866,2,0,L|303:208,1,140.000000596046
431,238,80515,1,0,0:0:0:0:
425,98,80839,2,0,L|269:65,1,140.000000596046
147,68,81488,1,0,0:0:0:0:
96,198,81812,2,0,L|133:269,1,70.000000298023
188,295,82136,1,0,0:0:0:0:
328,290,82461,2,0,L|426:189,3,140.000000596046
117,108,84406,5,0,0:0:0:0:
187,111,84569,2,0,L|278:112,1,70.000000298023
140,286,85217,6,0,L|237:285,2,70.000000298023
69,286,85704,1,0,0:0:0:0:
391,106,87001,6,0,L|242:107,1,140.000000596046
110,115,87650,1,0,0:0:0:0:
107,254,87974,2,0,L|275:252,1,140.000000596046
386,264,88623,1,0,0:0:0:0:
387,97,89271,5,0,0:0:0:0:
267,95,89596,1,0,0:0:0:0:
167,92,89920,1,0,0:0:0:0:
129,208,90244,1,0,0:0:0:0:
89,332,90569,1,0,0:0:0:0:
166,36,91217,5,0,0:0:0:0:
257,303,91866,1,0,0:0:0:0:
412,113,92515,1,0,0:0:0:0:
171,255,93163,1,0,0:0:0:0:
406,102,93812,5,0,0:0:0:0:
266,107,94136,1,0,0:0:0:0:
125,101,94461,2,0,L|93:242,1,140.000000596046
188,340,95109,5,0,0:0:0:0:
294,248,95434,1,0,0:0:0:0:
397,342,95758,2,0,L|424:201,1,140.000000596046
434,65,96406,5,0,0:0:0:0:
336,166,96731,1,0,0:0:0:0:
264,45,97055,2,0,L|110:47,1,140.000000596046
66,174,97704,5,0,0:0:0:0:
205,175,98028,1,0,0:0:0:0:
211,314,98352,2,0,L|325:211,1,140.000000596046
413,120,99001,5,0,0:0:0:0:
285,62,99325,1,0,0:0:0:0:
145,49,99650,2,0,P|87:129|101:141,1,140.000000596046
220,187,100298,5,0,0:0:0:0:
348,243,100623,1,0,0:0:0:0:
467,316,100947,2,0,L|320:340,1,140.000000596046
188,343,101596,5,0,0:0:0:0:
52,310,101920,1,0,0:0:0:0:
152,212,102244,2,0,P|251:236|251:237,1,140.000000596046
334,349,102893,5,0,0:0:0:0:
445,264,103217,1,0,0:0:0:0:
427,124,103542,2,0,L|295:182,1,140.000000596046
170,125,104190,5,0,0:0:0:0:
345,301,105488,1,0,0:0:0:0:
66,324,106136,1,0,0:0:0:0:
275,137,106785,5,0,0:0:0:0:
250,298,108082,1,0,0:0:0:0:
428,170,109379,1,0,0:0:0:0:
170,113,110677,1,0,0:0:0:0:
445,64,111325,1,0,0:0:0:0:
212,219,111974,5,0,0:0:0:0:
83,82,113271,2,0,L|129:166,7,70.000000298023
150,204,114569,5,0,0:0:0:0:
219,210,114731,2,0,L|299:210,1,70.000000298023
358,212,115055,1,0,0:0:0:0:
427,212,115217,2,0,L|463:141,1,70.000000298023
453,79,115542,1,0,0:0:0:0:
390,46,115704,2,0,L|319:92,1,70.000000298023
262,98,116028,1,0,0:0:0:0:
193,111,116190,2,0,L|103:143,1,70.000000298023
66,169,116515,1,0,0:0:0:0:
118,298,116839,5,0,0:0:0:0:
187,302,117001,2,0,L|261:332,1,70.000000298023
321,327,117325,1,0,0:0:0:0:
390,314,117488,2,0,L|446:246,1,70.000000298023
445,190,117812,1,0,0:0:0:0:
441,120,117974,2,0,L|391:51,1,70.000000298023
331,51,118298,1,0,0:0:0:0:
320,120,118461,2,0,L|334:200,1,70.000000298023
312,256,118785,1,0,0:0:0:0:
259,301,118947,2,0,L|191:340,1,70.000000298023
113,223,119434,5,0,0:0:0:0:
98,154,119596,2,0,L|70:73,1,70.000000298023
119,33,119920,1,0,0:0:0:0:
188,37,120082,2,0,L|284:40,1,70.000000298023
327,43,120406,1,0,0:0:0:0:
397,47,120569,2,0,L|454:102,1,70.000000298023
449,165,120893,1,0,0:0:0:0:
407,221,121055,2,0,L|344:283,1,70.000000298023
289,288,121379,1,0,0:0:0:0:
157,238,121704,1,0,0:0:0:0:
104,108,122028,6,0,L|187:94,1,70.000000298023
241,82,122352,1,0,0:0:0:0:
311,79,122515,2,0,L|380:150,1,70.000000298023
402,184,122839,1,0,0:0:0:0:
392,253,123001,2,0,L|353:318,1,70.000000298023
295,277,123325,1,0,0:0:0:0:
307,207,123488,2,0,L|247:153,1,70.000000298023
200,204,123812,1,0,0:0:0:0:
160,261,123974,2,0,L|113:327,1,70.000000298023
72,266,124298,1,0,0:0:0:0:
72,125,124623,6,0,L|149:98,1,70.000000298023
204,80,124947,1,0,0:0:0:0:
325,149,125271,2,0,P|363:243|358:245,1,140.000000596046
144,263,126569,6,0,P|130:184|131:184,1,140.000000596046
159,131,127866,2,0,P|231:121|220:141,1,140.000000596046
424,316,128839,2,0,L|263:315,3,140.000000596046
456,93,130461,6,0,P|389:167|398:173,1,140.000000596046
223,120,131758,6,0,P|220:201|228:200,1,140.000000596046
337,146,133055,6,0,P|340:226|330:224,1,140.000000596046
117,300,134028,6,0,P|198:215|200:216,1,140.000000596046
319,247,134677,1,0,0:0:0:0:
417,148,135001,2,0,P|308:107|304:111,1,140.000000596046,0|14,0:0|0:0,0:0:0:0:
