osu file format v14

[General]
AudioFilename: audio.mp3
AudioLeadIn: 0
PreviewTime: -1
Countdown: 0
SampleSet: None
StackLeniency: 0.7
Mode: 0
LetterboxInBreaks: 0
WidescreenStoryboard: 0

[Editor]
Bookmarks: 3083,6179,12373,37147,43341,63470,68649
DistanceSpacing: 1.2
BeatDivisor: 4
GridSize: 4
TimelineZoom: 1

[Metadata]
Title:Trailer II
TitleUnicode:Trailer II
Artist:Alec Holowka
ArtistUnicode:Alec Holowka
Creator:Xelasto
Version:Insane
Source:Night in the Woods
Tags:
BeatmapID:1684661
BeatmapSetID:802579

[Difficulty]
HPDrainRate:6
CircleSize:4
OverallDifficulty:7
ApproachRate:9
SliderMultiplier:1.9
SliderTickRate:1

[Events]
//Background and Video events
0,0,"805312.jpg",0,0
//Break Periods
//Storyboard Layer 0 (Background)
//Storyboard Layer 1 (Fail)
//Storyboard Layer 2 (Pass)
//Storyboard Layer 3 (Foreground)
//Storyboard Sound Samples

[TimingPoints]
3081,387.096774193548,4,1,0,60,1,0
3081,-100,4,2,0,20,0,0
4629,-100,4,2,0,40,0,0
6177,-83.3333333333333,4,3,0,60,0,1
12371,-125,4,3,0,40,0,0
38306,-100,4,3,0,60,0,0
38500,-100,4,3,0,40,0,0
39855,-100,4,3,0,60,0,0
40048,-100,4,3,0,40,0,0
40629,-100,4,3,0,60,0,0
40822,-100,4,3,0,40,0,0
41403,-100,4,3,0,60,0,0
41597,-100,4,3,0,40,0,0
43339,-100,4,3,0,60,0,1
61919,-100,4,3,0,60,0,0
63470,416.666666666667,4,3,0,60,1,0
64303,458.015267175573,4,3,0,60,1,0
65219,857.142857142857,4,3,0,60,1,0
66933,869.565217391304,4,3,0,60,1,0
69082,-100,4,3,0,5,0,0

[Colours]
Combo1 : 7,145,152
Combo2 : 125,0,3
Combo3 : 252,129,129
Combo4 : 180,250,248

[HitObjects]
168,312,3081,5,2,0:0:0:0:
376,280,3468,1,0,0:0:0:0:
344,72,3854,1,0,0:0:0:0:
136,104,4242,1,0,0:0:0:0:
280,336,4629,5,2,0:0:0:0:
404,168,5016,1,0,0:0:0:0:
232,48,5402,1,0,0:0:0:0:
108,216,5790,1,0,0:0:0:0:
280,336,6177,6,0,L|404:332,1,113.999996520996,4|0,0:0|0:0,0:0:0:0:
104,208,6564,1,2,0:0:0:0:
336,256,6758,2,0,L|460:252,1,113.999996520996,4|0,0:0|0:0,0:0:0:0:
100,200,7145,1,4,0:0:0:0:
372,168,7339,1,2,0:0:0:0:
372,124,7435,1,0,0:0:0:0:
348,84,7532,1,8,0:0:0:0:
308,60,7629,1,0,0:0:0:0:
264,56,7726,6,0,L|148:60,1,113.999996520996,4|0,0:0|0:0,0:0:0:0:
405,252,8113,1,2,0:0:0:0:
196,132,8306,2,0,L|80:136,1,113.999996520996,4|0,0:0|0:0,0:0:0:0:
408,264,8693,1,4,0:0:0:0:
124,208,8887,2,0,L|0:216,1,113.999996520996,2|8,0:0|0:0,0:0:0:0:
260,344,9274,6,0,L|376:336,1,113.999996520996,4|0,0:0|0:0,0:0:0:0:
176,132,9661,1,2,0:0:0:0:
294,271,9855,2,0,L|410:263,1,113.999996520996,4|0,0:0|0:0,0:0:0:0:
168,124,10242,1,4,0:0:0:0:
407,263,10435,1,2,0:0:0:0:
428,216,10532,1,0,0:0:0:0:
428,164,10629,1,8,0:0:0:0:
412,116,10726,1,0,0:0:0:0:
380,76,10822,6,0,L|264:64,1,113.999996520996,4|0,0:0|0:0,0:0:0:0:
96,48,11210,1,2,0:0:0:0:
12,196,11403,2,0,L|136:212,1,113.999996520996,4|0,0:0|0:0,0:0:0:0:
312,172,11790,1,6,0:0:0:0:
398,356,11984,1,6,0:0:0:0:
194,339,12177,1,14,0:0:0:0:
312,172,12371,6,0,P|344:160|392:156,1,76,4|0,0:0|0:0,0:0:0:0:
260,48,12758,1,8,0:0:0:0:
176,128,12951,1,2,0:0:0:0:
132,116,13048,1,0,0:0:0:0:
88,120,13145,1,2,0:0:0:0:
52,152,13242,1,0,0:0:0:0:
40,196,13339,1,0,0:0:0:0:
100,304,13532,2,0,P|135:313|188:316,1,76,8|0,0:0|0:0,0:0:0:0:
380,244,13919,6,0,P|344:253|292:256,1,76,2|0,0:0|0:0,0:0:0:0:
175,203,14306,2,0,P|178:165|175:127,1,76,8|0,0:0|0:0,0:0:0:0:
276,60,14693,1,2,0:0:0:0:
396,88,14887,1,2,0:0:0:0:
464,188,15081,1,10,0:0:0:0:
440,308,15274,1,2,0:0:0:0:
320,336,15468,6,0,L|240:332,1,76,2|0,0:0|0:0,0:0:0:0:
120,312,15855,1,8,0:0:0:0:
44,220,16048,1,2,0:0:0:0:
84,200,16145,1,0,0:0:0:0:
128,192,16242,1,2,0:0:0:0:
172,204,16339,1,0,0:0:0:0:
208,232,16435,1,0,0:0:0:0:
320,336,16629,2,0,L|332:260,1,76,8|0,0:0|0:0,0:0:0:0:
436,32,17016,6,0,L|420:120,1,76,2|0,0:0|0:0,0:0:0:0:
224,148,17403,2,0,L|312:164,1,76,8|0,0:0|0:0,0:0:0:0:
424,288,17790,1,2,0:0:0:0:
316,340,17984,1,2,0:0:0:0:
196,340,18177,1,10,0:0:0:0:
88,288,18371,1,2,0:0:0:0:
244,160,18564,6,0,L|328:140,1,76,2|0,0:0|0:0,0:0:0:0:
88,288,18951,1,8,0:0:0:0:
348,216,19145,1,2,0:0:0:0:
300,228,19242,1,0,0:0:0:0:
252,240,19339,1,2,0:0:0:0:
208,252,19435,1,0,0:0:0:0:
164,264,19532,1,0,0:0:0:0:
348,216,19726,2,0,L|432:196,1,76,8|0,0:0|0:0,0:0:0:0:
164,264,20113,6,0,P|144:220|148:160,1,76,2|0,0:0|0:0,0:0:0:0:
348,216,20500,2,0,P|368:260|364:320,1,76,8|0,0:0|0:0,0:0:0:0:
84,104,20887,1,2,0:0:0:0:
184,32,21081,1,2,0:0:0:0:
304,32,21274,1,2,0:0:0:0:
404,104,21468,1,2,0:0:0:0:
264,208,21661,6,0,L|184:216,1,76,2|0,0:0|0:0,0:0:0:0:
424,280,22048,1,8,0:0:0:0:
156,320,22242,1,2,0:0:0:0:
200,316,22339,1,0,0:0:0:0:
244,312,22435,1,2,0:0:0:0:
288,308,22532,1,0,0:0:0:0:
332,300,22629,1,0,0:0:0:0:
156,320,22822,2,0,L|168:244,1,76,8|0,0:0|0:0,0:0:0:0:
256,44,23210,6,0,L|240:132,1,76,2|0,0:0|0:0,0:0:0:0:
288,308,23597,2,0,L|308:208,1,76,8|0,0:0|0:0,0:0:0:0:
344,28,23984,1,2,0:0:0:0:
440,100,24177,1,2,0:0:0:0:
424,220,24371,1,10,0:0:0:0:
302,233,24564,1,2,0:0:0:0:
256,120,24758,6,0,L|172:116,1,76,2|0,0:0|0:0,0:0:0:0:
104,212,25145,1,8,0:0:0:0:
168,316,25339,1,2,0:0:0:0:
212,332,25435,1,0,0:0:0:0:
256,336,25532,1,2,0:0:0:0:
300,328,25629,1,0,0:0:0:0:
344,312,25726,1,0,0:0:0:0:
96,268,25919,2,0,L|184:280,1,76,8|0,0:0|0:0,0:0:0:0:
368,248,26306,6,0,L|288:236,1,76,2|0,0:0|0:0,0:0:0:0:
212,188,26693,2,0,L|224:96,1,76,8|0,0:0|0:0,0:0:0:0:
312,76,27081,1,2,0:0:0:0:
408,84,27274,1,2,0:0:0:0:
456,180,27468,1,10,0:0:0:0:
420,280,27661,1,2,0:0:0:0:
304,328,27855,6,0,L|224:324,1,76,2|0,0:0|0:0,0:0:0:0:
108,320,28242,1,8,0:0:0:0:
24,212,28435,1,2,0:0:0:0:
32,180,28532,1,0,0:0:0:0:
48,172,28629,1,2,0:0:0:0:
80,176,28726,1,0,0:0:0:0:
96,196,28822,1,0,0:0:0:0:
208,248,29016,2,0,L|220:172,1,76,8|0,0:0|0:0,0:0:0:0:
348,68,29403,6,0,L|332:156,1,76,2|0,0:0|0:0,0:0:0:0:
320,308,29790,2,0,L|240:312,1,76,8|0,0:0|0:0,0:0:0:0:
104,292,30177,1,2,0:0:0:0:
120,176,30371,1,2,0:0:0:0:
196,124,30564,1,10,0:0:0:0:
300,124,30758,1,2,0:0:0:0:
376,104,30951,6,0,L|456:88,1,76,2|0,0:0|0:0,0:0:0:0:
260,48,31339,1,8,0:0:0:0:
176,128,31532,1,2,0:0:0:0:
132,116,31629,1,0,0:0:0:0:
88,120,31726,1,2,0:0:0:0:
52,152,31822,1,0,0:0:0:0:
40,196,31919,1,0,0:0:0:0:
96,268,32113,2,0,L|184:280,1,76,8|0,0:0|0:0,0:0:0:0:
368,248,32500,6,0,L|288:236,1,76,2|0,0:0|0:0,0:0:0:0:
212,188,32887,2,0,L|224:96,1,76,8|0,0:0|0:0,0:0:0:0:
312,76,33274,1,2,0:0:0:0:
408,84,33468,1,2,0:0:0:0:
456,180,33661,1,10,0:0:0:0:
420,280,33855,1,2,0:0:0:0:
304,328,34048,6,0,L|224:324,1,76,2|0,0:0|0:0,0:0:0:0:
108,320,34435,1,8,0:0:0:0:
24,212,34629,1,2,0:0:0:0:
32,180,34726,1,0,0:0:0:0:
48,172,34822,1,2,0:0:0:0:
80,176,34919,1,0,0:0:0:0:
96,196,35016,1,0,0:0:0:0:
208,248,35210,2,0,L|220:172,1,76,8|0,0:0|0:0,0:0:0:0:
348,68,35597,6,0,L|332:156,1,76,2|0,0:0|0:0,0:0:0:0:
320,308,35984,2,0,L|240:312,1,76,8|0,0:0|0:0,0:0:0:0:
104,292,36371,1,2,0:0:0:0:
120,176,36564,1,2,0:0:0:0:
196,124,36758,1,10,0:0:0:0:
248,120,36855,1,0,0:0:0:0:
300,124,36951,1,0,0:0:0:0:
416,180,37145,6,0,L|348:224,1,76,6|0,0:0|0:0,0:0:0:0:
168,284,37532,2,0,L|232:236,1,76
332,96,37919,2,0,L|248:132,1,76
136,152,38306,1,2,0:0:0:0:
136,68,38500,1,0,0:0:0:0:
416,180,38693,6,0,L|332:238,1,95
168,284,39081,2,0,L|260:227,1,95
332,96,39468,2,0,L|221:157,1,95
136,152,39855,1,2,0:0:0:0:
136,68,40048,1,0,0:0:0:0:
352,164,40242,6,0,L|381:270,1,95
288,292,40629,1,2,0:0:0:0:
180,284,40822,1,0,0:0:0:0:
352,164,41016,6,0,L|380:267,1,95
288,292,41403,1,2,0:0:0:0:
180,284,41597,1,0,0:0:0:0:
372,168,41790,6,0,L|267:176,1,95
64,168,42177,2,0,L|176:162,1,95,2|2,0:0|0:0,0:0:0:0:
376,96,42564,1,10,0:0:0:0:
344,100,42661,1,0,0:0:0:0:
300,100,42758,1,2,0:0:0:0:
60,64,42951,2,2,L|167:62,1,95
296,52,43339,5,4,0:0:0:0:
364,184,43532,1,0,0:0:0:0:
368,208,43629,1,0,0:0:0:0:
372,232,43726,1,8,0:0:0:0:
287,307,43919,2,0,B|163:308|163:308|175:243,1,190,12|4,0:0|0:0,0:0:0:0:
356,196,44500,2,0,L|385:296,1,95,2|8,0:0|0:0,0:0:0:0:
380,152,44887,5,4,0:0:0:0:
208,188,45081,1,0,0:0:0:0:
208,188,45177,1,0,0:0:0:0:
208,188,45274,1,8,0:0:0:0:
76,136,45468,1,12,0:0:0:0:
169,32,45661,2,0,L|218:76,1,47.5
228,168,45855,2,0,L|264:136,1,47.5,4|0,0:0|0:0,0:0:0:0:
306,26,46048,2,0,L|346:66,1,47.5,2|0,0:0|0:0,0:0:0:0:
328,188,46242,2,0,L|360:152,1,47.5,2|0,0:0|0:0,0:0:0:0:
296,52,46435,5,4,0:0:0:0:
364,184,46628,1,0,0:0:0:0:
368,208,46725,1,0,0:0:0:0:
372,232,46822,1,8,0:0:0:0:
288,308,47015,2,0,B|162:305|162:305|189:235,1,190,12|4,0:0|0:0,0:0:0:0:
356,196,47596,2,0,L|387:291,1,95,2|8,0:0|0:0,0:0:0:0:
380,152,47983,5,4,0:0:0:0:
208,188,48177,1,0,0:0:0:0:
208,188,48273,1,0,0:0:0:0:
208,188,48370,1,8,0:0:0:0:
76,136,48564,1,12,0:0:0:0:
199,40,48758,2,0,L|241:81,1,47.5
228,168,48951,2,0,L|264:136,1,47.5,12|0,0:0|0:0,0:0:0:0:
301,31,49145,2,0,L|337:68,1,47.5,2|0,0:0|0:0,0:0:0:0:
328,188,49338,2,0,L|360:152,1,47.5,8|0,0:0|0:0,0:0:0:0:
296,52,49532,5,4,0:0:0:0:
364,184,49725,1,0,0:0:0:0:
368,208,49822,1,0,0:0:0:0:
372,232,49919,1,8,0:0:0:0:
288,308,50112,2,0,B|175:308|175:308|213:229,1,190,12|4,0:0|0:0,0:0:0:0:
356,196,50693,2,0,L|382:294,1,95,2|8,0:0|0:0,0:0:0:0:
380,152,51080,5,4,0:0:0:0:
208,188,51274,1,0,0:0:0:0:
208,188,51370,1,0,0:0:0:0:
208,188,51467,1,8,0:0:0:0:
76,136,51661,1,12,0:0:0:0:
192,38,51855,2,0,L|234:77,1,47.5
228,168,52048,2,0,L|264:136,1,47.5,4|0,0:0|0:0,0:0:0:0:
302,28,52242,2,0,L|342:70,1,47.5,2|0,0:0|0:0,0:0:0:0:
328,188,52435,2,0,L|360:152,1,47.5,2|0,0:0|0:0,0:0:0:0:
296,52,52629,5,4,0:0:0:0:
364,184,52822,1,0,0:0:0:0:
368,208,52919,1,0,0:0:0:0:
372,232,53016,1,8,0:0:0:0:
288,308,53209,2,0,B|163:316|163:316|205:246,1,190,12|4,0:0|0:0,0:0:0:0:
356,196,53790,2,0,L|388:289,1,95,2|8,0:0|0:0,0:0:0:0:
380,152,54177,5,4,0:0:0:0:
208,188,54371,1,0,0:0:0:0:
208,188,54467,1,0,0:0:0:0:
208,188,54564,1,8,0:0:0:0:
76,136,54758,1,12,0:0:0:0:
187,36,54951,2,0,L|225:72,1,47.5
228,168,55145,2,0,L|264:136,1,47.5,12|0,0:0|0:0,0:0:0:0:
293,22,55339,2,0,L|331:66,1,47.5,2|0,0:0|0:0,0:0:0:0:
328,188,55532,2,0,L|358:146,1,47.5,8|0,0:0|0:0,0:0:0:0:
296,52,55726,5,4,0:0:0:0:
364,184,55919,1,0,0:0:0:0:
368,208,56016,1,0,0:0:0:0:
372,232,56113,1,8,0:0:0:0:
288,308,56306,2,0,B|161:319|161:319|220:230,1,190,12|4,0:0|0:0,0:0:0:0:
356,196,56887,2,0,L|385:294,1,95,2|8,0:0|0:0,0:0:0:0:
380,152,57274,5,4,0:0:0:0:
208,188,57468,1,0,0:0:0:0:
208,188,57564,1,0,0:0:0:0:
208,188,57661,1,8,0:0:0:0:
76,136,57855,1,12,0:0:0:0:
174,46,58048,2,0,L|215:83,1,47.5
228,168,58242,2,0,L|264:136,1,47.5,4|0,0:0|0:0,0:0:0:0:
298,42,58435,2,0,L|330:83,1,47.5,2|0,0:0|0:0,0:0:0:0:
328,188,58629,2,0,L|360:152,1,47.5,2|0,0:0|0:0,0:0:0:0:
296,52,58822,5,4,0:0:0:0:
404,276,59016,1,0,0:0:0:0:
368,208,59112,1,0,0:0:0:0:
277,213,59210,1,2,0:0:0:0:
404,276,59403,2,0,P|336:336|222:321,1,190,12|4,0:0|0:0,0:0:0:0:
352,172,59984,2,0,L|461:184,1,95,2|8,0:0|0:0,0:0:0:0:
72,104,60371,5,4,0:0:0:0:
208,188,60564,1,0,0:0:0:0:
208,188,60660,1,0,0:0:0:0:
208,188,60757,1,8,0:0:0:0:
76,136,60951,1,12,0:0:0:0:
194,37,61145,2,0,L|232:75,1,47.5
228,168,61338,2,0,L|264:136,1,47.5,4|0,0:0|0:0,0:0:0:0:
317,44,61532,2,0,L|348:81,1,47.5,2|0,0:0|0:0,0:0:0:0:
328,188,61725,2,0,L|360:152,1,47.5,8|0,0:0|0:0,0:0:0:0:
96,124,61919,5,4,0:0:0:0:
144,224,62113,1,4,0:0:0:0:
228,120,62306,1,4,0:0:0:0:
272,212,62500,2,0,L|461:227,1,190,4|4,0:0|0:0,0:0:0:0:
300,320,63081,2,0,L|202:311,1,95,2|8,0:0|0:0,0:0:0:0:
76,120,63468,6,0,L|192:139,1,95,4|4,0:0|0:0,0:0:0:0:
360,192,63886,2,0,L|248:211,1,95,4|4,0:0|0:0,0:0:0:0:
72,260,64303,2,0,L|168:268,1,95,4|4,0:0|0:0,0:0:0:0:
376,288,64761,2,0,L|279:301,1,95,12|0,0:0|0:0,0:0:0:0:
112,320,65219,6,0,L|179:224,2,95,12|8|0,0:0|0:0|0:0,0:0:0:0:
252,288,66933,6,0,L|189:200,2,95,12|8|0,0:0|0:0|0:0,0:0:0:0:
256,188,68672,5,12,0:0:0:0:
256,192,68889,12,0,77367,0:0:0:0:
