osu file format v14

[General]
AudioFilename: audio.mp3
AudioLeadIn: 0
PreviewTime: -1
Countdown: 1
SampleSet: Normal
StackLeniency: 0.7
Mode: 3
LetterboxInBreaks: 0
SpecialStyle: 0
WidescreenStoryboard: 0

[Editor]
Bookmarks: 139800
DistanceSpacing: 0.8
BeatDivisor: 8
GridSize: 32
TimelineZoom: 2.4

[Metadata]
Title:Violeta
TitleUnicode:Violeta
Artist:Alcides
ArtistUnicode:Alcides
Creator:Ezze
Version:Terremoto
Source:DJ BRIAN MIX
Tags:DJ BRIAN MIX Alcides Violeta Ezze
BeatmapID:3242677
BeatmapSetID:1587759

[Difficulty]
HPDrainRate:8
CircleSize:4
OverallDifficulty:8
ApproachRate:5
SliderMultiplier:1.4
SliderTickRate:1

[Events]
//Background and Video events
0,0,"bg.jpg",0,0
//Break Periods
//Storyboard Layer 0 (Background)
//Storyboard Layer 1 (Fail)
//Storyboard Layer 2 (Pass)
//Storyboard Layer 3 (Foreground)
//Storyboard Layer 4 (Overlay)
//Storyboard Sound Samples

[TimingPoints]
1400,400,4,1,0,100,1,0

[HitObjects]
448,192,1400,5,0,0:0:0:0:
192,192,1400,1,0,0:0:0:0:
64,192,1400,1,0,0:0:0:0:
320,192,1500,1,0,0:0:0:0:
192,192,1600,1,0,0:0:0:0:
320,192,1800,1,0,0:0:0:0:
448,192,1800,1,0,0:0:0:0:
64,192,1800,1,0,0:0:0:0:
192,192,2000,1,0,0:0:0:0:
320,192,2000,1,0,0:0:0:0:
64,192,2200,1,0,0:0:0:0:
192,192,2200,1,0,0:0:0:0:
448,192,2200,1,0,0:0:0:0:
320,192,2300,1,0,0:0:0:0:
192,192,2400,1,0,0:0:0:0:
320,192,2600,1,0,0:0:0:0:
448,192,2600,1,0,0:0:0:0:
64,192,2600,1,0,0:0:0:0:
192,192,2800,1,0,0:0:0:0:
320,192,2800,1,0,0:0:0:0:
320,192,3000,1,0,0:0:0:0:
448,192,3000,1,0,0:0:0:0:
64,192,3000,1,0,0:0:0:0:
448,192,3400,1,0,0:0:0:0:
192,192,3400,1,0,0:0:0:0:
320,192,3400,1,0,0:0:0:0:
320,192,3800,1,0,0:0:0:0:
192,192,3800,1,0,0:0:0:0:
320,192,4200,1,0,0:0:0:0:
192,192,4200,1,0,0:0:0:0:
64,192,4200,1,0,0:0:0:0:
448,192,4600,1,0,0:0:0:0:
192,192,4600,1,0,0:0:0:0:
64,192,4600,1,0,0:0:0:0:
320,192,4700,1,0,0:0:0:0:
192,192,4800,1,0,0:0:0:0:
320,192,5000,1,0,0:0:0:0:
448,192,5000,1,0,0:0:0:0:
64,192,5000,1,0,0:0:0:0:
320,192,5200,1,0,0:0:0:0:
192,192,5200,1,0,0:0:0:0:
64,192,5400,1,0,0:0:0:0:
192,192,5400,1,0,0:0:0:0:
448,192,5400,1,0,0:0:0:0:
320,192,5500,1,0,0:0:0:0:
192,192,5600,1,0,0:0:0:0:
320,192,5800,1,0,0:0:0:0:
448,192,5800,1,0,0:0:0:0:
64,192,5800,1,0,0:0:0:0:
192,192,6000,1,0,0:0:0:0:
320,192,6000,1,0,0:0:0:0:
320,192,6200,1,0,0:0:0:0:
448,192,6200,1,0,0:0:0:0:
64,192,6200,1,0,0:0:0:0:
192,192,6600,1,0,0:0:0:0:
320,192,6600,1,0,0:0:0:0:
448,192,6600,1,0,0:0:0:0:
192,192,7000,1,0,0:0:0:0:
320,192,7000,1,0,0:0:0:0:
320,192,7400,1,0,0:0:0:0:
192,192,7400,1,0,0:0:0:0:
64,192,7400,1,0,0:0:0:0:
448,192,7800,1,0,0:0:0:0:
320,192,7800,1,0,0:0:0:0:
64,192,7800,1,0,0:0:0:0:
192,192,8200,1,0,0:0:0:0:
320,192,8200,1,0,0:0:0:0:
448,192,8200,1,0,0:0:0:0:
448,192,8600,1,0,0:0:0:0:
192,192,8600,1,0,0:0:0:0:
320,192,8600,1,0,0:0:0:0:
320,192,9000,1,0,0:0:0:0:
192,192,9000,1,0,0:0:0:0:
64,192,9000,1,0,0:0:0:0:
448,192,9400,1,0,0:0:0:0:
320,192,9500,1,0,0:0:0:0:
192,192,9600,1,0,0:0:0:0:
192,192,9800,1,0,0:0:0:0:
320,192,9800,1,0,0:0:0:0:
192,192,10000,1,0,0:0:0:0:
320,192,10000,1,0,0:0:0:0:
192,192,10200,1,0,0:0:0:0:
320,192,10200,1,0,0:0:0:0:
448,192,10200,1,0,0:0:0:0:
320,192,10400,1,0,0:0:0:0:
192,192,10400,1,0,0:0:0:0:
64,192,10400,1,0,0:0:0:0:
320,192,10800,1,0,0:0:0:0:
192,192,10850,1,0,0:0:0:0:
64,192,10900,1,0,0:0:0:0:
320,192,11000,1,0,0:0:0:0:
448,192,11000,1,0,0:0:0:0:
192,192,11600,1,0,0:0:0:0:
320,192,11650,1,0,0:0:0:0:
448,192,11700,1,0,0:0:0:0:
192,192,11800,1,0,0:0:0:0:
64,192,11800,1,0,0:0:0:0:
448,192,12600,1,0,0:0:0:0:
320,192,12700,1,0,0:0:0:0:
192,192,12800,1,0,0:0:0:0:
320,192,13000,1,0,0:0:0:0:
192,192,13000,1,0,0:0:0:0:
192,192,13200,1,0,0:0:0:0:
320,192,13200,1,0,0:0:0:0:
192,192,13400,1,0,0:0:0:0:
320,192,13400,1,0,0:0:0:0:
448,192,13400,1,0,0:0:0:0:
320,192,13600,1,0,0:0:0:0:
192,192,13600,1,0,0:0:0:0:
64,192,13600,1,0,0:0:0:0:
192,192,14200,1,0,0:0:0:0:
320,192,14200,1,0,0:0:0:0:
448,192,14200,1,0,0:0:0:0:
64,192,14400,1,0,0:0:0:0:
320,192,14500,1,0,0:0:0:0:
448,192,14500,128,0,14650:0:0:0:0:
320,192,14800,1,0,0:0:0:0:
192,192,14800,1,0,0:0:0:0:
64,192,14800,1,0,0:0:0:0:
192,192,15200,128,0,15650:0:0:0:0:
320,192,15200,128,0,15650:0:0:0:0:
448,192,15200,128,0,15650:0:0:0:0:
448,192,15800,128,0,16150:0:0:0:0:
320,192,15900,1,0,0:0:0:0:
192,192,16000,1,0,0:0:0:0:
64,192,16100,1,0,0:0:0:0:
320,192,16200,128,0,16550:0:0:0:0:
64,192,16300,1,0,0:0:0:0:
192,192,16400,1,0,0:0:0:0:
448,192,16500,1,0,0:0:0:0:
192,192,16600,128,0,16950:0:0:0:0:
64,192,16700,1,0,0:0:0:0:
320,192,16800,1,0,0:0:0:0:
448,192,16900,1,0,0:0:0:0:
64,192,17000,128,0,17350:0:0:0:0:
192,192,17100,1,0,0:0:0:0:
320,192,17200,1,0,0:0:0:0:
448,192,17300,1,0,0:0:0:0:
192,192,17400,128,0,17750:0:0:0:0:
448,192,17500,1,0,0:0:0:0:
320,192,17600,1,0,0:0:0:0:
64,192,17700,1,0,0:0:0:0:
320,192,17800,128,0,18150:0:0:0:0:
448,192,17900,1,0,0:0:0:0:
192,192,18000,1,0,0:0:0:0:
64,192,18100,1,0,0:0:0:0:
448,192,18200,128,0,18550:0:0:0:0:
64,192,18300,1,0,0:0:0:0:
320,192,18400,1,0,0:0:0:0:
192,192,18500,1,0,0:0:0:0:
320,192,18600,128,0,18950:0:0:0:0:
448,192,18700,1,0,0:0:0:0:
192,192,18800,1,0,0:0:0:0:
64,192,18900,1,0,0:0:0:0:
192,192,19000,128,0,19350:0:0:0:0:
448,192,19100,1,0,0:0:0:0:
64,192,19200,1,0,0:0:0:0:
448,192,19300,1,0,0:0:0:0:
64,192,19400,128,0,19750:0:0:0:0:
320,192,19500,1,0,0:0:0:0:
192,192,19600,1,0,0:0:0:0:
448,192,19700,1,0,0:0:0:0:
320,192,19800,128,0,20150:0:0:0:0:
192,192,19900,1,0,0:0:0:0:
448,192,20000,1,0,0:0:0:0:
64,192,20100,1,0,0:0:0:0:
192,192,20200,128,0,20550:0:0:0:0:
448,192,20300,1,0,0:0:0:0:
64,192,20400,1,0,0:0:0:0:
448,192,20500,1,0,0:0:0:0:
64,192,20600,1,0,0:0:0:0:
320,192,20600,1,0,0:0:0:0:
448,192,20900,1,0,0:0:0:0:
192,192,20900,1,0,0:0:0:0:
320,192,21200,1,0,0:0:0:0:
448,192,21200,1,0,0:0:0:0:
192,192,21300,1,0,0:0:0:0:
64,192,21400,1,0,0:0:0:0:
192,192,21500,1,0,0:0:0:0:
448,192,21600,1,0,0:0:0:0:
320,192,21700,1,0,0:0:0:0:
192,192,21800,1,0,0:0:0:0:
448,192,21900,1,0,0:0:0:0:
320,192,21900,1,0,0:0:0:0:
320,192,22200,1,0,0:0:0:0:
448,192,22200,1,0,0:0:0:0:
64,192,22300,1,0,0:0:0:0:
192,192,22400,1,0,0:0:0:0:
320,192,22500,1,0,0:0:0:0:
192,192,22600,1,0,0:0:0:0:
448,192,22600,1,0,0:0:0:0:
320,192,22700,1,0,0:0:0:0:
192,192,22800,1,0,0:0:0:0:
64,192,22900,1,0,0:0:0:0:
320,192,23000,1,0,0:0:0:0:
448,192,23000,1,0,0:0:0:0:
192,192,23100,1,0,0:0:0:0:
320,192,23200,1,0,0:0:0:0:
448,192,23300,1,0,0:0:0:0:
320,192,23400,1,0,0:0:0:0:
64,192,23400,1,0,0:0:0:0:
192,192,23500,1,0,0:0:0:0:
64,192,23600,1,0,0:0:0:0:
192,192,23700,1,0,0:0:0:0:
320,192,23800,1,0,0:0:0:0:
448,192,23800,1,0,0:0:0:0:
192,192,23900,1,0,0:0:0:0:
64,192,24000,1,0,0:0:0:0:
192,192,24100,1,0,0:0:0:0:
64,192,24200,1,0,0:0:0:0:
320,192,24200,1,0,0:0:0:0:
192,192,24300,1,0,0:0:0:0:
320,192,24400,1,0,0:0:0:0:
448,192,24500,1,0,0:0:0:0:
320,192,24600,1,0,0:0:0:0:
192,192,24600,1,0,0:0:0:0:
64,192,24700,1,0,0:0:0:0:
448,192,24800,1,0,0:0:0:0:
320,192,24900,1,0,0:0:0:0:
192,192,25000,1,0,0:0:0:0:
64,192,25000,1,0,0:0:0:0:
320,192,25100,1,0,0:0:0:0:
448,192,25200,1,0,0:0:0:0:
320,192,25300,1,0,0:0:0:0:
448,192,25400,1,0,0:0:0:0:
192,192,25400,1,0,0:0:0:0:
64,192,25500,1,0,0:0:0:0:
192,192,25600,1,0,0:0:0:0:
64,192,25700,1,0,0:0:0:0:
192,192,25800,1,0,0:0:0:0:
448,192,25800,1,0,0:0:0:0:
320,192,25900,1,0,0:0:0:0:
448,192,26000,1,0,0:0:0:0:
320,192,26100,1,0,0:0:0:0:
192,192,26200,1,0,0:0:0:0:
64,192,26200,1,0,0:0:0:0:
320,192,26300,1,0,0:0:0:0:
192,192,26400,1,0,0:0:0:0:
64,192,26500,1,0,0:0:0:0:
192,192,26600,1,0,0:0:0:0:
448,192,26600,1,0,0:0:0:0:
320,192,26700,1,0,0:0:0:0:
192,192,26800,1,0,0:0:0:0:
64,192,26900,1,0,0:0:0:0:
192,192,27000,1,0,0:0:0:0:
320,192,27000,1,0,0:0:0:0:
448,192,27100,1,0,0:0:0:0:
320,192,27200,1,0,0:0:0:0:
192,192,27300,1,0,0:0:0:0:
320,192,27400,1,0,0:0:0:0:
64,192,27400,1,0,0:0:0:0:
192,192,27500,1,0,0:0:0:0:
320,192,27600,1,0,0:0:0:0:
192,192,27700,1,0,0:0:0:0:
320,192,27800,1,0,0:0:0:0:
448,192,27800,1,0,0:0:0:0:
64,192,27900,1,0,0:0:0:0:
192,192,28000,1,0,0:0:0:0:
320,192,28100,1,0,0:0:0:0:
192,192,28200,1,0,0:0:0:0:
448,192,28200,1,0,0:0:0:0:
320,192,28300,1,0,0:0:0:0:
192,192,28400,1,0,0:0:0:0:
64,192,28500,1,0,0:0:0:0:
320,192,28600,1,0,0:0:0:0:
448,192,28600,1,0,0:0:0:0:
192,192,28700,1,0,0:0:0:0:
320,192,28800,1,0,0:0:0:0:
448,192,28900,1,0,0:0:0:0:
64,192,29000,1,0,0:0:0:0:
192,192,29000,1,0,0:0:0:0:
448,192,29000,1,0,0:0:0:0:
320,192,29100,1,0,0:0:0:0:
320,192,29200,1,0,0:0:0:0:
448,192,29400,1,0,0:0:0:0:
320,192,29400,1,0,0:0:0:0:
448,192,29600,128,0,29800:0:0:0:0:
320,192,29600,128,0,29800:0:0:0:0:
64,192,29800,1,0,0:0:0:0:
192,192,29800,1,0,0:0:0:0:
192,192,29900,1,0,0:0:0:0:
320,192,30000,1,0,0:0:0:0:
448,192,30100,1,0,0:0:0:0:
320,192,30200,1,0,0:0:0:0:
192,192,30200,1,0,0:0:0:0:
64,192,30300,1,0,0:0:0:0:
448,192,30400,1,0,0:0:0:0:
320,192,30500,1,0,0:0:0:0:
192,192,30600,1,0,0:0:0:0:
64,192,30600,1,0,0:0:0:0:
320,192,30700,1,0,0:0:0:0:
448,192,30800,1,0,0:0:0:0:
320,192,30900,1,0,0:0:0:0:
448,192,31000,1,0,0:0:0:0:
192,192,31000,1,0,0:0:0:0:
64,192,31100,1,0,0:0:0:0:
192,192,31200,1,0,0:0:0:0:
320,192,31200,128,0,31400:0:0:0:0:
64,192,31300,1,0,0:0:0:0:
192,192,31400,1,0,0:0:0:0:
448,192,31400,1,0,0:0:0:0:
320,192,31500,1,0,0:0:0:0:
448,192,31600,1,0,0:0:0:0:
320,192,31700,1,0,0:0:0:0:
192,192,31800,1,0,0:0:0:0:
64,192,31800,1,0,0:0:0:0:
320,192,31900,1,0,0:0:0:0:
192,192,32000,1,0,0:0:0:0:
64,192,32100,1,0,0:0:0:0:
192,192,32200,1,0,0:0:0:0:
448,192,32200,1,0,0:0:0:0:
320,192,32300,1,0,0:0:0:0:
192,192,32400,1,0,0:0:0:0:
64,192,32500,1,0,0:0:0:0:
192,192,32600,1,0,0:0:0:0:
320,192,32600,1,0,0:0:0:0:
448,192,32700,1,0,0:0:0:0:
320,192,32800,1,0,0:0:0:0:
448,192,32800,128,0,33000:0:0:0:0:
192,192,32900,1,0,0:0:0:0:
320,192,33000,1,0,0:0:0:0:
64,192,33000,1,0,0:0:0:0:
192,192,33100,1,0,0:0:0:0:
320,192,33200,1,0,0:0:0:0:
448,192,33300,1,0,0:0:0:0:
320,192,33400,1,0,0:0:0:0:
192,192,33400,1,0,0:0:0:0:
64,192,33400,128,0,33750:0:0:0:0:
320,192,33600,1,0,0:0:0:0:
320,192,33800,1,0,0:0:0:0:
448,192,33800,1,0,0:0:0:0:
192,192,33800,128,0,34150:0:0:0:0:
448,192,34000,1,0,0:0:0:0:
192,192,34200,1,0,0:0:0:0:
64,192,34200,1,0,0:0:0:0:
320,192,34200,128,0,34550:0:0:0:0:
64,192,34400,1,0,0:0:0:0:
192,192,34600,1,0,0:0:0:0:
320,192,34600,1,0,0:0:0:0:
448,192,34600,128,0,34950:0:0:0:0:
64,192,34800,1,0,0:0:0:0:
64,192,35000,1,0,0:0:0:0:
192,192,35000,1,0,0:0:0:0:
320,192,35000,128,0,35350:0:0:0:0:
448,192,35200,1,0,0:0:0:0:
448,192,35400,1,0,0:0:0:0:
320,192,35400,1,0,0:0:0:0:
192,192,35600,1,0,0:0:0:0:
64,192,35600,1,0,0:0:0:0:
192,192,35800,1,0,0:0:0:0:
64,192,35800,1,0,0:0:0:0:
320,192,35800,1,0,0:0:0:0:
64,192,35900,1,0,0:0:0:0:
192,192,36000,1,0,0:0:0:0:
320,192,36100,1,0,0:0:0:0:
320,192,36200,1,0,0:0:0:0:
448,192,36200,1,0,0:0:0:0:
192,192,36200,1,0,0:0:0:0:
192,192,36300,1,0,0:0:0:0:
64,192,36400,1,0,0:0:0:0:
64,192,36500,1,0,0:0:0:0:
192,192,36600,1,0,0:0:0:0:
64,192,36600,1,0,0:0:0:0:
320,192,36600,1,0,0:0:0:0:
192,192,36700,1,0,0:0:0:0:
192,192,36800,1,0,0:0:0:0:
192,192,36900,1,0,0:0:0:0:
448,192,37000,1,0,0:0:0:0:
320,192,37000,1,0,0:0:0:0:
192,192,37200,1,0,0:0:0:0:
64,192,37200,1,0,0:0:0:0:
448,192,37400,1,0,0:0:0:0:
320,192,37400,1,0,0:0:0:0:
192,192,37400,1,0,0:0:0:0:
192,192,37600,1,0,0:0:0:0:
448,192,37800,1,0,0:0:0:0:
320,192,37800,1,0,0:0:0:0:
192,192,37800,1,0,0:0:0:0:
64,192,37900,1,0,0:0:0:0:
64,192,38000,1,0,0:0:0:0:
192,192,38100,1,0,0:0:0:0:
448,192,38200,1,0,0:0:0:0:
320,192,38200,1,0,0:0:0:0:
64,192,38400,1,0,0:0:0:0:
64,192,38500,1,0,0:0:0:0:
192,192,38600,1,0,0:0:0:0:
448,192,38600,1,0,0:0:0:0:
320,192,38600,1,0,0:0:0:0:
320,192,38800,1,0,0:0:0:0:
192,192,38900,1,0,0:0:0:0:
192,192,39000,1,0,0:0:0:0:
64,192,39000,1,0,0:0:0:0:
320,192,39000,1,0,0:0:0:0:
64,192,39100,1,0,0:0:0:0:
192,192,39200,1,0,0:0:0:0:
320,192,39300,1,0,0:0:0:0:
448,192,39400,1,0,0:0:0:0:
192,192,39400,1,0,0:0:0:0:
320,192,39400,1,0,0:0:0:0:
320,192,39500,1,0,0:0:0:0:
192,192,39600,1,0,0:0:0:0:
64,192,39600,1,0,0:0:0:0:
192,192,39800,1,0,0:0:0:0:
320,192,39800,1,0,0:0:0:0:
64,192,39900,1,0,0:0:0:0:
192,192,40000,1,0,0:0:0:0:
320,192,40100,1,0,0:0:0:0:
448,192,40200,1,0,0:0:0:0:
192,192,40200,1,0,0:0:0:0:
320,192,40300,1,0,0:0:0:0:
192,192,40400,1,0,0:0:0:0:
64,192,40500,1,0,0:0:0:0:
192,192,40600,1,0,0:0:0:0:
320,192,40600,1,0,0:0:0:0:
448,192,40700,1,0,0:0:0:0:
320,192,40800,1,0,0:0:0:0:
192,192,40900,1,0,0:0:0:0:
320,192,41000,1,0,0:0:0:0:
448,192,41000,1,0,0:0:0:0:
192,192,41100,1,0,0:0:0:0:
320,192,41200,1,0,0:0:0:0:
448,192,41300,1,0,0:0:0:0:
320,192,41400,1,0,0:0:0:0:
192,192,41400,1,0,0:0:0:0:
320,192,41600,1,0,0:0:0:0:
448,192,41800,1,0,0:0:0:0:
192,192,41800,1,0,0:0:0:0:
64,192,41800,1,0,0:0:0:0:
320,192,41900,1,0,0:0:0:0:
448,192,42000,128,0,42250:0:0:0:0:
64,192,42000,128,0,42250:0:0:0:0:
320,192,42000,128,0,42250:0:0:0:0:
320,192,42400,1,0,0:0:0:0:
192,192,42500,1,0,0:0:0:0:
64,192,42600,1,0,0:0:0:0:
320,192,42600,1,0,0:0:0:0:
448,192,42700,1,0,0:0:0:0:
320,192,42800,1,0,0:0:0:0:
192,192,42900,1,0,0:0:0:0:
320,192,43000,1,0,0:0:0:0:
448,192,43000,1,0,0:0:0:0:
192,192,43100,1,0,0:0:0:0:
64,192,43200,1,0,0:0:0:0:
192,192,43300,1,0,0:0:0:0:
320,192,43400,1,0,0:0:0:0:
64,192,43400,1,0,0:0:0:0:
448,192,43600,128,0,43850:0:0:0:0:
320,192,43600,128,0,43850:0:0:0:0:
192,192,44000,1,0,0:0:0:0:
64,192,44000,1,0,0:0:0:0:
320,192,44100,1,0,0:0:0:0:
448,192,44200,1,0,0:0:0:0:
192,192,44200,1,0,0:0:0:0:
320,192,44300,1,0,0:0:0:0:
448,192,44400,1,0,0:0:0:0:
320,192,44500,1,0,0:0:0:0:
192,192,44600,1,0,0:0:0:0:
64,192,44600,1,0,0:0:0:0:
448,192,44700,1,0,0:0:0:0:
320,192,44800,1,0,0:0:0:0:
192,192,44900,1,0,0:0:0:0:
64,192,45000,1,0,0:0:0:0:
320,192,45000,1,0,0:0:0:0:
192,192,45100,1,0,0:0:0:0:
320,192,45200,1,0,0:0:0:0:
448,192,45300,1,0,0:0:0:0:
64,192,45400,1,0,0:0:0:0:
192,192,45400,1,0,0:0:0:0:
448,192,45500,1,0,0:0:0:0:
320,192,45600,1,0,0:0:0:0:
448,192,45700,1,0,0:0:0:0:
64,192,45800,1,0,0:0:0:0:
192,192,45800,1,0,0:0:0:0:
448,192,45900,5,0,0:0:0:0:
320,192,46000,1,0,0:0:0:0:
64,192,46000,128,0,46300:0:0:0:0:
192,192,46100,1,0,0:0:0:0:
320,192,46200,1,0,0:0:0:0:
448,192,46200,1,0,0:0:0:0:
320,192,46600,1,0,0:0:0:0:
192,192,46600,1,0,0:0:0:0:
64,192,47000,1,0,0:0:0:0:
192,192,47000,1,0,0:0:0:0:
448,192,47000,128,0,47150:0:0:0:0:
320,192,47100,1,0,0:0:0:0:
192,192,47200,1,0,0:0:0:0:
64,192,47300,1,0,0:0:0:0:
192,192,47400,1,0,0:0:0:0:
320,192,47400,128,0,47550:0:0:0:0:
448,192,47500,1,0,0:0:0:0:
448,192,47600,1,0,0:0:0:0:
448,192,47700,1,0,0:0:0:0:
64,192,47800,1,0,0:0:0:0:
192,192,47800,1,0,0:0:0:0:
320,192,47800,1,0,0:0:0:0:
64,192,48000,1,0,0:0:0:0:
64,192,48100,1,0,0:0:0:0:
448,192,48200,1,0,0:0:0:0:
320,192,48200,1,0,0:0:0:0:
192,192,48200,1,0,0:0:0:0:
448,192,48400,1,0,0:0:0:0:
448,192,48500,1,0,0:0:0:0:
192,192,48500,128,0,48650:0:0:0:0:
64,192,48600,1,0,0:0:0:0:
320,192,48600,1,0,0:0:0:0:
320,192,48700,128,0,48850:0:0:0:0:
448,192,48800,1,0,0:0:0:0:
320,192,48900,1,0,0:0:0:0:
192,192,49000,1,0,0:0:0:0:
64,192,49100,1,0,0:0:0:0:
192,192,49200,128,0,49750:0:0:0:0:
64,192,49400,128,0,49750:0:0:0:0:
448,192,49400,128,0,49750:0:0:0:0:
448,192,49800,128,0,50150:0:0:0:0:
320,192,49800,128,0,50150:0:0:0:0:
64,192,50000,1,0,0:0:0:0:
192,192,50100,1,0,0:0:0:0:
448,192,50200,1,0,0:0:0:0:
320,192,50200,1,0,0:0:0:0:
64,192,50200,1,0,0:0:0:0:
192,192,50300,1,0,0:0:0:0:
320,192,50400,1,0,0:0:0:0:
448,192,50500,1,0,0:0:0:0:
320,192,50600,1,0,0:0:0:0:
192,192,50600,1,0,0:0:0:0:
64,192,50700,1,0,0:0:0:0:
192,192,50800,128,0,51200:0:0:0:0:
448,192,50800,1,0,0:0:0:0:
320,192,50900,1,0,0:0:0:0:
64,192,51000,1,0,0:0:0:0:
448,192,51000,1,0,0:0:0:0:
320,192,51200,1,0,0:0:0:0:
448,192,51300,1,0,0:0:0:0:
64,192,51400,1,0,0:0:0:0:
192,192,51400,1,0,0:0:0:0:
192,192,51600,1,0,0:0:0:0:
320,192,51700,1,0,0:0:0:0:
320,192,51800,128,0,52150:0:0:0:0:
64,192,51800,1,0,0:0:0:0:
448,192,51800,1,0,0:0:0:0:
192,192,52000,1,0,0:0:0:0:
64,192,52100,1,0,0:0:0:0:
320,192,52200,128,0,52550:0:0:0:0:
192,192,52200,1,0,0:0:0:0:
64,192,52300,1,0,0:0:0:0:
192,192,52400,1,0,0:0:0:0:
64,192,52500,1,0,0:0:0:0:
448,192,52600,1,0,0:0:0:0:
192,192,52600,1,0,0:0:0:0:
320,192,52800,1,0,0:0:0:0:
448,192,52900,1,0,0:0:0:0:
320,192,53000,1,0,0:0:0:0:
64,192,53000,1,0,0:0:0:0:
320,192,53200,1,0,0:0:0:0:
448,192,53300,1,0,0:0:0:0:
320,192,53400,1,0,0:0:0:0:
64,192,53400,1,0,0:0:0:0:
192,192,53500,1,0,0:0:0:0:
64,192,53600,1,0,0:0:0:0:
192,192,53700,1,0,0:0:0:0:
448,192,53800,128,0,54150:0:0:0:0:
64,192,53800,1,0,0:0:0:0:
320,192,53800,1,0,0:0:0:0:
192,192,53900,1,0,0:0:0:0:
192,192,54000,1,0,0:0:0:0:
192,192,54100,1,0,0:0:0:0:
64,192,54200,128,0,54550:0:0:0:0:
448,192,54400,1,0,0:0:0:0:
448,192,54500,1,0,0:0:0:0:
192,192,54600,128,0,54950:0:0:0:0:
320,192,54600,1,0,0:0:0:0:
448,192,54700,1,0,0:0:0:0:
64,192,54800,1,0,0:0:0:0:
64,192,54900,1,0,0:0:0:0:
448,192,55000,128,0,55350:0:0:0:0:
320,192,55000,128,0,55350:0:0:0:0:
192,192,55200,1,0,0:0:0:0:
192,192,55300,1,0,0:0:0:0:
448,192,55400,1,0,0:0:0:0:
64,192,55400,1,0,0:0:0:0:
64,192,55500,1,0,0:0:0:0:
64,192,55600,1,0,0:0:0:0:
320,192,55700,1,0,0:0:0:0:
448,192,55800,128,0,56150:0:0:0:0:
192,192,55800,128,0,56000:0:0:0:0:
320,192,56000,1,0,0:0:0:0:
192,192,56100,1,0,0:0:0:0:
64,192,56200,128,0,56550:0:0:0:0:
192,192,56400,1,0,0:0:0:0:
192,192,56500,1,0,0:0:0:0:
448,192,56600,128,0,56950:0:0:0:0:
320,192,56600,128,0,56950:0:0:0:0:
64,192,56700,1,0,0:0:0:0:
192,192,56800,1,0,0:0:0:0:
64,192,56900,1,0,0:0:0:0:
320,192,57000,128,0,57350:0:0:0:0:
192,192,57000,1,0,0:0:0:0:
448,192,57200,1,0,0:0:0:0:
192,192,57300,1,0,0:0:0:0:
64,192,57400,128,0,57750:0:0:0:0:
448,192,57600,1,0,0:0:0:0:
320,192,57600,1,0,0:0:0:0:
448,192,57700,1,0,0:0:0:0:
192,192,57800,128,0,58000:0:0:0:0:
320,192,58000,1,0,0:0:0:0:
448,192,58100,1,0,0:0:0:0:
64,192,58200,128,0,58550:0:0:0:0:
320,192,58200,1,0,0:0:0:0:
320,192,58400,1,0,0:0:0:0:
320,192,58500,1,0,0:0:0:0:
192,192,58600,128,0,58950:0:0:0:0:
448,192,58600,128,0,58950:0:0:0:0:
64,192,58700,1,0,0:0:0:0:
64,192,58800,1,0,0:0:0:0:
64,192,58900,1,0,0:0:0:0:
320,192,59000,1,0,0:0:0:0:
64,192,59000,1,0,0:0:0:0:
192,192,59100,1,0,0:0:0:0:
448,192,59200,1,0,0:0:0:0:
320,192,59300,1,0,0:0:0:0:
192,192,59400,1,0,0:0:0:0:
64,192,59400,1,0,0:0:0:0:
320,192,59500,1,0,0:0:0:0:
192,192,59600,1,0,0:0:0:0:
448,192,59600,128,0,59800:0:0:0:0:
64,192,59700,1,0,0:0:0:0:
192,192,59800,1,0,0:0:0:0:
320,192,59800,1,0,0:0:0:0:
64,192,59900,1,0,0:0:0:0:
192,192,60000,1,0,0:0:0:0:
320,192,60100,1,0,0:0:0:0:
448,192,60200,1,0,0:0:0:0:
192,192,60200,1,0,0:0:0:0:
320,192,60300,1,0,0:0:0:0:
448,192,60400,1,0,0:0:0:0:
64,192,60400,128,0,60600:0:0:0:0:
320,192,60500,1,0,0:0:0:0:
448,192,60600,1,0,0:0:0:0:
192,192,60600,1,0,0:0:0:0:
192,192,60800,1,0,0:0:0:0:
320,192,60800,1,0,0:0:0:0:
64,192,61000,1,0,0:0:0:0:
448,192,61000,1,0,0:0:0:0:
320,192,61000,1,0,0:0:0:0:
448,192,61200,1,0,0:0:0:0:
192,192,61200,1,0,0:0:0:0:
64,192,61200,1,0,0:0:0:0:
192,192,61400,1,0,0:0:0:0:
448,192,61400,1,0,0:0:0:0:
320,192,61500,1,0,0:0:0:0:
448,192,61600,1,0,0:0:0:0:
320,192,61700,1,0,0:0:0:0:
192,192,61800,1,0,0:0:0:0:
64,192,61800,1,0,0:0:0:0:
320,192,61900,1,0,0:0:0:0:
64,192,62000,1,0,0:0:0:0:
192,192,62000,128,0,62200:0:0:0:0:
448,192,62100,1,0,0:0:0:0:
320,192,62200,1,0,0:0:0:0:
64,192,62200,1,0,0:0:0:0:
448,192,62300,1,0,0:0:0:0:
64,192,62400,1,0,0:0:0:0:
192,192,62500,1,0,0:0:0:0:
64,192,62600,1,0,0:0:0:0:
320,192,62600,1,0,0:0:0:0:
448,192,62600,1,0,0:0:0:0:
448,192,62800,1,0,0:0:0:0:
320,192,62800,1,0,0:0:0:0:
192,192,62800,1,0,0:0:0:0:
64,192,63000,1,0,0:0:0:0:
192,192,63000,1,0,0:0:0:0:
448,192,63100,1,0,0:0:0:0:
320,192,63200,1,0,0:0:0:0:
192,192,63300,1,0,0:0:0:0:
64,192,63400,1,0,0:0:0:0:
320,192,63400,1,0,0:0:0:0:
448,192,63600,1,0,0:0:0:0:
192,192,63600,1,0,0:0:0:0:
320,192,64000,1,0,0:0:0:0:
448,192,64000,1,0,0:0:0:0:
320,192,64200,1,0,0:0:0:0:
448,192,64400,1,0,0:0:0:0:
320,192,64500,1,0,0:0:0:0:
192,192,64600,1,0,0:0:0:0:
448,192,64600,1,0,0:0:0:0:
320,192,64700,1,0,0:0:0:0:
448,192,64800,1,0,0:0:0:0:
64,192,64900,1,0,0:0:0:0:
192,192,65000,1,0,0:0:0:0:
320,192,65000,1,0,0:0:0:0:
448,192,65100,1,0,0:0:0:0:
192,192,65200,128,0,65350:0:0:0:0:
64,192,65300,1,0,0:0:0:0:
320,192,65400,1,0,0:0:0:0:
448,192,65400,1,0,0:0:0:0:
64,192,65500,1,0,0:0:0:0:
320,192,65600,1,0,0:0:0:0:
192,192,65700,1,0,0:0:0:0:
320,192,65800,1,0,0:0:0:0:
448,192,65800,1,0,0:0:0:0:
64,192,65900,1,0,0:0:0:0:
192,192,66000,1,0,0:0:0:0:
448,192,66000,128,0,66200:0:0:0:0:
64,192,66100,1,0,0:0:0:0:
192,192,66200,1,0,0:0:0:0:
320,192,66200,1,0,0:0:0:0:
64,192,66300,1,0,0:0:0:0:
192,192,66400,1,0,0:0:0:0:
320,192,66500,1,0,0:0:0:0:
448,192,66600,1,0,0:0:0:0:
192,192,66600,1,0,0:0:0:0:
320,192,66700,1,0,0:0:0:0:
448,192,66800,1,0,0:0:0:0:
64,192,66800,128,0,67000:0:0:0:0:
320,192,66900,1,0,0:0:0:0:
448,192,67000,1,0,0:0:0:0:
192,192,67000,1,0,0:0:0:0:
320,192,67100,1,0,0:0:0:0:
192,192,67200,1,0,0:0:0:0:
320,192,67300,1,0,0:0:0:0:
64,192,67400,1,0,0:0:0:0:
192,192,67400,1,0,0:0:0:0:
448,192,67600,1,0,0:0:0:0:
320,192,67600,1,0,0:0:0:0:
64,192,67800,1,0,0:0:0:0:
192,192,67800,1,0,0:0:0:0:
448,192,68000,1,0,0:0:0:0:
320,192,68100,1,0,0:0:0:0:
192,192,68200,1,0,0:0:0:0:
448,192,68200,1,0,0:0:0:0:
64,192,68300,1,0,0:0:0:0:
192,192,68400,1,0,0:0:0:0:
320,192,68500,1,0,0:0:0:0:
448,192,68600,1,0,0:0:0:0:
64,192,68600,1,0,0:0:0:0:
192,192,68700,1,0,0:0:0:0:
320,192,68800,1,0,0:0:0:0:
192,192,68900,1,0,0:0:0:0:
448,192,69000,1,0,0:0:0:0:
320,192,69000,1,0,0:0:0:0:
64,192,69000,1,0,0:0:0:0:
192,192,69100,1,0,0:0:0:0:
320,192,69200,1,0,0:0:0:0:
320,192,69300,1,0,0:0:0:0:
64,192,69400,1,0,0:0:0:0:
192,192,69400,1,0,0:0:0:0:
448,192,69400,1,0,0:0:0:0:
448,192,69800,1,0,0:0:0:0:
320,192,69800,1,0,0:0:0:0:
64,192,69800,1,0,0:0:0:0:
192,192,69900,1,0,0:0:0:0:
320,192,70000,1,0,0:0:0:0:
448,192,70100,1,0,0:0:0:0:
64,192,70200,1,0,0:0:0:0:
192,192,70200,1,0,0:0:0:0:
448,192,70300,1,0,0:0:0:0:
320,192,70400,1,0,0:0:0:0:
64,192,70500,1,0,0:0:0:0:
192,192,70600,1,0,0:0:0:0:
448,192,70600,1,0,0:0:0:0:
320,192,70700,1,0,0:0:0:0:
192,192,70800,1,0,0:0:0:0:
448,192,70900,1,0,0:0:0:0:
320,192,71000,1,0,0:0:0:0:
192,192,71000,1,0,0:0:0:0:
64,192,71100,1,0,0:0:0:0:
448,192,71200,1,0,0:0:0:0:
320,192,71300,1,0,0:0:0:0:
64,192,71400,1,0,0:0:0:0:
192,192,71400,1,0,0:0:0:0:
320,192,71500,1,0,0:0:0:0:
192,192,71600,128,0,72300:0:0:0:0:
64,192,71600,128,0,72300:0:0:0:0:
448,192,71800,1,0,0:0:0:0:
320,192,71800,1,0,0:0:0:0:
448,192,72200,1,0,0:0:0:0:
320,192,72200,1,0,0:0:0:0:
448,192,72600,1,0,0:0:0:0:
320,192,72650,1,0,0:0:0:0:
192,192,72700,1,0,0:0:0:0:
64,192,72750,1,0,0:0:0:0:
320,192,72800,1,0,0:0:0:0:
192,192,72900,1,0,0:0:0:0:
64,192,73000,1,0,0:0:0:0:
192,192,73050,1,0,0:0:0:0:
320,192,73100,1,0,0:0:0:0:
448,192,73150,1,0,0:0:0:0:
192,192,73200,1,0,0:0:0:0:
320,192,73300,1,0,0:0:0:0:
64,192,73400,1,0,0:0:0:0:
192,192,73450,1,0,0:0:0:0:
320,192,73500,1,0,0:0:0:0:
64,192,73550,1,0,0:0:0:0:
448,192,73600,1,0,0:0:0:0:
320,192,73700,1,0,0:0:0:0:
192,192,73800,1,0,0:0:0:0:
448,192,73900,1,0,0:0:0:0:
320,192,74000,1,0,0:0:0:0:
192,192,74100,1,0,0:0:0:0:
64,192,74200,1,0,0:0:0:0:
192,192,74250,1,0,0:0:0:0:
320,192,74300,1,0,0:0:0:0:
448,192,74400,1,0,0:0:0:0:
320,192,74500,1,0,0:0:0:0:
64,192,74600,1,0,0:0:0:0:
192,192,74700,1,0,0:0:0:0:
320,192,74800,1,0,0:0:0:0:
192,192,74900,1,0,0:0:0:0:
64,192,75000,1,0,0:0:0:0:
192,192,75050,1,0,0:0:0:0:
320,192,75100,1,0,0:0:0:0:
448,192,75200,1,0,0:0:0:0:
320,192,75300,1,0,0:0:0:0:
192,192,75400,1,0,0:0:0:0:
320,192,75500,1,0,0:0:0:0:
192,192,75600,1,0,0:0:0:0:
64,192,75700,1,0,0:0:0:0:
448,192,75800,1,0,0:0:0:0:
320,192,75850,1,0,0:0:0:0:
192,192,75900,1,0,0:0:0:0:
64,192,75950,1,0,0:0:0:0:
448,192,76000,1,0,0:0:0:0:
320,192,76100,1,0,0:0:0:0:
64,192,76200,1,0,0:0:0:0:
192,192,76250,1,0,0:0:0:0:
320,192,76300,1,0,0:0:0:0:
448,192,76350,1,0,0:0:0:0:
192,192,76400,1,0,0:0:0:0:
320,192,76500,1,0,0:0:0:0:
448,192,76600,1,0,0:0:0:0:
320,192,76650,1,0,0:0:0:0:
192,192,76700,1,0,0:0:0:0:
448,192,76800,1,0,0:0:0:0:
320,192,76900,1,0,0:0:0:0:
192,192,77000,1,0,0:0:0:0:
64,192,77100,1,0,0:0:0:0:
192,192,77200,1,0,0:0:0:0:
320,192,77300,1,0,0:0:0:0:
448,192,77400,1,0,0:0:0:0:
320,192,77450,1,0,0:0:0:0:
192,192,77500,1,0,0:0:0:0:
64,192,77600,1,0,0:0:0:0:
448,192,77700,1,0,0:0:0:0:
320,192,77750,1,0,0:0:0:0:
192,192,77800,1,0,0:0:0:0:
448,192,77900,1,0,0:0:0:0:
320,192,78000,1,0,0:0:0:0:
192,192,78100,1,0,0:0:0:0:
64,192,78200,1,0,0:0:0:0:
192,192,78300,1,0,0:0:0:0:
448,192,78400,128,0,78700:0:0:0:0:
320,192,78400,128,0,78700:0:0:0:0:
448,192,79000,1,0,0:0:0:0:
320,192,79050,1,0,0:0:0:0:
192,192,79100,1,0,0:0:0:0:
64,192,79150,1,0,0:0:0:0:
320,192,79200,1,0,0:0:0:0:
192,192,79300,1,0,0:0:0:0:
64,192,79400,1,0,0:0:0:0:
192,192,79450,1,0,0:0:0:0:
320,192,79500,1,0,0:0:0:0:
448,192,79550,1,0,0:0:0:0:
192,192,79600,1,0,0:0:0:0:
320,192,79700,1,0,0:0:0:0:
64,192,79800,1,0,0:0:0:0:
192,192,79850,1,0,0:0:0:0:
320,192,79900,1,0,0:0:0:0:
64,192,79950,1,0,0:0:0:0:
448,192,80000,1,0,0:0:0:0:
320,192,80100,1,0,0:0:0:0:
192,192,80200,1,0,0:0:0:0:
448,192,80300,1,0,0:0:0:0:
320,192,80400,1,0,0:0:0:0:
192,192,80500,1,0,0:0:0:0:
64,192,80600,1,0,0:0:0:0:
192,192,80650,1,0,0:0:0:0:
320,192,80700,1,0,0:0:0:0:
448,192,80800,1,0,0:0:0:0:
320,192,80900,1,0,0:0:0:0:
64,192,81000,1,0,0:0:0:0:
192,192,81100,1,0,0:0:0:0:
320,192,81200,1,0,0:0:0:0:
192,192,81300,1,0,0:0:0:0:
64,192,81400,1,0,0:0:0:0:
192,192,81450,1,0,0:0:0:0:
320,192,81500,1,0,0:0:0:0:
448,192,81600,1,0,0:0:0:0:
320,192,81700,1,0,0:0:0:0:
192,192,81800,1,0,0:0:0:0:
320,192,81900,1,0,0:0:0:0:
192,192,82000,1,0,0:0:0:0:
64,192,82100,1,0,0:0:0:0:
448,192,82200,1,0,0:0:0:0:
320,192,82250,1,0,0:0:0:0:
192,192,82300,1,0,0:0:0:0:
64,192,82350,1,0,0:0:0:0:
448,192,82400,1,0,0:0:0:0:
320,192,82500,1,0,0:0:0:0:
64,192,82600,1,0,0:0:0:0:
192,192,82650,1,0,0:0:0:0:
320,192,82700,1,0,0:0:0:0:
448,192,82750,1,0,0:0:0:0:
192,192,82800,1,0,0:0:0:0:
320,192,82900,1,0,0:0:0:0:
448,192,83000,1,0,0:0:0:0:
320,192,83050,1,0,0:0:0:0:
192,192,83100,1,0,0:0:0:0:
448,192,83200,1,0,0:0:0:0:
320,192,83300,1,0,0:0:0:0:
64,192,83400,1,0,0:0:0:0:
192,192,83500,1,0,0:0:0:0:
320,192,83600,1,0,0:0:0:0:
192,192,83700,1,0,0:0:0:0:
64,192,83800,128,0,84050:0:0:0:0:
320,192,83800,128,0,84050:0:0:0:0:
448,192,83800,128,0,84050:0:0:0:0:
320,192,84100,128,0,84350:0:0:0:0:
192,192,84100,128,0,84350:0:0:0:0:
448,192,84400,128,0,84650:0:0:0:0:
192,192,84400,128,0,84650:0:0:0:0:
64,192,84400,128,0,84650:0:0:0:0:
448,192,85400,1,0,0:0:0:0:
64,192,85400,128,0,85750:0:0:0:0:
320,192,85500,1,0,0:0:0:0:
192,192,85600,1,0,0:0:0:0:
320,192,85700,1,0,0:0:0:0:
192,192,85800,128,0,86150:0:0:0:0:
448,192,85800,1,0,0:0:0:0:
320,192,85900,1,0,0:0:0:0:
64,192,86000,1,0,0:0:0:0:
320,192,86100,1,0,0:0:0:0:
64,192,86200,128,0,86550:0:0:0:0:
448,192,86200,1,0,0:0:0:0:
320,192,86300,1,0,0:0:0:0:
192,192,86400,1,0,0:0:0:0:
320,192,86500,1,0,0:0:0:0:
448,192,86600,1,0,0:0:0:0:
192,192,86600,128,0,86700:0:0:0:0:
64,192,86700,1,0,0:0:0:0:
448,192,86800,1,0,0:0:0:0:
320,192,86800,128,0,86900:0:0:0:0:
64,192,86900,1,0,0:0:0:0:
192,192,87000,1,0,0:0:0:0:
448,192,87000,128,0,87350:0:0:0:0:
320,192,87100,1,0,0:0:0:0:
192,192,87200,1,0,0:0:0:0:
64,192,87300,1,0,0:0:0:0:
320,192,87400,128,0,87750:0:0:0:0:
192,192,87400,1,0,0:0:0:0:
448,192,87600,1,0,0:0:0:0:
192,192,87700,1,0,0:0:0:0:
64,192,87800,1,0,0:0:0:0:
448,192,87800,128,0,88150:0:0:0:0:
192,192,87900,1,0,0:0:0:0:
320,192,88000,1,0,0:0:0:0:
192,192,88100,1,0,0:0:0:0:
64,192,88200,1,0,0:0:0:0:
320,192,88200,128,0,88300:0:0:0:0:
192,192,88300,1,0,0:0:0:0:
448,192,88400,1,0,0:0:0:0:
192,192,88400,128,0,88500:0:0:0:0:
320,192,88500,1,0,0:0:0:0:
448,192,88600,1,0,0:0:0:0:
64,192,88600,128,0,88950:0:0:0:0:
320,192,88700,1,0,0:0:0:0:
192,192,88800,1,0,0:0:0:0:
448,192,88900,1,0,0:0:0:0:
192,192,89000,1,0,0:0:0:0:
320,192,89000,128,0,89100:0:0:0:0:
64,192,89100,1,0,0:0:0:0:
448,192,89200,1,0,0:0:0:0:
192,192,89200,128,0,89300:0:0:0:0:
320,192,89300,1,0,0:0:0:0:
448,192,89400,1,0,0:0:0:0:
64,192,89400,128,0,89750:0:0:0:0:
320,192,89500,1,0,0:0:0:0:
192,192,89600,1,0,0:0:0:0:
448,192,89700,1,0,0:0:0:0:
320,192,89800,128,0,90150:0:0:0:0:
192,192,89800,1,0,0:0:0:0:
64,192,89900,1,0,0:0:0:0:
192,192,90000,1,0,0:0:0:0:
64,192,90100,1,0,0:0:0:0:
192,192,90200,1,0,0:0:0:0:
448,192,90200,128,0,90550:0:0:0:0:
320,192,90300,1,0,0:0:0:0:
192,192,90400,1,0,0:0:0:0:
64,192,90500,1,0,0:0:0:0:
320,192,90600,128,0,90950:0:0:0:0:
192,192,90600,1,0,0:0:0:0:
448,192,90700,1,0,0:0:0:0:
192,192,90800,1,0,0:0:0:0:
64,192,90900,1,0,0:0:0:0:
192,192,91000,1,0,0:0:0:0:
448,192,91000,128,0,91350:0:0:0:0:
320,192,91100,1,0,0:0:0:0:
192,192,91200,1,0,0:0:0:0:
64,192,91300,1,0,0:0:0:0:
448,192,91400,1,0,0:0:0:0:
320,192,91400,128,0,91500:0:0:0:0:
64,192,91500,1,0,0:0:0:0:
448,192,91600,1,0,0:0:0:0:
192,192,91600,128,0,91700:0:0:0:0:
320,192,91700,1,0,0:0:0:0:
448,192,91800,1,0,0:0:0:0:
64,192,91800,128,0,92150:0:0:0:0:
320,192,91900,1,0,0:0:0:0:
192,192,92000,1,0,0:0:0:0:
448,192,92100,1,0,0:0:0:0:
320,192,92200,128,0,92550:0:0:0:0:
192,192,92200,1,0,0:0:0:0:
192,192,92300,1,0,0:0:0:0:
192,192,92400,1,0,0:0:0:0:
448,192,92450,1,0,0:0:0:0:
192,192,92600,128,0,92950:0:0:0:0:
448,192,92700,1,0,0:0:0:0:
448,192,92800,1,0,0:0:0:0:
320,192,92850,1,0,0:0:0:0:
320,192,93000,128,0,93100:0:0:0:0:
64,192,93000,1,0,0:0:0:0:
448,192,93100,1,0,0:0:0:0:
192,192,93200,128,0,93300:0:0:0:0:
64,192,93200,1,0,0:0:0:0:
448,192,93300,1,0,0:0:0:0:
64,192,93400,1,0,0:0:0:0:
320,192,93400,128,0,93750:0:0:0:0:
192,192,93500,1,0,0:0:0:0:
64,192,93600,1,0,0:0:0:0:
192,192,93700,1,0,0:0:0:0:
448,192,93800,128,0,94150:0:0:0:0:
64,192,93800,1,0,0:0:0:0:
192,192,93900,1,0,0:0:0:0:
64,192,94000,1,0,0:0:0:0:
192,192,94100,1,0,0:0:0:0:
64,192,94200,1,0,0:0:0:0:
320,192,94200,128,0,94550:0:0:0:0:
192,192,94300,1,0,0:0:0:0:
448,192,94400,1,0,0:0:0:0:
64,192,94500,1,0,0:0:0:0:
192,192,94600,128,0,94700:0:0:0:0:
64,192,94600,1,0,0:0:0:0:
320,192,94700,1,0,0:0:0:0:
64,192,94800,128,0,94900:0:0:0:0:
448,192,94800,1,0,0:0:0:0:
320,192,94900,1,0,0:0:0:0:
448,192,95000,1,0,0:0:0:0:
192,192,95000,128,0,95300:0:0:0:0:
320,192,95100,1,0,0:0:0:0:
64,192,95200,1,0,0:0:0:0:
320,192,95300,1,0,0:0:0:0:
448,192,95400,1,0,0:0:0:0:
64,192,95400,128,0,95750:0:0:0:0:
320,192,95500,1,0,0:0:0:0:
192,192,95600,1,0,0:0:0:0:
320,192,95700,1,0,0:0:0:0:
192,192,95800,128,0,96150:0:0:0:0:
448,192,95800,1,0,0:0:0:0:
320,192,95900,1,0,0:0:0:0:
64,192,96000,1,0,0:0:0:0:
448,192,96100,1,0,0:0:0:0:
64,192,96200,1,0,0:0:0:0:
448,192,96200,1,0,0:0:0:0:
320,192,96200,128,0,96300:0:0:0:0:
448,192,96300,1,0,0:0:0:0:
64,192,96400,1,0,0:0:0:0:
192,192,96400,128,0,96500:0:0:0:0:
448,192,96500,1,0,0:0:0:0:
64,192,96600,1,0,0:0:0:0:
320,192,96600,128,0,96700:0:0:0:0:
448,192,96600,1,0,0:0:0:0:
192,192,96700,1,0,0:0:0:0:
448,192,96800,1,0,0:0:0:0:
320,192,96900,1,0,0:0:0:0:
192,192,97000,1,0,0:0:0:0:
448,192,97000,1,0,0:0:0:0:
64,192,97100,1,0,0:0:0:0:
192,192,97200,1,0,0:0:0:0:
320,192,97200,128,0,97350:0:0:0:0:
448,192,97200,128,0,97350:0:0:0:0:
64,192,97300,1,0,0:0:0:0:
192,192,97400,1,0,0:0:0:0:
64,192,97400,1,0,0:0:0:0:
64,192,97500,1,0,0:0:0:0:
192,192,97600,1,0,0:0:0:0:
320,192,97700,1,0,0:0:0:0:
448,192,97800,1,0,0:0:0:0:
192,192,97800,1,0,0:0:0:0:
320,192,97900,1,0,0:0:0:0:
448,192,98000,1,0,0:0:0:0:
192,192,98000,128,0,98150:0:0:0:0:
64,192,98000,128,0,98150:0:0:0:0:
320,192,98100,1,0,0:0:0:0:
448,192,98200,1,0,0:0:0:0:
320,192,98200,1,0,0:0:0:0:
448,192,98600,1,0,0:0:0:0:
320,192,98600,1,0,0:0:0:0:
64,192,98600,1,0,0:0:0:0:
448,192,98800,1,0,0:0:0:0:
192,192,98800,1,0,0:0:0:0:
64,192,98800,1,0,0:0:0:0:
192,192,99000,1,0,0:0:0:0:
64,192,99000,1,0,0:0:0:0:
320,192,99100,1,0,0:0:0:0:
448,192,99200,1,0,0:0:0:0:
192,192,99300,1,0,0:0:0:0:
448,192,99400,1,0,0:0:0:0:
320,192,99400,1,0,0:0:0:0:
192,192,99500,1,0,0:0:0:0:
64,192,99600,1,0,0:0:0:0:
192,192,99600,128,0,99750:0:0:0:0:
448,192,99700,1,0,0:0:0:0:
320,192,99800,1,0,0:0:0:0:
64,192,99800,1,0,0:0:0:0:
448,192,99900,1,0,0:0:0:0:
320,192,100000,1,0,0:0:0:0:
192,192,100100,1,0,0:0:0:0:
448,192,100200,1,0,0:0:0:0:
320,192,100200,1,0,0:0:0:0:
64,192,100400,1,0,0:0:0:0:
192,192,100400,1,0,0:0:0:0:
448,192,100600,1,0,0:0:0:0:
320,192,100600,1,0,0:0:0:0:
192,192,100700,1,0,0:0:0:0:
320,192,100800,1,0,0:0:0:0:
192,192,100900,1,0,0:0:0:0:
64,192,101000,1,0,0:0:0:0:
320,192,101000,1,0,0:0:0:0:
448,192,101200,1,0,0:0:0:0:
192,192,101200,1,0,0:0:0:0:
192,192,101600,1,0,0:0:0:0:
64,192,101600,1,0,0:0:0:0:
192,192,102000,128,0,102300:0:0:0:0:
448,192,102000,128,0,102300:0:0:0:0:
64,192,102000,1,0,0:0:0:0:
320,192,102100,1,0,0:0:0:0:
64,192,102200,1,0,0:0:0:0:
320,192,102300,1,0,0:0:0:0:
192,192,102400,1,0,0:0:0:0:
64,192,102400,128,0,102750:0:0:0:0:
320,192,102500,1,0,0:0:0:0:
448,192,102600,1,0,0:0:0:0:
320,192,102700,1,0,0:0:0:0:
448,192,102800,128,0,102950:0:0:0:0:
192,192,102800,128,0,102950:0:0:0:0:
320,192,102800,1,0,0:0:0:0:
64,192,102900,1,0,0:0:0:0:
320,192,103000,1,0,0:0:0:0:
448,192,103000,1,0,0:0:0:0:
192,192,103100,1,0,0:0:0:0:
64,192,103200,1,0,0:0:0:0:
320,192,103300,1,0,0:0:0:0:
192,192,103400,1,0,0:0:0:0:
448,192,103400,1,0,0:0:0:0:
320,192,103500,1,0,0:0:0:0:
192,192,103600,1,0,0:0:0:0:
64,192,103700,1,0,0:0:0:0:
448,192,103800,1,0,0:0:0:0:
320,192,103800,1,0,0:0:0:0:
64,192,103900,1,0,0:0:0:0:
192,192,104000,1,0,0:0:0:0:
320,192,104100,1,0,0:0:0:0:
448,192,104200,1,0,0:0:0:0:
64,192,104200,1,0,0:0:0:0:
192,192,104300,1,0,0:0:0:0:
448,192,104400,1,0,0:0:0:0:
320,192,104500,1,0,0:0:0:0:
448,192,104600,1,0,0:0:0:0:
192,192,104600,1,0,0:0:0:0:
64,192,105000,1,0,0:0:0:0:
320,192,105000,1,0,0:0:0:0:
448,192,105000,1,0,0:0:0:0:
448,192,105200,1,0,0:0:0:0:
192,192,105200,1,0,0:0:0:0:
64,192,105200,1,0,0:0:0:0:
448,192,105600,1,0,0:0:0:0:
320,192,105700,1,0,0:0:0:0:
64,192,105800,1,0,0:0:0:0:
192,192,105800,1,0,0:0:0:0:
320,192,105900,1,0,0:0:0:0:
64,192,106000,1,0,0:0:0:0:
448,192,106100,1,0,0:0:0:0:
192,192,106100,128,0,106350:0:0:0:0:
320,192,106200,1,0,0:0:0:0:
64,192,106200,1,0,0:0:0:0:
448,192,106300,1,0,0:0:0:0:
320,192,106400,1,0,0:0:0:0:
192,192,106500,1,0,0:0:0:0:
448,192,106600,1,0,0:0:0:0:
320,192,106600,1,0,0:0:0:0:
64,192,106800,1,0,0:0:0:0:
192,192,106800,1,0,0:0:0:0:
192,192,107200,128,0,107550:0:0:0:0:
448,192,107200,1,0,0:0:0:0:
320,192,107300,1,0,0:0:0:0:
448,192,107400,1,0,0:0:0:0:
64,192,107400,1,0,0:0:0:0:
320,192,107500,1,0,0:0:0:0:
64,192,107600,128,0,107850:0:0:0:0:
448,192,107600,1,0,0:0:0:0:
320,192,108000,1,0,0:0:0:0:
64,192,108000,128,0,108200:0:0:0:0:
448,192,108200,1,0,0:0:0:0:
320,192,108200,1,0,0:0:0:0:
448,192,108400,1,0,0:0:0:0:
320,192,108500,1,0,0:0:0:0:
192,192,108600,1,0,0:0:0:0:
64,192,108600,1,0,0:0:0:0:
448,192,108700,1,0,0:0:0:0:
320,192,108800,1,0,0:0:0:0:
192,192,108900,1,0,0:0:0:0:
448,192,109000,1,0,0:0:0:0:
320,192,109000,1,0,0:0:0:0:
320,192,109100,1,0,0:0:0:0:
192,192,109200,1,0,0:0:0:0:
64,192,109300,1,0,0:0:0:0:
448,192,109400,128,0,109950:0:0:0:0:
64,192,109400,1,0,0:0:0:0:
192,192,109400,1,0,0:0:0:0:
64,192,109600,1,0,0:0:0:0:
192,192,109600,1,0,0:0:0:0:
64,192,109700,1,0,0:0:0:0:
192,192,109700,1,0,0:0:0:0:
64,192,109800,1,0,0:0:0:0:
192,192,109800,1,0,0:0:0:0:
64,192,110000,128,0,110550:0:0:0:0:
192,192,110000,1,0,0:0:0:0:
320,192,110000,1,0,0:0:0:0:
320,192,110200,1,0,0:0:0:0:
448,192,110200,1,0,0:0:0:0:
448,192,110400,1,0,0:0:0:0:
320,192,110400,1,0,0:0:0:0:
320,192,110500,1,0,0:0:0:0:
448,192,110500,1,0,0:0:0:0:
448,192,110600,1,0,0:0:0:0:
320,192,110600,1,0,0:0:0:0:
64,192,110700,1,0,0:0:0:0:
192,192,110800,1,0,0:0:0:0:
320,192,110900,1,0,0:0:0:0:
448,192,111000,1,0,0:0:0:0:
192,192,111000,1,0,0:0:0:0:
64,192,111000,1,0,0:0:0:0:
192,192,111200,1,0,0:0:0:0:
448,192,111200,1,0,0:0:0:0:
64,192,111300,1,0,0:0:0:0:
320,192,111300,1,0,0:0:0:0:
192,192,111400,1,0,0:0:0:0:
320,192,111400,1,0,0:0:0:0:
64,192,111600,1,0,0:0:0:0:
192,192,111600,1,0,0:0:0:0:
320,192,111800,1,0,0:0:0:0:
448,192,111800,1,0,0:0:0:0:
320,192,112000,1,0,0:0:0:0:
192,192,112000,1,0,0:0:0:0:
64,192,112100,1,0,0:0:0:0:
448,192,112100,1,0,0:0:0:0:
320,192,112200,1,0,0:0:0:0:
192,192,112200,1,0,0:0:0:0:
448,192,112400,1,0,0:0:0:0:
320,192,112400,1,0,0:0:0:0:
192,192,112400,1,0,0:0:0:0:
192,192,112600,1,0,0:0:0:0:
320,192,112600,1,0,0:0:0:0:
448,192,112600,128,0,113150:0:0:0:0:
64,192,112800,1,0,0:0:0:0:
192,192,112800,1,0,0:0:0:0:
64,192,112900,1,0,0:0:0:0:
192,192,112900,1,0,0:0:0:0:
192,192,113000,1,0,0:0:0:0:
64,192,113000,1,0,0:0:0:0:
448,192,113200,128,0,113750:0:0:0:0:
320,192,113200,1,0,0:0:0:0:
64,192,113200,1,0,0:0:0:0:
192,192,113400,1,0,0:0:0:0:
64,192,113400,1,0,0:0:0:0:
320,192,113600,1,0,0:0:0:0:
64,192,113600,1,0,0:0:0:0:
192,192,113700,1,0,0:0:0:0:
320,192,113800,1,0,0:0:0:0:
448,192,113900,1,0,0:0:0:0:
320,192,114000,1,0,0:0:0:0:
192,192,114100,1,0,0:0:0:0:
64,192,114200,1,0,0:0:0:0:
320,192,114200,1,0,0:0:0:0:
448,192,114200,1,0,0:0:0:0:
448,192,114400,1,0,0:0:0:0:
192,192,114400,1,0,0:0:0:0:
320,192,114500,1,0,0:0:0:0:
64,192,114500,1,0,0:0:0:0:
192,192,114600,1,0,0:0:0:0:
320,192,114600,1,0,0:0:0:0:
64,192,114800,1,0,0:0:0:0:
320,192,114800,1,0,0:0:0:0:
320,192,115000,1,0,0:0:0:0:
448,192,115000,1,0,0:0:0:0:
320,192,115200,1,0,0:0:0:0:
192,192,115200,1,0,0:0:0:0:
64,192,115300,1,0,0:0:0:0:
448,192,115300,1,0,0:0:0:0:
320,192,115400,1,0,0:0:0:0:
192,192,115400,1,0,0:0:0:0:
192,192,115600,1,0,0:0:0:0:
320,192,115600,1,0,0:0:0:0:
448,192,115600,1,0,0:0:0:0:
64,192,115800,1,0,0:0:0:0:
64,192,115900,1,0,0:0:0:0:
64,192,116000,1,0,0:0:0:0:
64,192,116100,1,0,0:0:0:0:
64,192,116200,1,0,0:0:0:0:
320,192,116200,1,0,0:0:0:0:
448,192,116200,1,0,0:0:0:0:
192,192,116400,1,0,0:0:0:0:
64,192,116400,1,0,0:0:0:0:
448,192,116600,1,0,0:0:0:0:
64,192,116600,128,0,116850:0:0:0:0:
448,192,116700,1,0,0:0:0:0:
448,192,116800,1,0,0:0:0:0:
448,192,116900,1,0,0:0:0:0:
192,192,116900,128,0,117150:0:0:0:0:
448,192,117000,1,0,0:0:0:0:
320,192,117000,1,0,0:0:0:0:
320,192,117200,1,0,0:0:0:0:
64,192,117200,1,0,0:0:0:0:
448,192,117400,128,0,117650:0:0:0:0:
320,192,117400,128,0,117650:0:0:0:0:
320,192,117700,128,0,117950:0:0:0:0:
192,192,117700,128,0,117950:0:0:0:0:
192,192,118000,128,0,118250:0:0:0:0:
64,192,118000,128,0,118250:0:0:0:0:
320,192,118300,128,0,118450:0:0:0:0:
192,192,118300,128,0,118450:0:0:0:0:
320,192,118500,128,0,118550:0:0:0:0:
448,192,118500,128,0,118550:0:0:0:0:
320,192,118600,128,0,118750:0:0:0:0:
192,192,118600,128,0,118750:0:0:0:0:
448,192,118800,128,0,118950:0:0:0:0:
320,192,118800,128,0,118950:0:0:0:0:
320,192,119000,128,0,119150:0:0:0:0:
192,192,119000,128,0,119150:0:0:0:0:
64,192,119000,1,0,0:0:0:0:
192,192,119200,128,0,119350:0:0:0:0:
64,192,119200,128,0,119350:0:0:0:0:
448,192,119400,1,0,0:0:0:0:
320,192,119500,1,0,0:0:0:0:
192,192,119600,1,0,0:0:0:0:
320,192,119700,1,0,0:0:0:0:
192,192,119800,1,0,0:0:0:0:
448,192,119800,1,0,0:0:0:0:
64,192,119900,1,0,0:0:0:0:
320,192,119900,1,0,0:0:0:0:
192,192,120000,1,0,0:0:0:0:
64,192,120000,1,0,0:0:0:0:
192,192,120100,1,0,0:0:0:0:
64,192,120100,1,0,0:0:0:0:
448,192,120200,1,0,0:0:0:0:
64,192,120200,1,0,0:0:0:0:
192,192,120200,1,0,0:0:0:0:
192,192,120400,1,0,0:0:0:0:
448,192,120600,1,0,0:0:0:0:
320,192,120600,1,0,0:0:0:0:
64,192,120700,1,0,0:0:0:0:
192,192,120800,1,0,0:0:0:0:
320,192,120900,1,0,0:0:0:0:
448,192,121000,1,0,0:0:0:0:
320,192,121100,1,0,0:0:0:0:
192,192,121200,1,0,0:0:0:0:
64,192,121300,1,0,0:0:0:0:
320,192,121400,1,0,0:0:0:0:
192,192,121400,1,0,0:0:0:0:
448,192,121500,1,0,0:0:0:0:
320,192,121600,1,0,0:0:0:0:
192,192,121700,1,0,0:0:0:0:
448,192,121800,1,0,0:0:0:0:
320,192,121800,1,0,0:0:0:0:
192,192,121900,1,0,0:0:0:0:
64,192,121900,1,0,0:0:0:0:
448,192,122000,1,0,0:0:0:0:
320,192,122100,1,0,0:0:0:0:
448,192,122200,1,0,0:0:0:0:
192,192,122200,1,0,0:0:0:0:
64,192,122200,1,0,0:0:0:0:
448,192,122400,1,0,0:0:0:0:
320,192,122400,1,0,0:0:0:0:
64,192,122400,1,0,0:0:0:0:
192,192,122600,1,0,0:0:0:0:
320,192,122600,1,0,0:0:0:0:
320,192,122800,1,0,0:0:0:0:
448,192,122800,1,0,0:0:0:0:
320,192,123000,1,0,0:0:0:0:
192,192,123000,1,0,0:0:0:0:
64,192,123100,1,0,0:0:0:0:
192,192,123200,1,0,0:0:0:0:
320,192,123300,1,0,0:0:0:0:
448,192,123400,1,0,0:0:0:0:
320,192,123500,1,0,0:0:0:0:
192,192,123600,1,0,0:0:0:0:
64,192,123700,1,0,0:0:0:0:
320,192,123800,1,0,0:0:0:0:
448,192,123800,1,0,0:0:0:0:
64,192,123800,1,0,0:0:0:0:
320,192,123900,1,0,0:0:0:0:
448,192,123900,1,0,0:0:0:0:
320,192,124000,1,0,0:0:0:0:
448,192,124000,1,0,0:0:0:0:
320,192,124100,1,0,0:0:0:0:
448,192,124100,1,0,0:0:0:0:
448,192,124200,1,0,0:0:0:0:
192,192,124200,1,0,0:0:0:0:
64,192,124200,1,0,0:0:0:0:
64,192,124300,1,0,0:0:0:0:
192,192,124300,1,0,0:0:0:0:
64,192,124400,1,0,0:0:0:0:
192,192,124400,1,0,0:0:0:0:
192,192,124500,1,0,0:0:0:0:
64,192,124500,1,0,0:0:0:0:
64,192,124600,1,0,0:0:0:0:
320,192,124600,1,0,0:0:0:0:
448,192,124600,1,0,0:0:0:0:
320,192,124700,1,0,0:0:0:0:
448,192,124700,1,0,0:0:0:0:
448,192,124800,1,0,0:0:0:0:
320,192,124800,1,0,0:0:0:0:
192,192,124900,1,0,0:0:0:0:
320,192,124900,1,0,0:0:0:0:
192,192,125000,1,0,0:0:0:0:
64,192,125000,1,0,0:0:0:0:
448,192,125000,1,0,0:0:0:0:
192,192,125100,1,0,0:0:0:0:
64,192,125100,1,0,0:0:0:0:
320,192,125200,1,0,0:0:0:0:
192,192,125200,1,0,0:0:0:0:
320,192,125300,1,0,0:0:0:0:
192,192,125300,1,0,0:0:0:0:
320,192,125400,1,0,0:0:0:0:
192,192,125400,1,0,0:0:0:0:
64,192,125400,1,0,0:0:0:0:
320,192,125600,1,0,0:0:0:0:
448,192,125800,1,0,0:0:0:0:
320,192,125800,1,0,0:0:0:0:
192,192,125800,1,0,0:0:0:0:
192,192,126000,1,0,0:0:0:0:
64,192,126200,1,0,0:0:0:0:
192,192,126200,1,0,0:0:0:0:
320,192,126200,1,0,0:0:0:0:
320,192,126400,1,0,0:0:0:0:
448,192,126600,1,0,0:0:0:0:
320,192,126600,1,0,0:0:0:0:
192,192,126600,1,0,0:0:0:0:
192,192,126800,1,0,0:0:0:0:
320,192,127000,1,0,0:0:0:0:
448,192,127000,1,0,0:0:0:0:
64,192,127000,1,0,0:0:0:0:
320,192,127100,1,0,0:0:0:0:
448,192,127100,1,0,0:0:0:0:
320,192,127200,1,0,0:0:0:0:
448,192,127200,1,0,0:0:0:0:
320,192,127300,1,0,0:0:0:0:
448,192,127300,1,0,0:0:0:0:
64,192,127400,1,0,0:0:0:0:
192,192,127400,1,0,0:0:0:0:
448,192,127400,1,0,0:0:0:0:
64,192,127500,1,0,0:0:0:0:
192,192,127500,1,0,0:0:0:0:
64,192,127600,1,0,0:0:0:0:
192,192,127600,1,0,0:0:0:0:
64,192,127700,1,0,0:0:0:0:
192,192,127700,1,0,0:0:0:0:
448,192,127800,1,0,0:0:0:0:
64,192,127800,1,0,0:0:0:0:
192,192,127800,1,0,0:0:0:0:
320,192,127900,1,0,0:0:0:0:
448,192,127900,1,0,0:0:0:0:
320,192,128000,1,0,0:0:0:0:
192,192,128000,1,0,0:0:0:0:
192,192,128100,1,0,0:0:0:0:
320,192,128100,1,0,0:0:0:0:
64,192,128200,1,0,0:0:0:0:
192,192,128200,1,0,0:0:0:0:
448,192,128200,1,0,0:0:0:0:
64,192,128300,1,0,0:0:0:0:
192,192,128300,1,0,0:0:0:0:
192,192,128400,1,0,0:0:0:0:
320,192,128400,1,0,0:0:0:0:
320,192,128500,1,0,0:0:0:0:
192,192,128500,1,0,0:0:0:0:
320,192,128600,1,0,0:0:0:0:
192,192,128600,1,0,0:0:0:0:
64,192,128600,1,0,0:0:0:0:
320,192,128800,1,0,0:0:0:0:
448,192,129000,1,0,0:0:0:0:
320,192,129000,1,0,0:0:0:0:
192,192,129000,1,0,0:0:0:0:
192,192,129200,1,0,0:0:0:0:
64,192,129400,1,0,0:0:0:0:
192,192,129400,1,0,0:0:0:0:
320,192,129400,1,0,0:0:0:0:
320,192,129600,1,0,0:0:0:0:
448,192,129800,1,0,0:0:0:0:
320,192,129800,1,0,0:0:0:0:
192,192,129800,1,0,0:0:0:0:
192,192,130000,1,0,0:0:0:0:
64,192,130200,1,0,0:0:0:0:
320,192,130200,1,0,0:0:0:0:
448,192,130200,1,0,0:0:0:0:
320,192,130300,1,0,0:0:0:0:
448,192,130300,1,0,0:0:0:0:
320,192,130400,1,0,0:0:0:0:
448,192,130400,1,0,0:0:0:0:
320,192,130500,1,0,0:0:0:0:
448,192,130500,1,0,0:0:0:0:
448,192,130600,1,0,0:0:0:0:
192,192,130600,1,0,0:0:0:0:
64,192,130600,1,0,0:0:0:0:
64,192,130700,1,0,0:0:0:0:
192,192,130700,1,0,0:0:0:0:
192,192,130800,1,0,0:0:0:0:
64,192,130800,1,0,0:0:0:0:
64,192,130900,1,0,0:0:0:0:
192,192,130900,1,0,0:0:0:0:
64,192,131000,1,0,0:0:0:0:
192,192,131000,1,0,0:0:0:0:
448,192,131000,1,0,0:0:0:0:
320,192,131100,1,0,0:0:0:0:
192,192,131100,1,0,0:0:0:0:
192,192,131200,1,0,0:0:0:0:
320,192,131200,1,0,0:0:0:0:
192,192,131300,1,0,0:0:0:0:
64,192,131300,1,0,0:0:0:0:
448,192,131400,1,0,0:0:0:0:
320,192,131400,1,0,0:0:0:0:
64,192,131400,1,0,0:0:0:0:
320,192,131500,1,0,0:0:0:0:
448,192,131500,1,0,0:0:0:0:
320,192,131600,1,0,0:0:0:0:
448,192,131600,1,0,0:0:0:0:
320,192,131700,1,0,0:0:0:0:
448,192,131700,1,0,0:0:0:0:
64,192,131800,1,0,0:0:0:0:
192,192,131800,1,0,0:0:0:0:
320,192,131800,1,0,0:0:0:0:
320,192,132000,1,0,0:0:0:0:
192,192,132200,1,0,0:0:0:0:
320,192,132200,1,0,0:0:0:0:
448,192,132200,1,0,0:0:0:0:
192,192,132400,1,0,0:0:0:0:
320,192,132600,1,0,0:0:0:0:
192,192,132600,1,0,0:0:0:0:
64,192,132600,1,0,0:0:0:0:
320,192,132800,1,0,0:0:0:0:
192,192,133000,1,0,0:0:0:0:
320,192,133000,1,0,0:0:0:0:
448,192,133000,1,0,0:0:0:0:
192,192,133200,1,0,0:0:0:0:
320,192,133400,1,0,0:0:0:0:
448,192,133400,1,0,0:0:0:0:
64,192,133400,1,0,0:0:0:0:
320,192,133500,1,0,0:0:0:0:
448,192,133500,1,0,0:0:0:0:
320,192,133600,1,0,0:0:0:0:
448,192,133600,1,0,0:0:0:0:
320,192,133700,1,0,0:0:0:0:
448,192,133700,1,0,0:0:0:0:
448,192,133800,1,0,0:0:0:0:
64,192,133800,1,0,0:0:0:0:
320,192,133800,1,0,0:0:0:0:
64,192,133900,1,0,0:0:0:0:
192,192,133900,1,0,0:0:0:0:
192,192,134000,1,0,0:0:0:0:
64,192,134000,1,0,0:0:0:0:
192,192,134100,1,0,0:0:0:0:
64,192,134100,1,0,0:0:0:0:
64,192,134200,1,0,0:0:0:0:
192,192,134200,1,0,0:0:0:0:
448,192,134200,1,0,0:0:0:0:
320,192,134300,1,0,0:0:0:0:
448,192,134300,1,0,0:0:0:0:
448,192,134400,1,0,0:0:0:0:
320,192,134400,1,0,0:0:0:0:
320,192,134500,1,0,0:0:0:0:
448,192,134500,1,0,0:0:0:0:
320,192,134600,1,0,0:0:0:0:
448,192,134600,1,0,0:0:0:0:
64,192,134600,1,0,0:0:0:0:
192,192,134700,1,0,0:0:0:0:
320,192,134700,1,0,0:0:0:0:
192,192,134800,1,0,0:0:0:0:
320,192,134800,1,0,0:0:0:0:
320,192,134900,1,0,0:0:0:0:
192,192,134900,1,0,0:0:0:0:
320,192,135000,1,0,0:0:0:0:
192,192,135000,1,0,0:0:0:0:
64,192,135000,1,0,0:0:0:0:
320,192,135200,1,0,0:0:0:0:
448,192,135400,1,0,0:0:0:0:
320,192,135400,1,0,0:0:0:0:
192,192,135400,1,0,0:0:0:0:
192,192,135600,1,0,0:0:0:0:
64,192,135800,1,0,0:0:0:0:
192,192,135800,1,0,0:0:0:0:
320,192,135800,1,0,0:0:0:0:
320,192,136000,1,0,0:0:0:0:
448,192,136200,1,0,0:0:0:0:
320,192,136200,1,0,0:0:0:0:
192,192,136200,1,0,0:0:0:0:
320,192,136300,1,0,0:0:0:0:
192,192,136400,1,0,0:0:0:0:
64,192,136500,1,0,0:0:0:0:
448,192,136600,128,0,136750:0:0:0:0:
64,192,136600,128,0,136750:0:0:0:0:
320,192,136600,1,0,0:0:0:0:
448,192,136800,128,0,136950:0:0:0:0:
64,192,136800,128,0,136950:0:0:0:0:
320,192,137000,1,0,0:0:0:0:
448,192,137000,1,0,0:0:0:0:
192,192,137000,1,0,0:0:0:0:
192,192,137100,1,0,0:0:0:0:
320,192,137200,1,0,0:0:0:0:
448,192,137300,1,0,0:0:0:0:
320,192,137400,1,0,0:0:0:0:
192,192,137400,1,0,0:0:0:0:
64,192,137400,1,0,0:0:0:0:
64,192,137500,1,0,0:0:0:0:
192,192,137600,1,0,0:0:0:0:
320,192,137700,1,0,0:0:0:0:
448,192,137800,1,0,0:0:0:0:
192,192,137800,1,0,0:0:0:0:
320,192,137800,1,0,0:0:0:0:
192,192,137900,1,0,0:0:0:0:
64,192,138000,1,0,0:0:0:0:
192,192,138200,128,0,138350:0:0:0:0:
64,192,138200,128,0,138350:0:0:0:0:
320,192,138200,128,0,138350:0:0:0:0:
448,192,138400,128,0,138550:0:0:0:0:
320,192,138400,128,0,138550:0:0:0:0:
192,192,138400,128,0,138550:0:0:0:0:
64,192,138600,1,0,0:0:0:0:
192,192,138700,1,0,0:0:0:0:
320,192,138800,1,0,0:0:0:0:
448,192,138900,1,0,0:0:0:0:
192,192,139000,1,0,0:0:0:0:
64,192,139100,1,0,0:0:0:0:
448,192,139200,1,0,0:0:0:0:
320,192,139250,1,0,0:0:0:0:
192,192,139300,1,0,0:0:0:0:
64,192,139350,1,0,0:0:0:0:
448,192,139350,1,0,0:0:0:0:
320,192,139400,1,0,0:0:0:0:
192,192,139450,1,0,0:0:0:0:
64,192,139500,1,0,0:0:0:0:
448,192,139550,1,0,0:0:0:0:
320,192,139600,1,0,0:0:0:0:
192,192,139650,1,0,0:0:0:0:
320,192,139800,1,0,0:0:0:0:
448,192,139800,128,0,139950:0:0:0:0:
64,192,139800,128,0,139950:0:0:0:0:
64,192,140000,128,0,140150:0:0:0:0:
448,192,140000,128,0,140150:0:0:0:0:
320,192,140200,1,0,0:0:0:0:
448,192,140200,1,0,0:0:0:0:
192,192,140200,1,0,0:0:0:0:
192,192,140300,1,0,0:0:0:0:
320,192,140400,1,0,0:0:0:0:
448,192,140500,1,0,0:0:0:0:
192,192,140600,1,0,0:0:0:0:
320,192,140600,1,0,0:0:0:0:
64,192,140600,1,0,0:0:0:0:
64,192,140700,1,0,0:0:0:0:
192,192,140800,1,0,0:0:0:0:
320,192,140900,1,0,0:0:0:0:
192,192,141000,1,0,0:0:0:0:
448,192,141000,1,0,0:0:0:0:
320,192,141000,1,0,0:0:0:0:
192,192,141100,1,0,0:0:0:0:
64,192,141200,1,0,0:0:0:0:
320,192,141400,128,0,141550:0:0:0:0:
64,192,141400,128,0,141550:0:0:0:0:
192,192,141400,128,0,141550:0:0:0:0:
192,192,141600,128,0,141750:0:0:0:0:
320,192,141600,128,0,141750:0:0:0:0:
448,192,141600,128,0,141750:0:0:0:0:
64,192,141800,1,0,0:0:0:0:
192,192,141900,1,0,0:0:0:0:
320,192,142000,1,0,0:0:0:0:
448,192,142100,1,0,0:0:0:0:
192,192,142200,1,0,0:0:0:0:
64,192,142300,1,0,0:0:0:0:
448,192,142400,1,0,0:0:0:0:
320,192,142450,1,0,0:0:0:0:
192,192,142500,1,0,0:0:0:0:
448,192,142550,1,0,0:0:0:0:
64,192,142550,1,0,0:0:0:0:
320,192,142600,1,0,0:0:0:0:
192,192,142650,1,0,0:0:0:0:
64,192,142700,1,0,0:0:0:0:
448,192,142750,1,0,0:0:0:0:
320,192,142800,1,0,0:0:0:0:
192,192,142850,1,0,0:0:0:0:
320,192,143000,1,0,0:0:0:0:
448,192,143000,128,0,143150:0:0:0:0:
64,192,143000,128,0,143150:0:0:0:0:
64,192,143200,128,0,143350:0:0:0:0:
448,192,143200,128,0,143350:0:0:0:0:
320,192,143400,1,0,0:0:0:0:
448,192,143400,1,0,0:0:0:0:
192,192,143400,1,0,0:0:0:0:
192,192,143500,1,0,0:0:0:0:
320,192,143600,1,0,0:0:0:0:
64,192,143600,128,0,143750:0:0:0:0:
448,192,143700,1,0,0:0:0:0:
320,192,143800,1,0,0:0:0:0:
192,192,143800,1,0,0:0:0:0:
64,192,143800,1,0,0:0:0:0:
192,192,144000,128,0,144150:0:0:0:0:
64,192,144000,128,0,144150:0:0:0:0:
192,192,144200,128,0,144350:0:0:0:0:
320,192,144200,128,0,144350:0:0:0:0:
448,192,144200,1,0,0:0:0:0:
320,192,144400,128,0,144550:0:0:0:0:
448,192,144400,128,0,144550:0:0:0:0:
64,192,144400,1,0,0:0:0:0:
64,192,144600,1,0,0:0:0:0:
192,192,144600,1,0,0:0:0:0:
320,192,144600,1,0,0:0:0:0:
