osu file format v14

[General]
AudioFilename: audio.mp3
AudioLeadIn: 0
PreviewTime: -1
Countdown: 1
SampleSet: Normal
StackLeniency: 0.7
Mode: 0
LetterboxInBreaks: 0
WidescreenStoryboard: 0

[Editor]
DistanceSpacing: 1
BeatDivisor: 4
GridSize: 4
TimelineZoom: 1

[Metadata]
Title:Isekai GirlsTalk
TitleUnicode:Isekai Girls♡Talk
Artist:Albedo(Yumi Hara), Aqua(Sora Amamiya), Emilia(Rie Takahashi), Tanya(Aoi Yuki)
ArtistUnicode:Albedo(Yumi Hara), Aqua(Sora Amamiya), Emilia(Rie Takahashi), Tanya(Aoi Yuki)
Creator:ulxtii
Version:Joshikai
Source:
Tags:
BeatmapID:2004990
BeatmapSetID:957674

[Difficulty]
HPDrainRate:6
CircleSize:4.5
OverallDifficulty:8
ApproachRate:9.3
SliderMultiplier:1.4
SliderTickRate:1

[Events]
//Background and Video events
0,0,"thumb-1920-1000034.jpg",0,0
//Break Periods
//Storyboard Layer 0 (Background)
//Storyboard Layer 1 (Fail)
//Storyboard Layer 2 (Pass)
//Storyboard Layer 3 (Foreground)
//Storyboard Sound Samples

[TimingPoints]
82.5075196804504,352.935728218084,4,1,0,100,1,0
45314,352.934948206796,4,1,0,100,1,1

[HitObjects]
158,174,2553,5,0,0:0:0:0:
158,174,2905,1,0,0:0:0:0:
318,130,5376,5,0,0:0:0:0:
318,130,5729,1,0,0:0:0:0:
146,196,8200,2,0,P|210:130|227:157,1,140
123,162,9964,6,0,L|178:128,1,35
123,162,10141,6,0,L|178:128,1,35
123,162,10317,6,0,L|178:128,1,35
123,162,10494,6,0,L|178:128,1,35
123,162,10670,6,0,L|178:128,1,35
123,162,10847,6,0,L|178:128,1,35
172,103,11023,5,0,0:0:0:0:
302,258,11376,1,0,0:0:0:0:
149,159,13847,5,0,0:0:0:0:
226,202,14199,1,0,0:0:0:0:
144,159,16670,6,0,P|143:65|174:71,1,140
144,159,19493,6,0,P|212:101|241:141,1,140
111,175,21258,6,0,L|151:155,1,35
228,108,21435,2,0,L|185:133,1,35
131,82,21611,2,0,L|146:116,1,35
205,200,21788,2,0,L|179:163,1,35
62,117,21964,2,0,L|98:130,1,35
259,168,22140,2,0,L|214:157,1,35
183,87,22317,2,0,L|170:119,1,35
123,228,22493,2,0,L|138:187,1,35
182,170,22670,5,0,0:0:0:0:
251,121,22846,1,0,0:0:0:0:
251,121,22923,1,0,0:0:0:0:
251,121,23023,1,0,0:0:0:0:
131,279,23174,1,0,0:0:0:0:
230,156,23334,5,0,0:0:0:0:
97,140,23510,1,0,0:0:0:0:
202,282,23700,1,0,0:0:0:0:
123,134,23863,1,0,0:0:0:0:
110,268,24053,5,0,0:0:0:0:
224,184,24229,1,0,0:0:0:0:
123,158,24414,1,0,0:0:0:0:
224,297,24578,1,0,0:0:0:0:
286,145,24763,2,0,P|349:110|373:114,1,70
343,110,25140,5,0,0:0:0:0:
114,153,25291,5,0,0:0:0:0:
296,282,25444,1,0,0:0:0:0:
251,139,25609,5,0,0:0:0:0:
134,301,25797,1,0,0:0:0:0:
114,153,25986,1,0,0:0:0:0:
134,301,26174,1,0,0:0:0:0:
292,276,26355,1,0,0:0:0:0:
275,102,26502,5,0,0:0:0:0:
275,102,26692,1,0,0:0:0:0:
275,102,26880,1,0,0:0:0:0:
275,102,27031,1,0,0:0:0:0:
275,102,27216,1,0,0:0:0:0:
275,102,27406,1,0,0:0:0:0:
275,102,27582,1,0,0:0:0:0:
207,178,27787,6,0,P|276:176|277:180,1,70
262,157,28263,1,0,0:0:0:0:
181,116,28451,5,0,0:0:0:0:
288,236,28616,1,0,0:0:0:0:
206,348,28800,1,0,0:0:0:0:
181,116,28978,5,0,0:0:0:0:
288,236,29174,5,0,0:0:0:0:
206,348,29355,5,0,0:0:0:0:
181,116,29535,5,0,0:0:0:0:
78,236,29708,5,0,0:0:0:0:
206,348,29880,5,0,0:0:0:0:
206,348,30057,5,0,0:0:0:0:
78,236,30237,5,0,0:0:0:0:
181,116,30413,5,0,0:0:0:0:
172,217,30594,6,0,P|185:136|261:131,1,140
342,94,31111,5,0,0:0:0:0:
169,96,31296,5,0,0:0:0:0:
159,301,31468,1,0,0:0:0:0:
235,98,31632,5,0,0:0:0:0:
247,303,31808,1,0,0:0:0:0:
386,278,31982,5,0,0:0:0:0:
155,156,32166,1,0,0:0:0:0:
441,96,32341,5,0,0:0:0:0:
169,268,32531,1,0,0:0:0:0:
89,87,32711,5,0,0:0:0:0:
332,263,32892,1,0,0:0:0:0:
231,90,33064,5,0,0:0:0:0:
109,298,33242,1,0,0:0:0:0:
181,197,33400,6,0,P|255:149|301:202,1,140
246,141,33964,5,0,0:0:0:0:
246,141,34292,5,0,0:0:0:0:
246,141,34649,5,0,0:0:0:0:
246,141,35023,5,0,0:0:0:0:
246,141,35376,5,0,0:0:0:0:
246,141,35729,5,0,0:0:0:0:
246,141,36081,5,0,0:0:0:0:
246,141,36434,5,0,0:0:0:0:
246,141,36787,5,0,0:0:0:0:
246,141,37140,5,0,0:0:0:0:
230,251,37317,1,0,0:0:0:0:
246,141,37493,5,0,0:0:0:0:
230,251,37846,1,0,0:0:0:0:
246,141,38199,5,0,0:0:0:0:
230,251,38552,1,0,0:0:0:0:
246,141,38728,5,0,0:0:0:0:
230,251,38905,1,0,0:0:0:0:
122,119,39258,1,0,0:0:0:0:
131,243,39611,6,0,L|212:179,1,70
227,185,40140,2,0,L|146:242,1,70
118,174,40670,5,0,0:0:0:0:
118,174,41023,6,0,P|209:87|319:97,1,210
282,153,41728,5,0,0:0:0:0:
289,170,42081,1,0,0:0:0:0:
436,310,42523,5,0,0:0:0:0:
401,302,42611,1,0,0:0:0:0:
369,288,42699,1,0,0:0:0:0:
337,276,42787,1,0,0:0:0:0:
302,268,42875,1,0,0:0:0:0:
268,262,42964,1,0,0:0:0:0:
234,255,43052,1,0,0:0:0:0:
200,245,43140,1,0,0:0:0:0:
169,230,43228,1,0,0:0:0:0:
141,208,43317,1,0,0:0:0:0:
123,179,43405,1,0,0:0:0:0:
124,144,43493,1,0,0:0:0:0:
144,115,43581,1,0,0:0:0:0:
172,95,43670,1,0,0:0:0:0:
204,80,43758,1,0,0:0:0:0:
237,71,43846,1,0,0:0:0:0:
272,68,43934,1,0,0:0:0:0:
306,75,44022,1,0,0:0:0:0:
328,101,44111,1,0,0:0:0:0:
334,135,44199,1,0,0:0:0:0:
342,169,44287,1,0,0:0:0:0:
367,193,44375,1,0,0:0:0:0:
392,215,44464,1,0,0:0:0:0:
369,240,44552,1,0,0:0:0:0:
339,257,44640,1,0,0:0:0:0:
307,271,44728,1,0,0:0:0:0:
274,284,44817,1,0,0:0:0:0:
242,297,44905,1,0,0:0:0:0:
209,309,44993,1,0,0:0:0:0:
176,321,45081,1,0,0:0:0:0:
143,332,45170,1,0,0:0:0:0:
110,343,45258,1,0,0:0:0:0:
145,126,45611,5,0,0:0:0:0:
343,191,45964,5,0,0:0:0:0:
353,64,46317,5,0,0:0:0:0:
152,103,46670,5,0,0:0:0:0:
221,273,47022,1,0,0:0:0:0:
368,125,47199,1,0,0:0:0:0:
138,173,47546,5,0,0:0:0:0:
363,243,47695,1,0,0:0:0:0:
168,303,47880,1,0,0:0:0:0:
168,303,48065,5,0,0:0:0:0:
68,246,48242,1,0,0:0:0:0:
279,114,48406,1,0,0:0:0:0:
221,273,48586,1,0,0:0:0:0:
138,119,48964,5,0,0:0:0:0:
301,265,49111,1,0,0:0:0:0:
331,126,49301,1,0,0:0:0:0:
140,253,49472,1,0,0:0:0:0:
418,260,49653,1,0,0:0:0:0:
130,126,49816,1,0,0:0:0:0:
388,69,50001,1,0,0:0:0:0:
73,208,50183,1,0,0:0:0:0:
321,297,50359,1,0,0:0:0:0:
273,84,50527,1,0,0:0:0:0:
206,293,50699,1,0,0:0:0:0:
296,198,50884,5,0,0:0:0:0:
296,198,51225,6,0,B|350:204|357:259|346:227,5,70
189,122,52468,5,0,0:0:0:0:
331,252,52653,1,0,0:0:0:0:
126,45,52835,5,0,0:0:0:0:
386,322,52998,1,0,0:0:0:0:
189,122,53162,5,0,0:0:0:0:
331,252,53343,1,0,0:0:0:0:
347,109,53501,5,0,0:0:0:0:
159,261,53675,1,0,0:0:0:0:
242,180,53856,5,0,0:0:0:0:
242,180,54060,1,0,0:0:0:0:
242,180,54253,1,0,0:0:0:0:
146,176,54788,5,0,0:0:0:0:
177,160,54877,1,0,0:0:0:0:
208,145,54964,1,0,0:0:0:0:
240,130,55052,1,0,0:0:0:0:
302,99,55140,5,0,0:0:0:0:
199,254,55295,1,0,0:0:0:0:
154,95,55480,5,0,0:0:0:0:
258,328,55656,1,0,0:0:0:0:
222,161,55846,5,0,0:0:0:0:
337,256,56199,1,0,0:0:0:0:
89,231,56552,1,0,0:0:0:0:
142,113,56728,1,0,0:0:0:0:
264,323,56905,5,0,0:0:0:0:
168,248,57070,5,0,0:0:0:0:
238,196,57245,5,0,0:0:0:0:
118,103,57418,1,0,0:0:0:0:
238,196,57581,1,0,0:0:0:0:
158,126,57963,5,0,0:0:0:0:
263,290,58140,1,0,0:0:0:0:
323,125,58316,1,0,0:0:0:0:
127,270,58493,1,0,0:0:0:0:
402,299,58669,5,0,0:0:0:0:
229,185,58830,1,0,0:0:0:0:
248,332,58990,1,0,0:0:0:0:
106,121,59166,1,0,0:0:0:0:
102,287,59343,1,0,0:0:0:0:
380,116,59519,1,0,0:0:0:0:
392,340,59696,1,0,0:0:0:0:
218,335,59889,1,0,0:0:0:0:
128,110,60258,5,0,0:0:0:0:
179,229,60434,1,0,0:0:0:0:
355,121,60610,1,0,0:0:0:0:
348,282,60787,1,0,0:0:0:0:
250,317,60952,1,0,0:0:0:0:
148,248,61107,5,0,0:0:0:0:
263,112,61284,1,0,0:0:0:0:
399,268,61460,1,0,0:0:0:0:
79,89,61637,1,0,0:0:0:0:
431,143,61813,1,0,0:0:0:0:
240,339,61990,1,0,0:0:0:0:
109,264,62166,1,0,0:0:0:0:
250,135,62343,1,0,0:0:0:0:
168,173,62519,5,0,0:0:0:0:
168,173,62696,6,0,P|187:278|249:223,2,210
325,154,63931,5,0,0:0:0:0:
164,280,64107,1,0,0:0:0:0:
141,139,64316,5,0,0:0:0:0:
299,247,64493,1,0,0:0:0:0:
167,295,64669,1,0,0:0:0:0:
398,191,64846,1,0,0:0:0:0:
66,182,65001,1,0,0:0:0:0:
324,99,65183,1,0,0:0:0:0:
297,330,65355,1,0,0:0:0:0:
149,74,65535,1,0,0:0:0:0:
67,276,65905,6,0,L|132:236,1,70
144,230,66169,5,0,0:0:0:0:
166,256,66257,1,0,0:0:0:0:
194,278,66345,1,0,0:0:0:0:
224,295,66433,1,0,0:0:0:0:
257,308,66521,1,0,0:0:0:0:
291,315,66610,1,0,0:0:0:0:
326,318,66698,1,0,0:0:0:0:
360,312,66786,1,0,0:0:0:0:
392,298,66874,1,0,0:0:0:0:
418,275,66963,1,0,0:0:0:0:
433,243,67051,1,0,0:0:0:0:
438,209,67139,1,0,0:0:0:0:
432,175,67227,1,0,0:0:0:0:
417,143,67316,1,0,0:0:0:0:
394,117,67404,1,0,0:0:0:0:
366,96,67492,1,0,0:0:0:0:
335,80,67580,1,0,0:0:0:0:
302,69,67668,1,0,0:0:0:0:
267,63,67757,1,0,0:0:0:0:
232,61,67845,1,0,0:0:0:0:
197,64,67933,1,0,0:0:0:0:
163,71,68021,1,0,0:0:0:0:
131,83,68110,1,0,0:0:0:0:
102,103,68198,1,0,0:0:0:0:
79,129,68286,1,0,0:0:0:0:
63,160,68374,1,0,0:0:0:0:
55,194,68463,1,0,0:0:0:0:
53,229,68551,1,0,0:0:0:0:
59,264,68639,1,0,0:0:0:0:
70,297,68727,1,0,0:0:0:0:
123,352,68904,5,0,0:0:0:0:
123,352,69257,1,0,0:0:0:0:
180,111,70669,5,0,0:0:0:0:
230,268,71022,1,0,0:0:0:0:
391,250,71375,1,0,0:0:0:0:
304,105,71728,1,0,0:0:0:0:
89,235,72081,1,0,0:0:0:0:
252,253,72434,1,0,0:0:0:0:
171,128,72610,1,0,0:0:0:0:
124,295,72787,1,0,0:0:0:0:
337,140,73140,1,0,0:0:0:0:
107,86,73493,1,0,0:0:0:0:
147,207,74199,6,0,P|201:145|236:170,1,140
215,135,74904,1,0,0:0:0:0:
202,139,75610,5,0,0:0:0:0:
