osu file format v14

[General]
AudioFilename: audio.mp3
AudioLeadIn: 0
PreviewTime: 45386
Countdown: 0
SampleSet: None
StackLeniency: 0.7
Mode: 0
LetterboxInBreaks: 0
WidescreenStoryboard: 1

[Editor]
DistanceSpacing: 0.6
BeatDivisor: 4
GridSize: 8
TimelineZoom: 2.3

[Metadata]
Title:Isekai GirlsTalk (TV Size)
TitleUnicode:異世界ガールズ♡トーク (TV Size)
Artist:Albedo, Aqua, Emilia, Tanya
ArtistUnicode:アルベド(CV:原 由実)、アクア(CV:雨宮 天)、エミリア:(CV:高橋李依)、ターニャ(CV:悠木 碧)
Creator:Tezet
Version:Insane
Source:異世界かるてっと
Tags:
BeatmapID:2069257
BeatmapSetID:987730

[Difficulty]
HPDrainRate:5
CircleSize:4.1
OverallDifficulty:8.5
ApproachRate:9.2
SliderMultiplier:1.4
SliderTickRate:1

[Events]
//Background and Video events
0,0,"a.jpg",0,0
//Break Periods
//Storyboard Layer 0 (Background)
//Storyboard Layer 1 (Fail)
//Storyboard Layer 2 (Pass)
//Storyboard Layer 3 (Foreground)
//Storyboard Sound Samples

[TimingPoints]
-55,352.941176470588,4,2,0,25,1,0
827,-83.3333333333333,4,2,0,25,0,0
11758,-83.3333333333333,4,2,0,25,0,0
46180,-55.5555555555556,4,2,0,25,0,0
46533,-58.8235294117647,4,2,0,25,0,1
69121,-133.333333333333,4,2,0,25,0,0
70180,-100,4,2,0,55,0,0

[Colours]
Combo1 : 206,206,0
Combo2 : 192,192,192
Combo3 : 128,128,255
Combo4 : 0,191,255

[HitObjects]
232,49,827,5,0,0:0:0:0:
74,128,1003,1,0,0:0:0:0:
90,45,1180,2,0,B|190:66|134:125|245:133,1,167.999994873047
377,235,1709,2,0,P|369:187|365:136,1,83.9999974365235
497,50,2062,2,0,P|494:104|488:143,1,83.9999974365235
314,289,2415,2,0,P|346:254|382:232,1,83.9999974365235
160,323,2768,2,0,P|116:304|18:227,1,167.999994873047
186,49,3297,2,0,B|168:113|119:114|119:114|89:75|29:90,1,167.999994873047
272,102,3827,1,0,0:0:0:0:
377,21,4003,2,0,B|403:62|403:62|361:198,1,167.999994873047
464,345,4533,2,0,P|459:298|455:254,1,83.9999974365235
270,353,4886,2,0,P|268:301|265:268,1,83.9999974365235
23,288,5239,2,0,B|61:278|61:278|124:297,1,83.9999974365235
226,105,5592,2,0,B|175:129|175:129|52:102,1,167.999994873047
339,17,6121,2,0,P|382:38|482:113,1,167.999994873047
336,288,6650,1,0,0:0:0:0:
364,187,6827,2,0,P|408:204|437:323,1,167.999994873047
246,232,7356,1,0,0:0:0:0:
152,358,7533,1,0,0:0:0:0:
152,358,7621,1,0,0:0:0:0:
152,358,7709,2,0,P|124:311|110:278,1,83.9999974365235
144,91,8062,2,0,P|123:152|107:187,1,83.9999974365235
242,15,8415,2,0,B|301:31|301:31|315:64|315:64|411:93,1,167.999994873047
483,186,8944,2,0,P|405:195|305:215,1,167.999994873047
155,358,9474,1,0,0:0:0:0:
329,292,9650,2,0,P|329:240|308:200,1,83.9999974365235
188,6,10003,1,0,0:0:0:0:
181,87,10180,2,0,P|210:122|255:137,1,83.9999974365235
434,97,10533,2,0,P|374:112|352:129,1,83.9999974365235
494,341,10886,2,0,P|487:267|477:194,1,125.999996154785
456,221,11239,2,0,B|369:227|421:288|304:297,1,167.999994873047
169,271,11768,2,0,B|115:258|115:258|77:278|77:278|8:265,1,167.999994873047
77,21,12297,1,0,0:0:0:0:
166,107,12474,2,0,P|79:118|-17:109,1,167.999994873047
228,4,13003,1,0,0:0:0:0:
297,97,13180,1,0,0:0:0:0:
297,97,13268,1,0,0:0:0:0:
297,97,13356,2,0,P|286:154|280:189,1,83.9999974365235
343,359,13709,2,0,P|350:317|358:276,1,83.9999974365235
430,93,14062,2,0,P|415:165|521:206,1,167.999994873047
371,12,14592,2,0,B|288:4|314:62|199:33,1,167.999994873047
114,229,15121,1,0,0:0:0:0:
89,80,15297,2,0,B|129:118|129:118|112:248,1,167.999994873047
186,333,15827,2,0,P|243:320|274:320,1,83.9999974365235
419,244,16180,2,0,P|379:231|339:211,1,83.9999974365235
458,59,16533,2,0,P|441:113|420:151,1,83.9999974365235
176,97,16886,2,0,B|221:62|221:62|329:92,1,167.999994873047
206,242,17415,2,0,B|160:231|160:231|117:258|117:258|32:243,1,167.999994873047
326,242,17944,1,0,0:0:0:0:
286,331,18121,2,0,P|359:326|418:236,1,167.999994873047
330,113,18650,1,0,0:0:0:0:
472,29,18827,1,0,0:0:0:0:
472,29,18915,1,0,0:0:0:0:
472,29,19003,2,0,P|409:22|375:6,1,83.9999974365235
179,49,19356,2,0,P|232:35|265:14,1,83.9999974365235
148,200,19709,2,0,P|99:128|0:124,1,167.999994873047
83,329,20239,2,0,P|151:316|270:301,1,167.999994873047
358,149,20768,1,0,0:0:0:0:
496,255,20944,2,0,P|491:315|482:350,1,83.9999974365235
358,149,21297,1,0,0:0:0:0:
265,107,21474,2,0,P|256:65|254:23,1,83.9999974365235
99,156,21827,2,0,P|112:208|113:241,1,83.9999974365235
40,69,22180,2,0,P|106:55|171:86,1,125.999996154785
172,92,22533,1,0,0:0:0:0:
257,243,22709,1,0,0:0:0:0:
257,243,22797,1,0,0:0:0:0:
257,243,22886,2,0,P|249:297|246:331,1,83.9999974365235
430,204,23239,2,0,P|438:150|441:116,1,83.9999974365235
312,40,23592,1,0,0:0:0:0:
312,40,23768,1,0,0:0:0:0:
172,92,23944,2,0,P|174:147|181:188,1,83.9999974365235
272,140,24297,1,0,0:0:0:0:
93,103,24474,2,0,P|95:158|102:199,1,83.9999974365235
281,274,24827,1,0,0:0:0:0:
131,350,25003,1,0,0:0:0:0:
281,274,25180,1,0,0:0:0:0:
422,378,25356,2,0,B|446:345|446:345|432:247,1,125.999996154785
422,259,25709,1,0,0:0:0:0:
463,146,25886,1,0,0:0:0:0:
394,46,26062,2,0,P|379:93|378:129,1,83.9999974365235
296,325,26415,2,0,P|287:262|277:227,1,83.9999974365235
175,99,26768,2,0,P|226:113|264:117,1,83.9999974365235
186,20,27121,1,0,0:0:0:0:
77,141,27297,2,0,P|66:199|64:247,1,83.9999974365235
217,342,27650,1,0,0:0:0:0:
217,342,27739,1,0,0:0:0:0:
217,342,27827,2,0,P|265:331|301:319,1,83.9999974365235
440,130,28180,2,0,P|415:175|400:218,1,83.9999974365235
488,253,28533,1,0,0:0:0:0:
488,253,28709,1,0,0:0:0:0:
360,96,28886,2,0,P|307:79|262:96,1,83.9999974365235
25,225,29239,1,0,0:0:0:0:
25,225,29415,1,0,0:0:0:0:
76,95,29592,2,0,P|129:78|174:95,1,83.9999974365235
127,171,29944,1,0,0:0:0:0:
261,251,30121,2,0,P|310:275|321:309,1,83.9999974365235
484,161,30474,2,0,P|449:191|435:242,1,83.9999974365235
294,44,30827,1,0,0:0:0:0:
353,120,31003,2,0,P|308:128|271:135,1,83.9999974365235
36,156,31356,1,0,0:0:0:0:
124,87,31533,2,0,P|135:132|144:180,1,83.9999974365235
24,361,31886,1,0,0:0:0:0:
114,294,32062,2,0,P|170:285|206:282,1,83.9999974365235
356,289,32415,1,0,0:0:0:0:
205,255,32592,1,0,0:0:0:0:
380,306,32768,1,0,0:0:0:0:
342,141,32944,1,0,0:0:0:0:
398,328,33121,1,0,0:0:0:0:
498,172,33297,1,0,0:0:0:0:
358,335,33474,1,0,0:0:0:0:
446,35,33827,2,0,P|399:24|356:13,1,83.9999974365235
172,66,34180,2,0,P|221:80|261:94,1,83.9999974365235
136,196,34533,1,0,0:0:0:0:
43,49,34709,1,0,0:0:0:0:
26,269,34886,1,0,0:0:0:0:
85,131,35062,1,0,0:0:0:0:
139,327,35239,2,0,P|192:338|233:342,1,83.9999974365235
427,317,35592,2,0,P|380:326|339:329,1,83.9999974365235
398,69,35944,1,0,0:0:0:0:
512,242,36121,1,0,0:0:0:0:
487,20,36297,1,0,0:0:0:0:
410,193,36474,1,0,0:0:0:0:
258,0,36650,2,0,P|309:0|353:9,1,83.9999974365235
140,92,37003,2,0,P|83:105|51:117,1,83.9999974365235
270,232,37356,1,0,0:0:0:0:
360,94,37533,1,0,0:0:0:0:
362,320,37709,1,0,0:0:0:0:
268,138,37886,1,0,0:0:0:0:
496,198,38062,2,0,P|440:197|406:197,1,83.9999974365235
206,313,38415,2,0,P|263:317|307:322,1,83.9999974365235
99,160,38768,1,0,0:0:0:0:
19,316,38944,1,0,0:0:0:0:
19,316,39033,1,0,0:0:0:0:
19,316,39121,2,0,L|35:368,2,41.9999987182618
149,28,39474,1,0,0:0:0:0:
5,175,39650,1,0,0:0:0:0:
247,160,39827,1,0,0:0:0:0:
48,64,40003,1,0,0:0:0:0:
293,57,40180,2,0,P|334:47|395:36,1,83.9999974365235
505,171,40533,2,0,P|449:184|408:193,1,83.9999974365235
171,359,40886,1,0,0:0:0:0:
329,218,41062,1,0,0:0:0:0:
88,243,41239,1,0,0:0:0:0:
315,356,41415,1,0,0:0:0:0:
96,146,41592,2,0,P|46:129|2:129,1,83.9999974365235
226,81,41944,2,0,P|268:63|309:54,1,83.9999974365235
472,143,42297,2,0,L|425:134,3,41.9999987182618
356,186,42650,2,0,L|304:196,3,41.9999987182618
277,261,43003,2,0,L|235:282,3,41.9999987182618
269,354,43356,2,0,L|231:392,3,41.9999987182618
73,216,43709,2,0,L|97:260,3,41.9999987182618
139,101,44062,2,0,L|145:153,3,41.9999987182618
251,35,44415,2,0,L|228:81,3,41.9999987182618
377,50,44768,2,0,L|323:65,3,41.9999987182618
394,57,45121,1,0,0:0:0:0:
418,275,46003,2,0,L|423:247,2,27.9999991455078
504,302,46180,2,0,B|433:278|425:340|306:309,1,188.999994232178
323,232,46533,2,0,P|268:251|233:302,1,119.000002269745
461,73,46886,1,0,0:0:0:0:
438,190,47062,2,0,P|450:111|464:66,1,119.000002269745
132,16,47415,1,0,0:0:0:0:
344,82,47592,1,0,0:0:0:0:
243,146,47768,1,0,0:0:0:0:
444,302,47944,1,0,0:0:0:0:
343,363,48121,1,0,0:0:0:0:
142,129,48297,1,0,0:0:0:0:
243,146,48474,2,0,P|251:219|257:265,1,119.000002269745
356,45,48827,1,0,0:0:0:0:
481,108,49003,1,0,0:0:0:0:
346,35,49180,1,0,0:0:0:0:
457,217,49356,1,0,0:0:0:0:
289,343,49533,1,0,0:0:0:0:
382,148,49709,1,0,0:0:0:0:
186,83,49886,1,0,0:0:0:0:
326,238,50062,1,0,0:0:0:0:
135,325,50239,1,0,0:0:0:0:
246,161,50415,1,0,0:0:0:0:
57,66,50592,2,0,P|64:128|81:186,1,119.000002269745
319,70,50944,2,0,P|379:51|448:40,1,119.000002269745
437,285,51297,2,0,P|366:265|320:243,1,119.000002269745
414,174,51650,1,0,0:0:0:0:
232,299,51827,2,0,P|170:321|103:331,1,119.000002269745
46,89,52180,2,0,B|103:109|103:109|78:176|74:230,1,178.500003404617
102,239,52533,1,0,0:0:0:0:
239,13,52709,1,0,0:0:0:0:
212,101,52886,1,0,0:0:0:0:
428,80,53062,1,0,0:0:0:0:
316,56,53239,1,0,0:0:0:0:
489,241,53415,2,0,B|455:166|395:175|395:175|345:226|269:184,1,238.00000453949
67,220,53944,1,0,0:0:0:0:
105,87,54121,2,0,B|67:89|36:65|36:65|8:124|74:232,1,238.00000453949
217,353,54650,2,0,L|199:280,2,59.5000011348725
418,166,55003,1,0,0:0:0:0:
389,206,55092,1,0,0:0:0:0:
335,211,55180,1,0,0:0:0:0:
285,189,55268,1,0,0:0:0:0:
276,144,55356,2,0,P|287:104|294:80,1,59.5000011348725
468,24,55533,2,0,P|405:38|357:18,1,119.000002269745
46,217,55886,1,0,0:0:0:0:
60,116,56062,2,0,P|118:82|170:83,1,119.000002269745
141,172,56415,1,0,0:0:0:0:
342,300,56592,1,0,0:0:0:0:
251,358,56768,1,0,0:0:0:0:
368,130,56944,1,0,0:0:0:0:
501,367,57121,1,0,0:0:0:0:
481,327,57209,1,0,0:0:0:0:
471,282,57297,1,0,0:0:0:0:
477,240,57386,1,0,0:0:0:0:
494,194,57474,2,0,B|381:175|441:113|318:112,1,178.500003404617
261,44,57827,2,0,B|239:101|239:101|259:170,1,119.000002269745
48,66,58180,1,0,0:0:0:0:
65,181,58356,2,0,P|63:100|40:53,1,119.000002269745
53,333,58709,1,0,0:0:0:0:
162,99,58886,1,0,0:0:0:0:
65,181,59062,1,0,0:0:0:0:
386,251,59239,1,0,0:0:0:0:
249,244,59415,1,0,0:0:0:0:
454,44,59592,1,0,0:0:0:0:
343,53,59768,2,0,P|326:116|319:171,1,119.000002269745
122,358,60121,2,0,P|137:300|145:241,1,119.000002269745
48,1,60474,1,0,0:0:0:0:
24,104,60650,2,0,P|106:139|204:25,1,238.00000453949
468,136,61180,1,0,0:0:0:0:
283,250,61356,1,0,0:0:0:0:
353,33,61533,2,0,P|424:13|470:7,1,119.000002269745
462,280,61886,2,0,P|393:240|361:206,1,119.000002269745
95,309,62239,2,0,P|152:270|201:251,1,119.000002269745
95,123,62592,2,0,P|79:61|75:7,1,119.000002269745
455,13,62944,1,0,0:0:0:0:
389,88,63121,2,0,P|306:69|259:60,1,119.000002269745
361,265,63474,2,0,P|427:248|491:235,1,119.000002269745
237,314,63827,2,0,B|158:265|179:355|60:311,1,178.500003404617
55,298,64180,1,0,0:0:0:0:
89,103,64356,1,0,0:0:0:0:
111,218,64533,1,0,0:0:0:0:
7,15,64709,2,0,B|68:-2|68:-2|163:13|246:30,1,238.00000453949
433,243,65239,1,0,0:0:0:0:
308,195,65415,2,0,P|354:135|513:154,1,238.00000453949
433,243,65856,1,0,0:0:0:0:
417,255,65944,2,0,P|406:307|405:326,1,59.5000011348725
221,298,66121,2,0,P|209:253|202:234,1,59.5000011348725
136,170,66297,1,0,0:0:0:0:
117,335,66474,1,0,0:0:0:0:
300,171,66650,1,0,0:0:0:0:
262,13,66827,1,0,0:0:0:0:
428,120,67003,1,0,0:0:0:0:
152,41,67180,1,0,0:0:0:0:
226,118,67356,1,0,0:0:0:0:
30,261,67533,1,0,0:0:0:0:
333,282,67709,1,0,0:0:0:0:
113,142,67886,1,0,0:0:0:0:
221,365,68062,1,0,0:0:0:0:
336,137,68239,1,0,0:0:0:0:
486,365,68415,1,0,0:0:0:0:
464,336,68503,1,0,0:0:0:0:
459,300,68592,1,0,0:0:0:0:
463,264,68680,1,0,0:0:0:0:
475,230,68768,1,0,0:0:0:0:
487,196,68856,1,0,0:0:0:0:
477,161,68944,1,0,0:0:0:0:
465,127,69033,1,0,0:0:0:0:
445,84,69121,2,0,B|388:13|312:43|312:43|284:114|206:103,1,262.500010013581
207,98,70092,1,0,0:0:0:0:
178,91,70180,2,0,P|160:137|159:198,1,105
106,268,70533,2,0,P|143:245|256:243,2,140
495,331,71592,2,0,P|458:308|345:306,2,140
412,46,72650,2,0,P|394:94|308:100,1,140
66,26,73356,2,0,P|81:66|108:162,1,140
55,358,74062,2,0,B|158:300|128:375|275:339,1,210
307,87,74768,1,0,0:0:0:0:
488,377,75474,1,0,0:0:0:0:
