osu file format v14

[General]
AudioFilename: audio.ogg
AudioLeadIn: 0
PreviewTime:6172
Countdown: 0
SampleSet: Soft
StackLeniency: 0.7
Mode: 3
LetterboxInBreaks: 0
WidescreenStoryboard: 1
SpecialStyle: 0

[Editor]
Bookmarks: 6608,19323,29856
DistanceSpacing: 1.4
BeatDivisor: 2
GridSize: 4
TimelineZoom: 2

[Metadata]
Title:Together Again (Cut Ver.)
TitleUnicode:Together Again (Cut Ver.)
Artist:Alastair Gavin
ArtistUnicode:Alastair Gavin
Creator:AelSan
Version:Leaves' Normal
Source:新闻联播
Tags:Instrumental Other 中央电视台 央视 China Central Television News CCTV ending theme shizehao yueast 2018 [crz]leaves_ muziyami gzdongsheng _stan alptraum lovely_hyahya seiran- [GB]Edward_Tsui
BeatmapID:4170784
BeatmapSetID:2005101

[Difficulty]
HPDrainRate:6.5
CircleSize:4
OverallDifficulty:6.5
ApproachRate:5
SliderMultiplier:1.4
SliderTickRate:1

[Events]
//Background and Video events
0,0,"bg.jpg",0,0
//Break Periods
//Storyboard Layer 0 (Background)
//Storyboard Layer 1 (Fail)
//Storyboard Layer 2 (Pass)
//Storyboard Layer 3 (Foreground)
//Storyboard Layer 4 (Overlay)
//Storyboard Sound Samples
Sample,251,0,"Hat-open.wav",70
Sample,6172,0,"soft-hitwhistle.wav",60
Sample,18803,0,"Hat-open.wav",40
Sample,18803,0,"soft-hitwhistle.wav",60
Sample,28869,0,"Kick.wav",40

[TimingPoints]
251,394.736842105263,4,2,1,20,1,0

[HitObjects]
64,192,251,128,2,1829:0:0:0:0:
192,192,448,1,0,0:0:0:0:
448,192,645,1,0,0:0:0:40:Kick.wav
320,192,843,1,2,0:0:0:0:
320,192,1237,1,0,0:0:0:40:Kick.wav
192,192,1435,1,0,0:0:0:0:
320,192,1632,1,2,0:0:0:0:
448,192,1829,128,2,3408:0:0:0:0:
64,192,2027,1,0,0:0:0:40:Kick.wav
192,192,2224,1,8,0:0:0:0:
320,192,2422,1,2,0:0:0:0:
192,192,2816,1,0,0:0:0:0:
320,192,3014,1,0,0:0:0:40:Kick.wav
192,192,3211,1,2,0:0:0:0:
64,192,3408,128,2,4987:0:0:0:0:
448,192,3606,1,0,0:0:0:0:
320,192,3803,1,0,0:0:0:40:Kick.wav
192,192,4000,1,2,0:0:0:0:
448,192,4395,1,0,0:0:0:40:Kick.wav
320,192,4593,1,0,0:0:0:0:
192,192,4790,1,2,0:0:0:0:
448,192,4987,128,2,6172:0:0:0:0:
64,192,5185,1,0,0:0:0:40:Kick.wav
192,192,5382,1,0,0:0:0:40:Hat-open.wav
320,192,5579,1,2,0:0:0:0:
64,192,5777,1,10,0:0:0:0:
64,192,6172,128,0,6369:0:0:0:70:Tom3.wav
320,192,6369,128,2,6566:0:0:0:0:
64,192,6566,1,4,0:0:0:0:
192,192,6566,128,2,7356:0:0:0:0:
448,192,6961,1,0,0:0:0:40:Kick.wav
64,192,7158,1,2,0:0:0:0:
320,192,7356,128,10,8145:0:0:0:0:
64,192,7553,1,0,0:0:0:40:Kick.wav
192,192,7948,1,2,0:0:0:0:
448,192,8145,128,2,8935:0:0:0:0:
64,192,8935,128,2,9724:0:0:0:0:
320,192,9329,1,0,0:0:0:40:Kick.wav
448,192,9527,1,2,0:0:0:0:
192,192,9724,1,2,0:0:0:0:
320,192,9724,128,0,10514:0:0:0:0:
448,192,10119,1,0,0:0:0:40:Kick.wav
64,192,10316,1,2,0:0:0:0:
192,192,10514,128,10,11106:0:0:0:0:
448,192,10711,1,0,0:0:0:40:Kick.wav
320,192,11106,1,2,0:0:0:0:
448,192,11106,128,0,12093:0:0:0:0:
64,192,11698,1,8,0:0:0:0:
192,192,11895,1,2,0:0:0:0:
64,192,12093,1,2,0:0:0:0:
320,192,12093,128,0,12882:0:0:0:0:
64,192,12882,128,2,13672:0:0:0:0:
448,192,12882,1,0,0:0:0:0:
448,192,13474,1,2,0:0:0:0:
192,192,13672,128,10,14461:0:0:0:0:
320,192,13869,1,0,0:0:0:40:Kick.wav
64,192,14066,1,0,0:0:0:0:
448,192,14264,1,2,0:0:0:0:
320,192,14461,128,2,15250:0:0:0:0:
64,192,14856,1,8,0:0:0:0:
192,192,15250,1,2,0:0:0:0:
448,192,15250,128,0,16040:0:0:0:0:
320,192,15645,1,0,0:0:0:40:Kick.wav
64,192,16040,128,2,16632:0:0:0:0:
192,192,16040,1,0,0:0:0:0:
320,192,16435,1,0,0:0:0:40:Kick.wav
192,192,16632,128,2,17422:0:0:0:0:
448,192,16632,1,0,0:0:0:0:
320,192,17027,1,0,0:0:0:40:Kick.wav
64,192,17422,1,2,0:0:0:0:
448,192,17422,128,0,18408:0:0:0:0:
320,192,18014,1,0,0:0:0:40:Hat-open.wav
192,192,18211,1,2,0:0:0:0:
64,192,18408,128,8,19198:0:0:0:0:
320,192,18408,1,2,0:0:0:0:
448,192,18803,1,0,0:0:0:70:Tom3.wav
192,192,19198,1,2,0:0:0:0:
448,192,19198,128,0,19987:0:0:0:0:
64,192,19593,1,0,0:0:0:40:Kick.wav
320,192,19790,1,2,0:0:0:0:
192,192,19987,128,10,20579:0:0:0:0:
448,192,20185,1,0,0:0:0:40:Kick.wav
64,192,20579,1,2,0:0:0:0:
448,192,20579,128,0,20777:0:0:0:0:
320,192,20777,128,2,21369:0:0:0:0:
192,192,21369,128,2,21566:0:0:0:0:
448,192,21566,128,2,22356:0:0:0:0:
64,192,21764,1,0,0:0:0:0:
192,192,21961,1,0,0:0:0:40:Kick.wav
320,192,22158,1,2,0:0:0:0:
64,192,22356,128,2,22948:0:0:0:0:
192,192,22356,1,0,0:0:0:0:
192,192,22750,1,0,0:0:0:40:Kick.wav
320,192,22948,128,2,23145:0:0:0:0:
448,192,22948,1,0,0:0:0:0:
192,192,23145,128,10,23737:0:0:0:0:
320,192,23343,1,0,0:0:0:40:Kick.wav
64,192,23737,1,2,0:0:0:0:
320,192,23737,128,0,23935:0:0:0:0:
448,192,23935,128,2,24527:0:0:0:0:
320,192,24329,1,8,0:0:0:0:
192,192,24527,128,2,24724:0:0:0:0:
64,192,24724,128,2,25514:0:0:0:0:
448,192,24724,1,0,0:0:0:0:
320,192,25514,1,2,0:0:0:0:
448,192,25514,128,0,26895:0:0:0:0:
320,192,26106,1,2,0:0:0:0:
64,192,26500,1,0,0:0:0:40:Kick.wav
64,192,26895,1,2,0:0:0:0:
192,192,26895,128,0,27093:0:0:0:0:
320,192,27093,128,2,27685:0:0:0:0:
192,192,27290,1,0,0:0:0:40:Kick.wav
64,192,27685,128,2,28474:0:0:0:0:
448,192,27685,1,0,0:0:0:0:
320,192,28079,1,0,0:0:0:0:
192,192,28474,128,2,29264:0:0:0:0:
448,192,28474,1,0,0:0:0:0:
448,192,28869,1,2,0:0:0:0:
320,192,29066,1,0,0:0:0:40:Hat-open.wav
64,192,29264,128,0,29461:0:0:0:45:Tom1.wav
320,192,29461,1,0,0:0:0:70:Tom1.wav
448,192,29461,128,0,29658:0:0:0:0:
320,192,29856,1,4,0:0:0:0:
448,192,29856,128,2,30250:0:0:0:0:
64,192,30250,128,0,30448:0:0:0:0:
320,192,30250,1,0,0:0:0:0:
192,192,30448,128,0,31829:0:0:0:0:
320,192,30645,1,0,0:0:0:40:Kick.wav
64,192,30843,1,2,0:0:0:0:
448,192,31237,1,0,0:0:0:40:Kick.wav
320,192,31435,1,0,0:0:0:0:
64,192,31632,1,2,0:0:0:0:
320,192,31829,1,2,0:0:0:0:
448,192,31829,128,0,33408:0:0:0:0:
64,192,32027,1,0,0:0:0:40:Kick.wav
192,192,32224,1,8,0:0:0:0:
64,192,32422,1,2,0:0:0:0:
320,192,32816,1,0,0:0:0:0:
64,192,33014,1,0,0:0:0:40:Kick.wav
192,192,33211,1,2,0:0:0:0:
64,192,33408,128,2,34987:0:0:0:0:
320,192,33408,1,0,0:0:0:0:
192,192,33606,1,0,0:0:0:0:
448,192,33803,1,0,0:0:0:40:Kick.wav
320,192,34000,1,2,0:0:0:0:
192,192,34395,1,0,0:0:0:40:Kick.wav
320,192,34593,1,0,0:0:0:0:
192,192,34790,1,2,0:0:0:0:
448,192,34987,1,2,0:0:0:0:
320,192,35185,1,0,0:0:0:40:Kick.wav
64,192,35382,1,0,0:0:0:0:
192,192,35579,1,0,0:0:0:0:
320,192,35777,1,8,0:0:0:0:
