osu file format v14

[General]
AudioFilename: audio.ogg
AudioLeadIn: 0
PreviewTime:6172
Countdown: 0
SampleSet: Soft
StackLeniency: 0.7
Mode: 3
LetterboxInBreaks: 0
WidescreenStoryboard: 0
SpecialStyle: 0

[Editor]
Bookmarks:6608,19323,29856
DistanceSpacing: 1.4
BeatDivisor: 4
GridSize: 4
TimelineZoom: 2

[Metadata]
Title:Together Again (Cut Ver.)
TitleUnicode:Together Again (Cut Ver.)
Artist:Alastair Gavin
ArtistUnicode:Alastair Gavin
Creator:AelSan
Version:Hard
Source:新闻联播
Tags:Instrumental Other 中央电视台 央视 China Central Television News CCTV ending theme shizehao yueast 2018 [crz]leaves_ muziyami gzdongsheng _stan alptraum lovely_hyahya seiran- [GB]Edward_Tsui
BeatmapID:4170037
BeatmapSetID:2005101

[Difficulty]
HPDrainRate:7
CircleSize:4
OverallDifficulty:7
ApproachRate:5
SliderMultiplier:1.4
SliderTickRate:1

[Events]
//Background and Video events
0,0,"bg.jpg",0,0
//Break Periods
//Storyboard Layer 0 (Background)
//Storyboard Layer 1 (Fail)
//Storyboard Layer 2 (Pass)
//Storyboard Layer 3 (Foreground)
//Storyboard Layer 4 (Overlay)
//Storyboard Sound Samples
Sample,28869,0,"Kick.wav",40

[TimingPoints]
251,394.736842105263,4,2,1,20,1,0

[HitObjects]
192,192,251,1,2,0:0:0:0:
320,192,251,1,0,0:0:0:70:Hat-open.wav
448,192,251,128,0,448:0:0:0:0:
192,192,448,128,0,645:0:0:0:0:
64,192,645,1,0,0:0:0:40:Kick.wav
320,192,645,128,0,843:0:0:0:0:
448,192,843,128,2,1040:0:0:0:0:
192,192,1040,1,8,0:0:0:0:
320,192,1040,1,2,0:0:0:0:
192,192,1237,128,0,1435:0:0:0:40:Kick.wav
448,192,1237,1,0,0:0:0:0:
64,192,1435,128,0,1632:0:0:0:0:
192,192,1632,128,2,1829:0:0:0:0:
320,192,1829,1,2,0:0:0:0:
448,192,1829,1,0,0:0:0:0:
64,192,2027,128,0,2224:0:0:0:40:Kick.wav
320,192,2027,1,0,0:0:0:0:
448,192,2224,128,8,2422:0:0:0:0:
320,192,2422,128,2,2619:0:0:0:0:
192,192,2619,1,2,0:0:0:0:
448,192,2619,1,0,0:0:0:0:
64,192,2816,128,0,3014:0:0:0:0:
320,192,3014,128,0,3211:0:0:0:40:Kick.wav
448,192,3014,1,0,0:0:0:0:
192,192,3211,128,2,3408:0:0:0:0:
64,192,3408,1,2,0:0:0:0:
448,192,3408,1,0,0:0:0:0:
320,192,3606,128,0,3803:0:0:0:0:
64,192,3803,128,0,4000:0:0:0:40:Kick.wav
192,192,3803,1,0,0:0:0:0:
448,192,4000,128,2,4198:0:0:0:0:
192,192,4198,1,2,0:0:0:0:
320,192,4198,1,0,0:0:0:0:
64,192,4395,128,0,4593:0:0:0:40:Kick.wav
192,192,4395,1,0,0:0:0:0:
320,192,4593,128,0,4790:0:0:0:0:
448,192,4790,128,2,4987:0:0:0:0:
64,192,4987,1,2,0:0:0:0:
320,192,4987,1,0,0:0:0:0:
64,192,5185,128,0,5382:0:0:0:40:Kick.wav
192,192,5185,1,0,0:0:0:0:
320,192,5382,128,0,5579:0:0:0:40:Hat-open.wav
448,192,5579,128,2,5777:0:0:0:0:
64,192,5777,1,8,0:0:0:0:
320,192,5777,1,2,0:0:0:0:
192,192,5974,1,0,0:0:0:0:
64,192,6172,1,0,0:0:0:70:Tom3.wav
320,192,6172,128,0,6369:0:0:0:60:soft-hitwhistle.wav
192,192,6369,1,2,0:0:0:0:
448,192,6369,128,0,6566:0:0:0:0:
64,192,6566,128,4,7060:0:0:0:0:
320,192,6566,128,2,6764:0:0:0:0:
320,192,6961,128,0,7060:0:0:0:40:Kick.wav
448,192,6961,128,0,7060:0:0:0:0:
64,192,7158,128,2,7257:0:0:0:0:
320,192,7158,128,0,7257:0:0:0:0:
64,192,7356,1,8,0:0:0:0:
192,192,7356,1,2,0:0:0:0:
320,192,7553,128,0,7750:0:0:0:40:Kick.wav
448,192,7553,128,0,7948:0:0:0:0:
192,192,7750,1,0,0:0:0:0:
64,192,7948,128,2,8343:0:0:0:0:
192,192,7948,128,0,8145:0:0:0:0:
320,192,8145,1,2,0:0:0:0:
448,192,8145,1,0,0:0:0:0:
192,192,8343,1,0,0:0:0:40:Kick.wav
448,192,8343,1,0,0:0:0:0:
64,192,8540,1,8,0:0:0:0:
320,192,8737,1,2,0:0:0:0:
64,192,8935,1,2,0:0:0:0:
448,192,8935,1,0,0:0:0:0:
320,192,9132,128,0,9329:0:0:0:0:
64,192,9329,128,0,9527:0:0:0:40:Kick.wav
192,192,9329,1,0,0:0:0:0:
320,192,9527,1,2,0:0:0:0:
448,192,9527,128,0,9724:0:0:0:0:
64,192,9724,128,2,9922:0:0:0:0:
192,192,9724,128,0,10119:0:0:0:0:
448,192,9922,1,0,0:0:0:0:
64,192,10119,1,0,0:0:0:40:Kick.wav
320,192,10119,1,0,0:0:0:0:
192,192,10316,128,2,10711:0:0:0:0:
320,192,10316,128,0,10514:0:0:0:0:
64,192,10514,1,8,0:0:0:0:
448,192,10514,1,2,0:0:0:0:
320,192,10711,128,0,10908:0:0:0:40:Kick.wav
448,192,10711,128,0,10908:0:0:0:0:
192,192,10908,1,0,0:0:0:0:
64,192,11106,128,2,11303:0:0:0:0:
320,192,11106,128,0,11303:0:0:0:0:
192,192,11303,1,2,0:0:0:0:
448,192,11303,1,0,0:0:0:0:
64,192,11500,1,0,0:0:0:40:Kick.wav
320,192,11500,1,0,0:0:0:0:
192,192,11698,1,8,0:0:0:0:
448,192,11698,128,0,11895:0:0:0:0:
64,192,11895,1,2,0:0:0:0:
320,192,11895,128,0,12093:0:0:0:0:
192,192,12093,1,2,0:0:0:0:
448,192,12093,128,0,12290:0:0:0:0:
64,192,12290,1,0,0:0:0:0:
192,192,12290,1,0,0:0:0:0:
320,192,12487,1,0,0:0:0:40:Kick.wav
448,192,12487,1,0,0:0:0:0:
64,192,12685,1,2,0:0:0:0:
64,192,12882,128,2,13079:0:0:0:0:
192,192,12882,128,0,13079:0:0:0:0:
448,192,13079,1,0,0:0:0:0:
192,192,13277,1,0,0:0:0:40:Kick.wav
448,192,13277,1,0,0:0:0:0:
64,192,13474,128,2,13672:0:0:0:0:
192,192,13474,128,0,13672:0:0:0:0:
320,192,13672,1,8,0:0:0:0:
448,192,13672,1,2,0:0:0:0:
320,192,13869,128,0,14066:0:0:0:40:Kick.wav
192,192,14066,128,0,14264:0:0:0:0:
64,192,14264,128,2,15053:0:0:0:0:
448,192,14264,128,0,14461:0:0:0:0:
192,192,14461,1,2,0:0:0:0:
320,192,14461,1,0,0:0:0:0:
320,192,14658,1,0,0:0:0:40:Kick.wav
448,192,14658,1,0,0:0:0:0:
192,192,14856,128,8,15053:0:0:0:0:
448,192,14856,128,0,15053:0:0:0:0:
320,192,15053,1,2,0:0:0:0:
64,192,15250,128,2,15448:0:0:0:0:
320,192,15250,128,0,15448:0:0:0:0:
192,192,15448,1,0,0:0:0:0:
448,192,15448,1,0,0:0:0:0:
64,192,15645,128,0,15843:0:0:0:40:Kick.wav
192,192,15645,1,0,0:0:0:0:
320,192,15843,1,2,0:0:0:0:
192,192,16040,128,2,16336:0:0:0:0:
448,192,16040,128,0,16731:0:0:0:0:
64,192,16435,1,0,0:0:0:40:Kick.wav
320,192,16435,128,0,16533:0:0:0:0:
64,192,16632,128,2,16731:0:0:0:0:
320,192,16632,128,0,16731:0:0:0:0:
64,192,16829,1,2,0:0:0:0:
192,192,16829,1,0,0:0:0:0:
192,192,17027,128,0,17224:0:0:0:40:Kick.wav
448,192,17027,1,0,0:0:0:0:
320,192,17224,1,0,0:0:0:0:
64,192,17422,128,2,17619:0:0:0:0:
448,192,17422,128,0,17619:0:0:0:0:
192,192,17619,1,2,0:0:0:0:
320,192,17619,1,0,0:0:0:0:
192,192,17816,1,0,0:0:0:40:Kick.wav
448,192,17816,1,0,0:0:0:0:
320,192,18014,128,0,18211:0:0:0:40:Hat-open.wav
192,192,18211,128,2,18408:0:0:0:0:
448,192,18211,1,0,0:0:0:0:
64,192,18408,128,8,18606:0:0:0:0:
320,192,18408,1,2,0:0:0:0:
448,192,18606,1,2,0:0:0:0:
64,192,18803,1,0,0:0:0:70:Tom3.wav
192,192,18803,1,0,0:0:0:40:Hat-open.wav
448,192,18803,1,0,0:0:0:60:soft-hitwhistle.wav
320,192,19000,1,2,0:0:0:0:
64,192,19198,128,2,19691:0:0:0:0:
192,192,19198,128,0,19395:0:0:0:0:
320,192,19593,128,0,19691:0:0:0:40:Kick.wav
448,192,19593,128,0,19691:0:0:0:0:
64,192,19790,128,2,19889:0:0:0:0:
320,192,19790,128,0,19889:0:0:0:0:
64,192,19987,1,8,0:0:0:0:
192,192,19987,1,2,0:0:0:0:
320,192,20185,128,0,20382:0:0:0:40:Kick.wav
448,192,20185,128,0,20579:0:0:0:0:
192,192,20382,1,0,0:0:0:0:
64,192,20579,128,2,20974:0:0:0:0:
192,192,20579,128,0,20777:0:0:0:0:
320,192,20777,1,2,0:0:0:0:
448,192,20777,1,0,0:0:0:0:
192,192,20974,1,0,0:0:0:40:Kick.wav
448,192,20974,1,0,0:0:0:0:
64,192,21172,1,8,0:0:0:0:
320,192,21369,1,2,0:0:0:0:
64,192,21566,1,2,0:0:0:0:
192,192,21566,1,0,0:0:0:0:
448,192,21764,128,0,21961:0:0:0:0:
64,192,21961,128,0,22158:0:0:0:40:Kick.wav
192,192,21961,1,0,0:0:0:0:
320,192,22158,128,2,22356:0:0:0:0:
448,192,22158,1,0,0:0:0:0:
64,192,22356,128,2,22553:0:0:0:0:
192,192,22356,128,0,22750:0:0:0:0:
448,192,22553,1,0,0:0:0:0:
64,192,22750,1,0,0:0:0:40:Kick.wav
320,192,22750,1,0,0:0:0:0:
192,192,22948,128,2,23343:0:0:0:0:
320,192,22948,128,0,23145:0:0:0:0:
64,192,23145,1,8,0:0:0:0:
448,192,23145,1,2,0:0:0:0:
320,192,23343,128,0,23540:0:0:0:40:Kick.wav
448,192,23343,128,0,23540:0:0:0:0:
192,192,23540,1,0,0:0:0:0:
64,192,23737,128,2,23935:0:0:0:0:
320,192,23737,128,0,23935:0:0:0:0:
192,192,23935,1,2,0:0:0:0:
448,192,23935,1,0,0:0:0:0:
64,192,24132,1,0,0:0:0:40:Kick.wav
320,192,24132,1,0,0:0:0:0:
64,192,24329,1,8,0:0:0:0:
448,192,24329,128,0,24527:0:0:0:0:
192,192,24527,1,2,0:0:0:0:
320,192,24527,128,0,24724:0:0:0:0:
64,192,24724,1,2,0:0:0:0:
448,192,24724,128,0,24922:0:0:0:0:
192,192,24922,1,0,0:0:0:0:
320,192,25119,1,0,0:0:0:40:Hat-open.wav
448,192,25119,1,0,0:0:0:40:Kick.wav
64,192,25316,1,2,0:0:0:0:
320,192,25514,128,2,25711:0:0:0:0:
448,192,25514,128,0,25908:0:0:0:0:
64,192,25908,1,0,0:0:0:40:Kick.wav
192,192,25908,1,0,0:0:0:0:
320,192,26106,1,2,0:0:0:0:
448,192,26106,128,0,26303:0:0:0:0:
64,192,26303,1,8,0:0:0:0:
192,192,26303,1,2,0:0:0:0:
192,192,26500,1,0,0:0:0:40:Kick.wav
320,192,26500,128,0,26698:0:0:0:0:
448,192,26698,1,0,0:0:0:0:
64,192,26895,1,2,0:0:0:0:
192,192,26895,128,0,27093:0:0:0:0:
320,192,27093,1,2,0:0:0:0:
448,192,27093,1,0,0:0:0:0:
192,192,27290,1,0,0:0:0:40:Kick.wav
448,192,27290,128,0,27487:0:0:0:0:
64,192,27487,1,8,0:0:0:0:
192,192,27685,1,2,0:0:0:0:
320,192,27685,128,0,27882:0:0:0:0:
64,192,27882,1,2,0:0:0:0:
448,192,27882,1,0,0:0:0:0:
64,192,28079,128,0,28277:0:0:0:0:
320,192,28079,1,0,0:0:0:0:
448,192,28277,1,0,0:0:0:40:Kick.wav
192,192,28474,128,2,29066:0:0:0:0:
320,192,28474,128,0,28672:0:0:0:0:
64,192,28672,1,2,0:0:0:0:
448,192,28869,128,2,29264:0:0:0:0:
64,192,29066,128,0,29461:0:0:0:40:Hat-open.wav
192,192,29264,1,0,0:0:0:45:Tom1.wav
320,192,29264,128,0,29658:0:0:0:0:
192,192,29461,128,0,29658:0:0:0:70:Tom1.wav
448,192,29461,1,0,0:0:0:0:
64,192,29856,128,4,30053:0:0:0:0:
192,192,29856,128,2,30053:0:0:0:0:
448,192,29856,128,0,30053:0:0:0:0:
64,192,30250,1,0,0:0:0:0:
448,192,30250,128,0,30448:0:0:0:0:
192,192,30448,128,0,30645:0:0:0:0:
64,192,30645,1,0,0:0:0:40:Kick.wav
320,192,30645,128,0,30843:0:0:0:0:
448,192,30843,128,2,31040:0:0:0:0:
192,192,31040,1,8,0:0:0:0:
320,192,31040,1,2,0:0:0:0:
192,192,31237,128,0,31435:0:0:0:40:Kick.wav
448,192,31237,1,0,0:0:0:0:
64,192,31435,128,0,31632:0:0:0:0:
320,192,31632,128,2,31829:0:0:0:0:
64,192,31829,1,2,0:0:0:0:
448,192,31829,1,0,0:0:0:0:
192,192,32027,1,0,0:0:0:40:Kick.wav
448,192,32027,128,0,32224:0:0:0:0:
64,192,32224,128,8,32422:0:0:0:0:
320,192,32422,128,2,32619:0:0:0:0:
192,192,32619,1,2,0:0:0:0:
64,192,32816,128,0,33014:0:0:0:0:
320,192,33014,128,0,33211:0:0:0:40:Kick.wav
448,192,33014,1,0,0:0:0:0:
192,192,33211,128,2,33408:0:0:0:0:
64,192,33408,1,2,0:0:0:0:
448,192,33408,1,0,0:0:0:0:
320,192,33606,128,0,33803:0:0:0:0:
64,192,33803,128,0,34000:0:0:0:40:Kick.wav
192,192,33803,1,0,0:0:0:0:
448,192,34000,128,2,34198:0:0:0:0:
320,192,34198,1,2,0:0:0:0:
192,192,34395,128,0,34593:0:0:0:40:Kick.wav
448,192,34395,1,0,0:0:0:0:
320,192,34593,128,0,34790:0:0:0:0:
448,192,34790,128,2,34987:0:0:0:0:
192,192,34987,1,2,0:0:0:0:
320,192,34987,1,0,0:0:0:0:
64,192,35185,128,0,35382:0:0:0:40:Kick.wav
192,192,35382,128,0,35579:0:0:0:0:
448,192,35579,128,0,35777:0:0:0:0:
64,192,35777,1,8,0:0:0:0:
