osu file format v14

[General]
AudioFilename: audio.mp3
AudioLeadIn: 0
PreviewTime: 7822
Countdown: 1
SampleSet: None
StackLeniency: 0.7
Mode: 0
LetterboxInBreaks: 0
WidescreenStoryboard: 1

[Editor]
DistanceSpacing: 1.1
BeatDivisor: 2
GridSize: 4
TimelineZoom: 1

[Metadata]
Title:The T (feat. Adore Delano)
TitleUnicode:The T (feat. Adore Delano)
Artist:Alaska Thunderfuck
ArtistUnicode:Alaska Thunderfuck
Creator:Gabe
Version:Normal
Source:
Tags:RuPaul Drag Race All Star Queen Danny Noriega Thunderfvck 5000 from the planet glamtron Justin Andrew Honard Poundcake Marianna Collaboration
BeatmapID:1138526
BeatmapSetID:537252

[Difficulty]
HPDrainRate:4.5
CircleSize:3.5
OverallDifficulty:3.5
ApproachRate:4.5
SliderMultiplier:1.1
SliderTickRate:1

[Events]
//Background and Video events
0,0,"The T.jpg",0,0
//Break Periods
2,39988,46398
2,71464,84758
2,167858,181152
//Storyboard Layer 0 (Background)
//Storyboard Layer 1 (Fail)
//Storyboard Layer 2 (Pass)
//Storyboard Layer 3 (Foreground)
Sprite,Foreground,Centre,"gabe.png",320,240 M,0,7995,,651,403 F,0,7995,8241,0,1 F,0,8241,39717,1 F,0,39717,40700,1,0 F,0,40700,47340,0 F,0,47340,47586,0,1 F,0,47586,71192,1,0.995935 F,0,71192,73159,0.995935,0 F,0,73159,85885,0 F,0,85885,85946,0,1 F,0,85946,86008,1,0 F,0,86008,86069,0 F,0,86069,86131,0,1 F,0,86131,86192,1,0 F,0,86192,86254,0,1 F,0,86254,86315,1,0 F,0,86315,86377,0 F,0,86377,86438,0,1 F,0,86438,86500,1,0 F,0,86500,86623,0 F,0,86623,86684,0,1 F,0,86684,86745,1,0 F,0,86745,86868,0 F,0,86868,86930,0,1 F,0,86930,135618,1 F,0,135618,135864,1,0 F,0,135864,143733,0 F,0,143733,143979,0,1 F,0,143979,167586,1 F,0,167586,169553,1,0 F,0,169553,182278,0 F,0,182278,182340,0,1 F,0,182340,182401,1,0 F,0,182401,182463,0 F,0,182463,182524,0,1 F,0,182524,182586,1,0 F,0,182586,182647,0,1 F,0,182647,182709,1,0 F,0,182709,182770,0 F,0,182770,182832,0,1 F,0,182832,182893,1,0 F,0,182893,183016,0 F,0,183016,183077,0,1 F,0,183077,183139,1,0 F,0,183139,183262,0 F,0,183262,183323,0,1 F,0,183323,198815,1 F,0,198815,199061,1,0
Sprite,Foreground,Centre,"marianna.png",320,240 M,0,135864,,599.6,403.0666 F,0,135864,136110,0,1 F,0,136110,143487,1 F,0,143487,143733,1,0
//Storyboard Sound Samples

[TimingPoints]
445,491.803278688525,4,3,1,50,1,0
71264,-100,4,3,2,50,0,1
71387,-100,4,3,1,50,0,0
86018,-100,4,3,1,20,0,0
87002,-100,4,3,1,50,0,0
167658,-100,4,3,2,50,0,1
167781,-100,4,3,1,50,0,0
182412,-100,4,3,1,20,0,0
183395,-100,4,3,1,50,0,0
198641,-100,4,3,1,30,0,0
199133,-100,4,3,1,10,0,0

[Colours]
Combo1 : 242,24,57
Combo2 : 34,201,219
Combo3 : 18,124,255
Combo4 : 249,138,155

[HitObjects]
392,344,8313,6,0,P|372:294|392:244,1,110,4|2,0:2|0:0,0:0:0:0:
452,140,9297,2,0,P|472:90|452:40,1,110,0|2,0:0|0:0,0:0:0:0:
340,88,10281,1,0,0:0:0:0:
232,140,10772,2,0,L|116:140,1,110,2|0,0:0|0:0,0:0:0:0:
12,192,11756,1,2,0:0:0:0:
122,244,12248,6,0,L|232:244,1,110,0|2,0:0|0:0,0:0:0:0:
340,296,13231,1,0,0:0:0:0:
340,296,13723,1,2,0:0:0:0:
232,352,14215,2,0,L|122:352,1,110,0|2,0:0|0:0,0:0:0:0:
12,296,15199,1,0,0:0:0:0:
12,296,15445,1,0,0:0:0:0:
12,296,15690,1,2,0:0:0:0:
76,192,16182,6,0,L|96:76,1,110,4|2,0:2|0:0,0:0:0:0:
192,12,17166,2,0,L|212:124,1,110,0|2,0:0|0:0,0:0:0:0:
308,192,18149,2,0,L|344:80,2,110,0|2|0,0:0|0:0|0:0,0:0:0:0:
192,232,19625,1,2,0:0:0:0:
276,320,20117,6,0,L|388:320,1,110,0|2,0:0|0:0,0:0:0:0:
472,232,21100,1,0,0:0:0:0:
472,232,21346,1,0,0:0:0:0:
472,232,21592,1,2,0:0:0:0:
392,140,22084,2,0,L|392:20,1,110,0|2,0:0|0:0,0:0:0:0:
284,84,23067,2,0,L|284:204,1,110,0|2,0:0|0:0,0:0:0:0:
268,220,23805,1,0,0:0:0:0:
240,232,24051,6,0,P|184:232|152:192,1,110,4|2,0:2|0:0,0:0:0:0:
84,92,25035,2,0,P|118:51|171:52,1,110,0|2,0:0|0:0,0:0:0:0:
292,44,26018,2,0,L|352:20,2,55,0|0|2,0:0|0:0|0:0,0:0:0:0:
376,132,27002,2,0,L|436:156,2,55,0|0|2,0:0|0:0|0:0,0:0:0:0:
348,144,27740,1,0,0:0:0:0:
332,168,27985,6,0,L|332:284,1,110,0|2,0:0|0:0,0:0:0:0:
224,336,28969,2,0,L|224:226,1,110,0|2,0:0|0:0,0:0:0:0:
116,280,29953,2,0,L|116:170,1,110,0|2,0:0|0:0,0:0:0:0:
68,60,30936,2,0,L|12:76,2,55,0|0|2,0:0|0:0|0:0,0:0:0:0:
116,170,31920,6,0,L|60:186,2,55,4|0|2,0:2|0:0|0:0,0:0:0:0:
164,280,32904,2,0,L|108:296,2,55,0|0|2,0:0|0:0|0:0,0:0:0:0:
272,224,33887,2,0,P|328:212|376:248,1,110,0|2,0:0|0:0,0:0:0:0:
460,320,34871,2,0,L|516:336,2,55,0|0|2,0:0|0:0|0:0,0:0:0:0:
460,200,35854,6,0,L|476:80,1,110,0|2,0:0|0:0,0:0:0:0:
376,160,36838,2,0,L|392:40,1,110,0|2,0:0|0:0,0:0:0:0:
288,112,37822,2,0,L|178:97,1,110,0|2,0:0|0:0,0:0:0:0:
152,112,38559,1,0,0:0:0:0:
124,124,38805,2,0,L|14:109,2,110,0|2|4,0:0|0:0|0:2,0:0:0:0:
468,48,47658,6,0,B|412:56|412:56|356:220,1,220,4|2,0:2|0:0,0:0:0:0:
140,316,49625,2,0,B|181:309|181:309|223:187,2,165,0|0|0,0:0|0:0|0:0,0:0:0:0:
44,244,51592,6,0,P|24:192|36:132,1,110,0|0,0:0|0:0,0:0:0:0:
92,36,52576,1,2,0:0:0:0:
92,36,53067,1,0,0:0:0:0:
196,100,53559,2,0,P|269:128|353:111,2,165,0|0|0,0:0|0:0|2:0,0:0:0:0:
176,220,55526,6,0,L|196:340,1,110,4|2,0:2|0:0,0:0:0:0:
317,328,56510,2,0,L|336:220,1,110,0|2,0:0|0:0,0:0:0:0:
360,100,57494,1,0,0:0:0:0:
256,40,57985,1,2,0:0:0:0:
152,100,58477,2,0,P|128:160|148:212,1,110,0|2,0:0|0:0,0:0:0:0:
256,164,59461,5,0,0:0:0:0:
256,164,59953,1,2,0:0:0:0:
356,232,60445,2,0,L|468:232,1,110,0|2,0:0|0:0,0:0:0:0:
412,340,61428,1,0,0:0:0:0:
352,340,61674,1,0,0:0:0:0:
292,340,61920,1,2,0:0:0:0:
172,340,62412,2,0,P|148:292|172:244,1,110,0|2,0:0|0:0,0:0:0:0:
256,156,63395,6,0,L|256:36,1,110,4|2,0:2|0:0,0:0:0:0:
376,44,64379,2,0,L|376:164,1,110,0|2,0:0|0:0,0:0:0:0:
316,260,65363,1,0,0:0:0:0:
204,308,65854,2,0,P|160:312|112:268,1,110,2|0,0:0|0:0,0:0:0:0:
68,160,66838,1,2,0:0:0:0:
178,111,67330,6,0,P|222:107|270:151,1,110,0|2,0:0|0:0,0:0:0:0:
316,260,68313,2,0,L|340:368,1,110,0|2,0:0|0:0,0:0:0:0:
456,336,69297,2,0,L|407:119,1,220
324,36,70772,1,2,0:0:0:0:
256,136,71264,5,4,0:0:0:0:
160,276,86018,6,0,L|213:261,1,55
265,229,86510,2,0,L|318:243,1,55
372,272,87002,6,0,L|492:252,1,110,4|2,0:2|0:0,0:0:0:0:
480,131,87985,2,0,L|372:112,1,110,0|2,0:0|0:0,0:0:0:0:
256,80,88969,1,0,0:0:0:0:
140,112,89461,1,2,0:0:0:0:
24,144,89953,2,0,B|-4:192|-4:192|24:240,1,110,0|2,0:0|0:0,0:0:0:0:
140,272,90936,1,0,0:0:0:0:
228,192,91428,5,2,0:0:0:0:
140,272,91920,2,0,L|140:384,1,110,0|2,0:0|0:0,0:0:0:0:
256,344,92904,1,0,0:0:0:0:
256,344,93395,1,2,0:0:0:0:
372,382,93887,2,0,L|372:272,1,110,0|2,0:0|0:0,0:0:0:0:
420,160,94871,6,0,P|396:92|348:80,1,110,4|2,0:2|0:0,0:0:0:0:
248,48,95854,2,0,L|180:40,2,55,0|0|2,0:0|0:0|0:0,0:0:0:0:
168,136,96838,2,0,L|58:123,1,110,0|2,0:0|0:0,0:0:0:0:
28,120,97576,1,0,0:0:0:0:
16,148,97822,2,0,L|28:257,1,110,0|2,0:0|0:0,0:0:0:0:
128,328,98805,6,0,P|184:348|232:332,1,110,0|2,0:0|0:0,0:0:0:0:
300,232,99789,1,0,0:0:0:0:
300,232,100281,1,2,0:0:0:0:
420,240,100772,2,0,L|448:352,1,110,0|2,0:0|0:0,0:0:0:0:
326,338,101756,2,0,L|298:226,1,110,0|2,0:0|0:0,0:0:0:0:
256,192,102740,12,4,104707,0:2:0:0:
352,56,106674,6,0,P|404:76|432:196,2,165,0|0|0,0:0|0:0|0:0,0:0:0:0:
232,90,108641,2,0,L|116:78,1,110
16,144,109625,5,2,0:0:0:0:
16,144,110608,2,0,L|8:308,2,165
128,196,112576,6,0,L|120:360,2,165,4|0|0,0:2|0:0|0:0,0:0:0:0:
220,120,114543,2,0,P|148:68|72:84,2,165,0|0|0,0:0|0:0|0:0,0:0:0:0:
316,192,116510,6,0,L|480:184,1,165
472,244,117494,2,0,P|411:264|360:272,1,110,2|0,0:0|0:0,0:0:0:0:
248,292,118477,2,0,L|20:303,1,220,0|0,0:0|0:0,0:0:0:0:
4,184,119953,1,0,0:0:0:0:
44,68,120445,6,0,P|100:40|152:72,1,110,4|2,0:2|0:0,0:0:0:0:
240,124,121428,2,0,P|290:140|336:113,1,110,0|2,0:0|0:0,0:0:0:0:
436,44,122412,1,0,0:0:0:0:
424,164,122904,1,2,0:0:0:0:
412,284,123395,2,0,L|296:304,1,110,0|2,0:0|0:0,0:0:0:0:
276,292,124133,1,0,0:0:0:0:
248,280,124379,6,0,L|132:300,1,110,0|2,0:0|0:0,0:0:0:0:
76,196,125363,2,0,L|16:184,2,55,0|0|2,0:0|0:0|0:0,0:0:0:0:
104,184,126100,1,0,0:0:0:0:
132,172,126346,2,0,P|164:164|232:200,1,110,0|2,0:0|0:0,0:0:0:0:
308,288,127330,2,0,L|424:296,1,110,0|2,0:0|0:0,0:0:0:0:
508,212,128313,5,4,0:2:0:0:
508,212,128805,1,2,0:0:0:0:
460,100,129297,2,0,P|436:72|360:64,1,110,0|2,0:0|0:0,0:0:0:0:
256,108,130281,2,0,P|216:144|162:146,1,110,0|2,0:0|0:0,0:0:0:0:
52,96,131264,1,0,0:0:0:0:
52,96,131756,1,2,0:0:0:0:
56,216,132248,6,0,L|36:324,1,110,2|2,0:0|0:0,0:0:0:0:
156,348,133231,2,0,L|176:240,1,110,0|2,0:0|0:0,0:0:0:0:
288,196,134215,1,0,0:0:0:0:
364,292,134707,1,2,0:0:0:0:
452,208,135199,2,0,L|452:84,1,110,0|2,0:0|0:0,0:0:0:0:
351,28,136182,6,0,P|261:86|153:79,1,220,4|2,0:2|0:0,0:0:0:0:
36,44,137658,1,0,0:0:0:0:
76,160,138149,2,0,P|88:232|84:324,2,165,0|0|0,0:0|0:0|0:0,0:0:0:0:
148,64,140117,6,0,B|180:36|216:36|248:56|248:56|284:80|324:80|352:52,1,220,0|2,0:0|0:0,0:0:0:0:
464,96,141592,1,0,0:0:0:0:
404,200,142084,2,0,P|392:276|420:360,2,165,0|0|0,0:0|0:0|0:0,0:0:0:0:
296,144,144051,6,0,L|176:152,1,110,4|0,2:0|0:0,0:0:0:0:
64,160,145035,1,2,0:0:0:0:
64,160,146018,2,0,P|40:224|52:328,2,165,0|0|0,0:0|0:0|0:0,0:0:0:0:
164,228,147985,6,0,P|200:236|272:216,1,110,0|0,0:0|0:0,0:0:0:0:
360,136,148969,1,2,0:0:0:0:
360,136,149953,2,0,L|388:308,2,165,0|0|0,0:0|0:0|0:0,0:0:0:0:
352,108,151674,1,0,0:0:0:0:
344,80,151920,6,0,P|304:64|248:104,1,110,4|2,0:2|0:0,0:0:0:0:
188,200,152904,2,0,L|76:208,1,110,0|2,0:0|0:0,0:0:0:0:
8,304,153887,1,0,0:0:0:0:
128,324,154379,1,2,0:0:0:0:
248,344,154871,2,0,L|312:352,2,55,0|0|2,0:0|0:0|0:0,0:0:0:0:
316,240,155854,6,0,L|440:252,1,110,0|2,0:0|0:0,0:0:0:0:
508,160,156838,1,0,0:0:0:0:
508,160,157330,1,2,0:0:0:0:
456,52,157822,2,0,L|346:41,1,110,0|2,0:0|0:0,0:0:0:0:
260,128,158805,1,0,0:0:0:0:
260,128,159051,1,0,0:0:0:0:
260,128,159297,1,2,0:0:0:0:
156,64,159789,6,0,P|100:64|52:112,1,110,4|2,0:2|0:0,0:0:0:0:
44,216,160772,2,0,L|28:276,2,55,0|0|2,0:0|0:0|0:0,0:0:0:0:
140,292,161756,2,0,L|124:352,2,55,0|0|2,0:0|0:0|0:0,0:0:0:0:
248,236,162740,2,0,P|304:228|360:272,1,110,0|2,0:0|0:0,0:0:0:0:
448,324,163723,6,0,L|468:212,1,110,0|2,0:0|0:0,0:0:0:0:
372,140,164707,2,0,L|392:28,1,110,0|2,0:0|0:0,0:0:0:0:
276,64,165690,2,0,P|172:36|96:112,1,220,0|0,0:0|0:0,0:0:0:0:
104,228,167166,1,2,0:0:0:0:
200,156,167658,5,4,0:0:0:0:
52,236,182412,6,0,L|116:240,1,55,0|0,0:0|0:0,0:0:0:0:
156,276,182904,2,0,L|220:280,1,55,0|0,0:0|0:0,0:0:0:0:
256,316,183395,6,0,L|368:320,1,110,4|2,0:2|0:0,0:0:0:0:
432,220,184379,2,0,L|456:160,2,55,0|0|2,0:0|0:0|0:0,0:0:0:0:
312,224,185363,2,0,P|275:206|256:144,1,110,0|2,0:0|0:0,0:0:0:0:
200,36,186346,1,0,0:0:0:0:
140,44,186592,1,0,0:0:0:0:
80,52,186838,1,2,0:0:0:0:
16,156,187330,6,0,L|20:272,1,110,0|2,0:0|0:0,0:0:0:0:
128,320,188313,2,0,L|124:240,2,55,0|0|2,0:0|0:0|0:0,0:0:0:0:
228,252,189297,2,0,L|224:142,1,110,0|2,0:0|0:0,0:0:0:0:
312,60,190281,1,0,0:0:0:0:
372,68,190526,1,0,0:0:0:0:
432,80,190772,1,2,0:0:0:0:
464,200,191264,6,0,L|476:256,2,55,4|0|2,0:2|0:0|0:0,0:0:0:0:
364,268,192248,2,0,L|376:324,2,55,0|0|2,0:0|0:0|0:0,0:0:0:0:
356,240,192985,1,0,0:0:0:0:
348,212,193231,2,0,P|316:200|256:240,1,110,0|2,0:0|0:0,0:0:0:0:
160,312,194215,2,0,P|120:347|68:338,1,110,0|2,0:0|0:0,0:0:0:0:
60,308,194953,1,0,0:0:0:0:
52,276,195199,5,0,0:0:0:0:
172,68,196182,1,0,0:0:0:0:
172,68,196674,1,2,0:0:0:0:
264,148,197166,2,0,P|328:156|372:132,1,110,0|2,0:0|0:0,0:0:0:0:
476,84,198149,2,0,L|492:316,1,220
