osu file format v14

[General]
AudioFilename: audio.mp3
AudioLeadIn: 0
PreviewTime: 7822
Countdown: 1
SampleSet: None
StackLeniency: 0.7
Mode: 0
LetterboxInBreaks: 0
WidescreenStoryboard: 1

[Editor]
DistanceSpacing: 1.1
BeatDivisor: 2
GridSize: 4
TimelineZoom: 1

[Metadata]
Title:The T (feat. Adore Delano)
TitleUnicode:The T (feat. Adore Delano)
Artist:Alaska Thunderfuck
ArtistUnicode:Alaska Thunderfuck
Creator:Gabe
Version:Easy
Source:
Tags:RuPaul Drag Race All Star Queen Danny Noriega Thunderfvck 5000 from the planet glamtron Justin Andrew Honard Poundcake Marianna Collaboration
BeatmapID:1138525
BeatmapSetID:537252

[Difficulty]
HPDrainRate:2
CircleSize:3
OverallDifficulty:1
ApproachRate:2
SliderMultiplier:0.8
SliderTickRate:1

[Events]
//Background and Video events
0,0,"The T.jpg",0,0
//Break Periods
2,39989,46098
2,71464,84458
2,167858,180852
//Storyboard Layer 0 (Background)
//Storyboard Layer 1 (Fail)
//Storyboard Layer 2 (Pass)
//Storyboard Layer 3 (Foreground)
Sprite,Foreground,Centre,"marianna.png",320,240 M,0,7995,,599.6,403.0666 F,0,7995,8241,0,1 F,0,8241,39717,1 F,0,39717,40700,1,0 F,0,40700,47340,0 F,0,47340,47586,0,1 F,0,47586,71192,1,0.995935 F,0,71192,73159,0.995935,0 F,0,73159,85885,0 F,0,85885,85946,0,1 F,0,85946,86008,1,0 F,0,86008,86069,0 F,0,86069,86131,0,1 F,0,86131,86192,1,0 F,0,86192,86254,0,1 F,0,86254,86315,1,0 F,0,86315,86377,0 F,0,86377,86438,0,1 F,0,86438,86500,1,0 F,0,86500,86623,0 F,0,86623,86684,0,1 F,0,86684,86745,1,0 F,0,86745,86868,0 F,0,86868,86930,0,1 F,0,86930,135618,1 F,0,135618,135864,1,0 F,0,135864,143733,0 F,0,143733,143979,0,1 F,0,143979,167586,1 F,0,167586,169553,1,0 F,0,169553,182278,0 F,0,182278,182340,0,1 F,0,182340,182401,1,0 F,0,182401,182463,0 F,0,182463,182524,0,1 F,0,182524,182586,1,0 F,0,182586,182647,0,1 F,0,182647,182709,1,0 F,0,182709,182770,0 F,0,182770,182832,0,1 F,0,182832,182893,1,0 F,0,182893,183016,0 F,0,183016,183077,0,1 F,0,183077,183139,1,0 F,0,183139,183262,0 F,0,183262,183323,0,1 F,0,183323,198815,1 F,0,198815,199061,1,0
Sprite,Foreground,Centre,"gabe.png",320,240 F,0,135864,136110,0,1 M,0,136110,,651,403 F,0,136110,143487,1 F,0,143487,143733,1,0
//Storyboard Sound Samples

[TimingPoints]
445,491.803278688525,4,3,1,50,1,0
71264,-100,4,3,2,50,0,1
71387,-100,4,3,1,50,0,0
86018,-100,4,3,1,20,0,0
87002,-100,4,3,1,50,0,0
167658,-100,4,3,2,50,0,1
167781,-100,4,3,1,50,0,0
182412,-100,4,3,1,20,0,0
183395,-100,4,3,1,50,0,0
198641,-100,4,3,1,30,0,0
199133,-100,4,3,1,10,0,0

[Colours]
Combo1 : 242,24,57
Combo2 : 34,201,219
Combo3 : 18,124,255
Combo4 : 249,138,155

[HitObjects]
48,160,8313,6,0,P|124:168|184:116,1,160,4|2,0:2|0:0,0:0:0:0:
224,40,9789,1,0,0:0:0:0:
300,88,10281,2,0,L|420:72,2,120,0|0|2,0:0|0:0|0:0,0:0:0:0:
252,164,12248,6,0,P|228:232|284:308,1,160,0|0,0:0|0:0,0:0:0:0:
428,220,14215,2,0,L|508:212,2,80,0|2|0,0:0|0:0|0:0,0:0:0:0:
352,176,15690,1,2,0:0:0:0:
288,236,16182,6,0,P|212:248|144:204,1,160,4|0,0:2|0:0,0:0:0:0:
108,124,17658,1,2,0:0:0:0:
60,48,18149,2,0,P|112:36|176:68,2,120,0|0|2,0:0|0:0|0:0,0:0:0:0:
24,128,20117,6,0,L|36:212,1,80,0|2,0:0|0:0,0:0:0:0:
108,260,21100,2,0,L|120:344,1,80,0|2,0:0|0:0,0:0:0:0:
208,356,22084,2,0,B|292:368|272:324|364:340,1,160,0|0,0:0|0:0,0:0:0:0:
444,304,23559,1,2,0:0:0:0:
392,232,24051,6,0,B|384:192|384:192|392:152,1,80,4|2,0:2|0:0,0:0:0:0:
304,164,25035,2,0,B|312:124|312:124|304:84,1,80,0|2,0:0|0:0,0:0:0:0:
228,40,26018,2,0,L|144:48,1,80,0|2,0:0|0:0,0:0:0:0:
120,132,27002,2,0,L|204:140,1,80,0|2,0:0|0:0,0:0:0:0:
288,152,27985,6,0,B|284:196|248:216|248:216|260:296,1,160,0|0,0:0|0:0,0:0:0:0:
192,352,29461,1,2,0:0:0:0:
124,296,29953,2,0,L|40:304,1,80,0|2,0:0|0:0,0:0:0:0:
20,220,30936,2,0,L|99:212,1,80,0|2,0:0|0:0,0:0:0:0:
172,164,31920,6,0,B|188:128|188:128|188:88,1,80,4|2,0:2|0:0,0:0:0:0:
268,120,32904,2,0,B|268:80|268:80|284:44,1,80,0|2,0:0|0:0,0:0:0:0:
371,29,33887,2,0,P|447:48|477:118,1,160
388,112,35363,1,2,0:0:0:0:
406,198,35854,6,0,P|330:179|300:109,1,160
272,28,37330,1,2,0:0:0:0:
192,64,37822,2,0,L|112:60,1,80,0|2,0:0|0:0,0:0:0:0:
80,144,38805,2,0,L|160:148,1,80,0|2,0:0|0:0,0:0:0:0:
228,204,39789,5,4,0:2:0:0:
372,312,47658,6,0,P|356:236|404:168,1,160,4|2,0:2|0:0,0:0:0:0:
472,124,49133,1,0,0:0:0:0:
404,68,49625,2,0,B|288:56|288:56|244:72,1,160,0|2,0:0|0:0,0:0:0:0:
172,116,51100,1,0,0:0:0:0:
252,156,51592,6,0,P|229:188|190:206,1,80,0|0,0:0|0:0,0:0:0:0:
108,228,52576,2,0,P|124:263|157:285,1,80,2|0,0:0|0:0,0:0:0:0:
244,280,53559,2,0,L|368:288,2,120,0|0|0,0:0|0:0|2:0,0:0:0:0:
156,288,55526,6,0,L|72:296,1,80,4|2,0:2|0:0,0:0:0:0:
48,212,56510,2,0,L|127:204,1,80,0|2,0:0|0:0,0:0:0:0:
208,168,57494,2,0,P|216:128|208:88,1,80,0|2,0:0|0:0,0:0:0:0:
132,44,58477,2,0,P|124:84|132:124,1,80,0|2,0:0|0:0,0:0:0:0:
208,168,59461,6,0,L|368:160,1,160,0|0,0:0|0:0,0:0:0:0:
440,112,60936,1,2,0:0:0:0:
472,196,61428,2,0,P|420:256|416:344,1,160,0|0,0:0|0:0,0:0:0:0:
328,316,62904,1,2,0:0:0:0:
244,340,63395,6,0,L|80:348,1,160,4|0,0:2|0:0,0:0:0:0:
24,284,64871,1,2,0:0:0:0:
104,252,65363,2,0,P|128:176|108:100,1,160,0|0,0:0|0:0,0:0:0:0:
48,36,66838,1,2,0:0:0:0:
136,24,67330,6,0,L|304:32,1,160,0|0,0:0|0:0,0:0:0:0:
376,68,68805,1,2,0:0:0:0:
308,124,69297,2,0,P|300:196|316:248,2,120,0|0|2,0:0|0:0|0:0,0:0:0:0:
376,68,71264,5,4,0:0:0:0:
124,92,86018,6,0,L|120:176,1,80,0|0,0:0|0:0,0:0:0:0:
52,228,87002,6,0,P|112:260|192:224,1,160,4|0,0:2|0:0,0:0:0:0:
256,168,88477,1,2,0:0:0:0:
328,220,88969,2,0,P|396:255|467:222,1,160,0|0,0:0|0:0,0:0:0:0:
400,164,90445,1,2,0:0:0:0:
452,92,90936,6,0,L|460:12,2,80,0|2|0,0:0|0:0|0:0,0:0:0:0:
400,164,92412,1,2,0:0:0:0:
336,104,92904,2,0,P|296:96|256:104,1,80,0|2,0:0|0:0,0:0:0:0:
188,52,93887,2,0,P|148:60|108:52,1,80,0|2,0:0|0:0,0:0:0:0:
52,120,94871,6,0,L|80:288,1,160,4|0,0:2|0:0,0:0:0:0:
144,336,96346,1,2,0:0:0:0:
216,288,96838,2,0,B|252:280|252:280|296:288,1,80,0|2,0:0|0:0,0:0:0:0:
288,200,97822,2,0,B|324:208|324:208|368:200,1,80,0|2,0:0|0:0,0:0:0:0:
412,128,98805,6,0,P|448:176|420:272,1,160,0|0,0:0|0:0,0:0:0:0:
368,332,100281,1,2,0:0:0:0:
288,300,100772,2,0,B|248:284|212:308|176:328|128:308,1,160,0|0,0:0|0:0,0:0:0:0:
168,228,102248,1,2,0:0:0:0:
168,228,104707,6,0,P|124:164|124:84,1,160,4|2,0:2|0:0,0:0:0:0:
300,48,106674,2,0,L|428:52,2,120
212,32,108641,6,0,P|220:92|300:140,1,160,0|2,0:0|0:0,0:0:0:0:
448,240,110608,2,0,L|440:360,2,120,0|0|0,0:0|0:0|0:0,0:0:0:0:
392,172,112576,6,0,B|336:156|336:156|232:168,1,160,0|2,0:0|0:0,0:0:0:0:
148,188,114051,1,0,0:0:0:0:
64,160,114543,2,0,P|68:224|120:272,2,120,0|0|0,0:0|0:0|0:0,0:0:0:0:
112,84,116510,6,0,L|192:64,1,80,0|0,0:0|0:0,0:0:0:0:
276,80,117494,2,0,L|356:60,1,80,2|0,0:0|0:0,0:0:0:0:
440,36,118477,2,0,P|428:116|444:192,1,160,0|2,0:0|0:0,0:0:0:0:
488,268,119953,1,0,0:0:0:0:
412,308,120445,6,0,B|372:296|336:312|336:312|296:328|252:312,1,160,4|0,0:2|0:0,0:0:0:0:
180,264,121920,1,2,0:0:0:0:
212,180,122412,2,0,L|204:96,2,80,0|2|0,0:0|0:0|0:0,0:0:0:0:
284,228,123887,1,2,0:0:0:0:
344,160,124379,6,0,P|411:119|492:148,1,160
424,208,125854,1,2,0:0:0:0:
372,280,126346,2,0,L|292:272,1,80,0|2,0:0|0:0,0:0:0:0:
212,304,127330,2,0,L|132:296,1,80,0|2,0:0|0:0,0:0:0:0:
56,252,128313,6,0,P|92:184|72:104,1,160,4|0,0:2|0:0,0:0:0:0:
36,28,129789,1,2,0:0:0:0:
124,40,130281,2,0,L|216:32,1,80,0|2,0:0|0:0,0:0:0:0:
284,68,131264,2,0,L|376:60,1,80,0|2,0:0|0:0,0:0:0:0:
448,88,132248,6,0,P|440:128|444:168,1,80,4|2,0:0|0:0,0:0:0:0:
384,232,133231,2,0,P|344:224|304:228,1,80,0|2,0:0|0:0,0:0:0:0:
236,280,134215,2,0,L|72:264,1,160,0|0,0:0|0:0,0:0:0:0:
24,192,135690,1,2,0:0:0:0:
60,112,136182,6,0,P|124:108|204:52,1,160,4|2,0:2|0:0,0:0:0:0:
376,40,138149,2,0,P|400:96|388:168,2,120,0|0|0,0:0|0:0|0:0,0:0:0:0:
292,60,140117,6,0,B|240:96|312:160|248:204,1,160,0|2,0:0|0:0,0:0:0:0:
164,356,142084,2,0,B|99:364|144:268|56:330|43:265,1,160
200,184,144051,6,0,B|212:144|212:144|200:104,1,80,4|0,2:0|0:0,0:0:0:0:
152,32,145035,2,0,P|188:20|240:28,1,80,2|0,0:0|0:0,0:0:0:0:
304,68,146018,2,0,B|364:80|364:80|464:52,1,160,0|2,0:0|0:0,0:0:0:0:
472,140,147494,1,0,0:0:0:0:
392,176,147985,6,0,P|388:216|400:256,1,80,0|0,0:0|0:0,0:0:0:0:
336,316,148969,2,0,P|296:312|256:324,1,80,2|0,0:0|0:0,0:0:0:0:
172,336,149953,2,0,L|52:316,2,120,0|0|0,0:0|0:0|0:0,0:0:0:0:
258,322,151920,6,0,P|250:286|262:234,1,80,4|2,0:2|0:0,0:0:0:0:
316,176,152904,2,0,P|324:140|312:88,1,80,0|2,0:0|0:0,0:0:0:0:
248,44,153887,2,0,L|160:52,1,80,0|2,0:0|0:0,0:0:0:0:
100,108,154871,2,0,L|12:116,1,80,0|2,0:0|0:0,0:0:0:0:
16,204,155854,6,0,P|96:212|156:268,1,160,0|0,0:0|0:0,0:0:0:0:
216,324,157330,1,2,0:0:0:0:
280,264,157822,2,0,L|440:244,1,160,0|0,0:0|0:0,0:0:0:0:
500,180,159297,1,2,0:0:0:0:
424,136,159789,6,0,P|416:100|424:52,1,80,4|2,0:2|0:0,0:0:0:0:
340,24,160772,2,0,P|300:29|261:21,1,80,0|2,0:0|0:0,0:0:0:0:
176,32,161756,2,0,L|184:116,1,80,0|2,0:0|0:0,0:0:0:0:
144,192,162740,2,0,L|152:276,1,80,0|2,0:0|0:0,0:0:0:0:
220,328,163723,6,0,P|268:340|360:288,1,160,0|0,0:0|0:0,0:0:0:0:
300,224,165199,1,2,0:0:0:0:
344,148,165690,2,0,L|332:24,2,120,0|0|2,0:0|0:0|0:0,0:0:0:0:
408,212,167658,5,4,0:0:0:0:
120,76,182412,6,0,P|160:80|200:76,1,80,0|0,0:0|0:0,0:0:0:0:
276,32,183395,6,0,L|436:40,1,160,4|0,0:2|0:0,0:0:0:0:
488,112,184871,1,2,0:0:0:0:
436,184,185363,2,0,P|428:232|440:276,1,80,0|2,0:0|0:0,0:0:0:0:
368,324,186346,2,0,P|320:316|276:328,1,80,0|2,0:0|0:0,0:0:0:0:
208,356,187330,6,0,L|40:324,1,160,0|0,0:0|0:0,0:0:0:0:
24,240,188805,1,2,0:0:0:0:
68,164,189297,2,0,L|64:80,2,80,0|2|0,0:0|0:0|0:0,0:0:0:0:
128,228,190772,1,2,0:0:0:0:
196,172,191264,6,0,P|268:144|344:172,1,160,4|0,0:2|0:0,0:0:0:0:
404,236,192740,1,2,0:0:0:0:
452,164,193231,2,0,L|440:80,1,80,0|2,0:0|0:0,0:0:0:0:
364,40,194215,2,0,L|352:124,1,80,0|2,0:0|0:0,0:0:0:0:
288,180,195199,6,0,P|232:200|148:144,1,160,0|0,0:0|0:0,0:0:0:0:
232,112,196674,1,2,0:0:0:0:
156,68,197166,2,0,P|100:88|68:144,2,120,0|0|2,0:0|0:0|0:0,0:0:0:0:
236,32,199133,5,0,0:0:0:0:
