osu file format v14

[General]
AudioFilename: audio.mp3
AudioLeadIn: 0
PreviewTime: 175068
Countdown: 0
SampleSet: Normal
StackLeniency: 0.7
Mode: 0
LetterboxInBreaks: 1
SkinPreference:Ash Skin
WidescreenStoryboard: 1

[Editor]
DistanceSpacing: 1
BeatDivisor: 8
GridSize: 8
TimelineZoom: 1

[Metadata]
Title:Hymn For The Weekend [Remix]
TitleUnicode:Hymn For The Weekend [Remix]
Artist:Alan Walker vs Coldplay
ArtistUnicode:Alan Walker vs Coldplay
Creator:Miss Mandii
Version:Insane
Source:
Tags:Remix Dubstep Techno
BeatmapID:1110823
BeatmapSetID:523172

[Difficulty]
HPDrainRate:6
CircleSize:5
OverallDifficulty:7
ApproachRate:9
SliderMultiplier:2.5
SliderTickRate:2

[Events]
//Background and Video events
0,0,"maxresdefault.jpg",0,0
//Break Periods
2,112143,119155
2,164955,174468
//Storyboard Layer 0 (Background)
//Storyboard Layer 1 (Fail)
//Storyboard Layer 2 (Pass)
//Storyboard Layer 3 (Foreground)
//Storyboard Sound Samples

[TimingPoints]
68.2819218239288,625,4,1,0,100,1,0
8816,-100,4,2,0,20,0,0
26642,-100,4,2,0,5,0,0
26742,-100,4,1,0,30,0,0
28818,-100,4,1,0,5,0,0
29130,-100,4,1,0,40,0,0
30392,-100,4,1,0,40,0,0
90074,-100,4,1,0,5,0,0
91636,-100,4,1,0,30,0,0
109130,-100,4,1,0,5,0,0
119755,-100,4,1,0,5,0,0
122568,-100,4,1,0,40,0,0
164755,-100,4,1,0,5,0,0
165068,-100,4,2,0,25,0,0
183505,-100,4,1,0,40,0,0

[HitObjects]
80,128,9130,6,0,P|128:88|192:96,1,125
224,216,9755,2,0,P|168:256|112:240,1,125,0|8,0:0|1:0,0:0:0:0:
368,248,10693,5,8,1:0:0:0:
272,160,11005,2,0,L|376:64,1,125,0|8,0:0|1:0,0:0:0:0:
112,64,11943,5,8,1:0:0:0:
112,192,12255,2,0,P|152:240|208:216,1,125,0|8,0:0|1:0,0:0:0:0:
456,224,13193,1,8,1:0:0:0:
208,224,13818,1,8,1:0:0:0:
208,96,14130,5,0,0:0:0:0:
336,96,14443,1,8,1:0:0:0:
336,224,14755,1,0,0:0:0:0:
208,224,15068,1,8,1:0:0:0:
40,40,15693,5,8,1:0:0:0:
120,136,16005,2,0,L|224:64,1,125,0|8,0:0|1:0,0:0:0:0:
296,304,16943,5,8,1:0:0:0:
296,176,17255,2,0,P|336:152|408:200,1,125,0|8,0:0|1:0,0:0:0:0:
176,296,18193,1,8,1:0:0:0:
360,128,18818,1,8,1:0:0:0:
360,256,19130,5,0,0:0:0:0:
232,256,19443,1,8,1:0:0:0:
360,256,19755,1,0,0:0:0:0:
360,128,20068,1,8,1:0:0:0:
112,80,20693,5,8,1:0:0:0:
240,80,21005,1,0,0:0:0:0:
112,80,21318,1,8,1:0:0:0:
352,144,21943,5,8,1:0:0:0:
352,272,22255,1,0,0:0:0:0:
352,144,22568,1,8,1:0:0:0:
184,328,23193,1,8,1:0:0:0:
368,160,23818,1,8,1:0:0:0:
368,32,24130,5,0,0:0:0:0:
368,160,24443,1,8,1:0:0:0:
240,160,24755,1,0,0:0:0:0:
112,160,25068,2,0,P|96:80|232:72,1,250,8|8,1:0|1:0,0:0:0:0:
232,200,26005,1,0,0:0:0:0:
232,72,26318,1,8,1:0:0:0:
256,192,26630,12,0,28818,0:0:0:0:
184,104,29130,5,0,0:0:0:0:
312,104,29443,1,0,0:0:0:0:
184,104,29755,1,0,0:0:0:0:
312,104,30068,1,8,1:0:0:0:
408,184,30380,6,8,L|320:288,1,125,10|8,1:0|1:0,1:0:0:0:
200,280,31005,1,10,0:0:0:0:
184,256,31083,1,0,0:0:0:0:
168,232,31162,1,0,0:0:0:0:
152,208,31240,1,0,0:0:0:0:
136,184,31318,1,8,0:0:0:0:
248,128,31630,6,8,L|376:72,1,125,10|8,0:0|0:0,0:0:0:0:
400,200,32255,1,10,0:0:0:0:
376,216,32333,1,0,0:0:0:0:
352,232,32412,1,0,0:0:0:0:
328,248,32490,1,0,0:0:0:0:
304,264,32568,1,8,0:0:0:0:
176,264,32880,6,8,L|24:264,1,125,10|8,0:0|0:0,0:0:0:0:
56,136,33505,2,8,L|192:136,1,125,10|8,0:0|0:0,0:0:0:0:
184,264,34130,2,8,L|320:264,1,125,10|8,0:0|0:0,0:0:0:0:
312,168,34677,5,0,0:0:0:0:
312,136,34755,1,10,0:0:0:0:
312,104,34833,1,0,0:0:0:0:
312,72,34912,2,0,P|312:40|264:40,1,62.5,0|8,0:0|0:0,0:0:0:0:
104,72,35380,6,8,L|104:208,1,125,10|8,0:0|0:0,0:0:0:0:
224,216,36005,1,10,0:0:0:0:
248,200,36083,1,0,0:0:0:0:
272,184,36162,1,0,0:0:0:0:
296,168,36240,1,0,0:0:0:0:
320,152,36318,1,8,0:0:0:0:
408,64,36630,6,8,L|261:64,1,125,10|8,0:0|0:0,0:0:0:0:
192,56,37177,1,0,0:0:0:0:
160,56,37255,1,10,0:0:0:0:
160,152,37490,1,0,0:0:0:0:
160,184,37568,1,8,0:0:0:0:
264,256,37880,5,10,0:0:0:0:
368,192,38193,1,8,0:0:0:0:
304,88,38505,1,10,0:0:0:0:
192,144,38818,1,8,0:0:0:0:
192,272,39130,2,0,L|120:272,2,62.5,10|8|8,0:0|0:0|0:0,0:0:0:0:
192,144,39755,1,10,0:0:0:0:
216,128,39833,1,0,0:0:0:0:
240,112,39912,1,0,0:0:0:0:
264,96,39990,1,0,0:0:0:0:
296,80,40068,6,8,P|376:80|384:136,1,125,8|10,0:0|0:0,0:0:0:0:
392,240,40693,1,8,0:0:0:0:
264,248,41005,5,10,0:0:0:0:
232,248,41083,1,0,0:0:0:0:
200,248,41162,1,0,0:0:0:0:
168,248,41240,1,0,0:0:0:0:
136,248,41318,1,0,0:0:0:0:
128,120,41630,2,8,B|128:48|128:48|192:48,1,125,10|8,0:0|0:0,0:0:0:0:
304,56,42255,5,10,0:0:0:0:
304,88,42333,1,0,0:0:0:0:
304,120,42412,1,0,0:0:0:0:
304,152,42490,1,0,0:0:0:0:
304,184,42568,1,0,0:0:0:0:
304,312,42880,1,10,0:0:0:0:
56,224,43193,2,8,L|152:112,2,125,8|10|8,0:0|0:0|0:0,0:0:0:0:
160,288,44130,5,10,0:0:0:0:
224,288,44287,1,0,0:0:0:0:
288,288,44443,1,0,0:0:0:0:
288,160,44755,1,10,0:0:0:0:
288,160,44833,1,0,0:0:0:0:
288,160,44912,1,0,0:0:0:0:
288,160,44990,1,0,0:0:0:0:
288,160,45068,5,0,0:0:0:0:
416,160,45380,1,2,0:0:0:0:
416,288,45693,1,0,0:0:0:0:
288,288,46005,2,0,L|224:288,2,62.5,10|0|8,0:0|0:0|0:0,0:0:0:0:
416,288,46630,1,10,0:0:0:0:
416,104,46943,5,8,0:0:0:0:
320,200,47255,1,10,0:0:0:0:
371,92,47568,5,8,0:0:0:0:
302,155,47724,1,0,0:0:0:0:
368,221,47880,1,10,0:0:0:0:
429,149,48037,1,0,0:0:0:0:
320,104,48193,5,8,0:0:0:0:
320,200,48349,1,0,0:0:0:0:
416,200,48505,1,10,0:0:0:0:
416,104,48662,1,0,0:0:0:0:
320,104,48818,5,8,0:0:0:0:
136,104,49130,1,8,0:0:0:0:
136,168,49287,1,0,0:0:0:0:
136,232,49443,1,8,0:0:0:0:
136,168,49599,1,0,0:0:0:0:
200,168,49755,5,8,0:0:0:0:
232,168,49833,1,0,0:0:0:0:
264,168,49912,1,0,0:0:0:0:
296,168,49990,1,0,0:0:0:0:
328,168,50068,1,8,0:0:0:0:
256,48,50380,5,10,0:0:0:0:
72,48,50693,1,8,0:0:0:0:
256,48,51005,2,0,L|256:120,1,62.5,10|0,0:0|0:0,0:0:0:0:
256,110,51240,1,0,0:0:0:0:
256,110,51318,1,0,0:0:0:0:
264,232,51630,6,8,L|416:232,1,125,10|8,0:0|0:0,0:0:0:0:
400,104,52255,1,10,0:0:0:0:
400,104,52412,1,0,0:0:0:0:
400,104,52568,1,8,0:0:0:0:
280,80,52880,6,8,P|248:72|168:128,1,125,10|8,0:0|0:0,0:0:0:0:
136,256,53505,1,10,0:0:0:0:
168,272,53583,1,0,0:0:0:0:
200,280,53662,1,0,0:0:0:0:
232,272,53740,1,0,0:0:0:0:
264,256,53818,1,8,0:0:0:0:
352,168,54130,5,2,0:0:0:0:
352,296,54365,1,0,0:0:0:0:
352,296,54443,1,8,0:0:0:0:
256,312,54677,1,0,0:0:0:0:
224,296,54755,1,10,0:0:0:0:
208,264,54833,1,0,0:0:0:0:
200,232,54912,1,0,0:0:0:0:
208,200,54990,1,0,0:0:0:0:
232,176,55068,1,8,0:0:0:0:
216,40,55380,6,8,P|184:32|104:72,1,125,10|8,0:0|0:0,0:0:0:0:
96,192,56005,1,10,0:0:0:0:
120,208,56083,1,0,0:0:0:0:
144,224,56162,1,0,0:0:0:0:
168,240,56240,1,0,0:0:0:0:
192,256,56318,1,8,0:0:0:0:
320,264,56630,6,8,P|392:272|416:216,1,125,10|8,0:0|0:0,0:0:0:0:
360,120,57255,1,10,0:0:0:0:
328,112,57333,1,0,0:0:0:0:
296,104,57412,1,0,0:0:0:0:
264,96,57490,1,0,0:0:0:0:
232,88,57568,1,8,0:0:0:0:
144,176,57880,6,0,P|96:168|56:176,2,62.5,10|0|8,0:0|0:0|0:0,0:0:0:0:
272,176,58505,1,10,0:0:0:0:
400,176,58818,1,8,0:0:0:0:
400,48,59130,1,10,0:0:0:0:
304,56,59365,5,0,0:0:0:0:
304,56,59443,1,8,0:0:0:0:
216,80,59676,1,0,0:0:0:0:
216,80,59755,1,10,0:0:0:0:
216,176,59990,1,0,0:0:0:0:
216,176,60068,1,8,0:0:0:0:
168,336,60380,2,8,L|304:336,1,125,10|8,0:0|0:0,0:0:0:0:
424,344,61005,5,10,0:0:0:0:
424,344,61083,1,0,0:0:0:0:
424,344,61162,1,0,0:0:0:0:
424,344,61240,1,8,0:0:0:0:
416,184,61630,2,8,P|344:184|352:120,1,125,10|8,0:0|0:0,0:0:0:0:
208,144,62255,5,10,0:0:0:0:
176,144,62333,1,0,0:0:0:0:
144,144,62412,1,0,0:0:0:0:
112,144,62490,1,0,0:0:0:0:
80,144,62568,1,8,0:0:0:0:
72,16,62880,2,8,P|128:32|120:96,1,125,10|8,0:0|0:0,0:0:0:0:
120,216,63505,5,10,0:0:0:0:
232,160,63818,1,8,0:0:0:0:
120,216,64130,1,10,0:0:0:0:
200,312,64365,1,0,0:0:0:0:
200,312,64443,1,8,0:0:0:0:
312,256,64677,1,0,0:0:0:0:
312,256,64755,1,10,0:0:0:0:
200,312,64990,5,0,0:0:0:0:
200,312,65068,2,8,L|80:240,1,125,8|10,0:0|0:0,0:0:0:0:
112,137,65693,2,8,P|133:84|214:68,1,125,8|10,0:0|0:0,0:0:0:0:
224,56,66083,1,0,0:0:0:0:
256,56,66162,1,0,0:0:0:0:
288,72,66240,1,0,0:0:0:0:
312,88,66318,6,8,P|344:136|311:203,1,125,8|10,0:0|0:0,0:0:0:0:
360,256,66787,1,0,0:0:0:0:
310,308,66943,2,8,P|263:320|192:260,1,125,8|10,0:0|0:0,0:0:0:0:
105,73,67568,6,0,L|148:119,1,62.5,8|0,0:0|0:0,0:0:0:0:
204,92,67880,2,0,L|255:48,1,62.5,8|0,0:0|0:0,0:0:0:0:
296,94,68193,2,0,L|348:135,1,62.5,8|0,0:0|0:0,0:0:0:0:
320,190,68505,5,8,0:0:0:0:
341,213,68583,1,0,0:0:0:0:
348,243,68662,1,0,0:0:0:0:
346,274,68740,1,0,0:0:0:0:
333,301,68818,1,8,0:0:0:0:
308,319,68896,1,0,0:0:0:0:
280,331,68974,1,0,0:0:0:0:
249,331,69052,1,0,0:0:0:0:
219,323,69130,1,8,0:0:0:0:
168,288,69287,6,0,L|117:238,1,62.5,0|8,0:0|0:0,0:0:0:0:
80,200,69599,2,0,L|140:140,1,62.5,0|10,0:0|0:0,0:0:0:0:
168,112,69912,1,0,0:0:0:0:
216,72,70068,5,8,0:0:0:0:
128,160,70380,1,10,0:0:0:0:
216,72,70693,1,8,0:0:0:0:
128,160,71005,1,10,0:0:0:0:
128,192,71083,1,0,0:0:0:0:
128,224,71162,1,0,0:0:0:0:
128,288,71318,6,0,B|128:336|128:336|224:336,1,125,8|10,0:0|0:0,0:0:0:0:
296,304,71865,1,0,0:0:0:0:
296,304,71943,1,8,0:0:0:0:
360,232,72177,1,0,0:0:0:0:
360,232,72255,1,10,0:0:0:0:
360,136,72490,5,0,0:0:0:0:
360,136,72568,1,8,0:0:0:0:
232,136,72880,1,10,0:0:0:0:
232,8,73193,1,8,0:0:0:0:
360,8,73505,1,10,0:0:0:0:
360,136,73818,1,8,0:0:0:0:
232,136,74130,1,10,0:0:0:0:
168,136,74287,1,0,0:0:0:0:
56,192,74599,5,0,0:0:0:0:
48,256,74755,1,10,0:0:0:0:
88,304,74912,1,0,0:0:0:0:
144,336,75068,2,8,P|192:344|256:304,1,125,8|10,0:0|0:0,0:0:0:0:
376,328,75693,6,8,P|376:280|312:216,1,125,8|10,0:0|0:0,0:0:0:0:
336,192,76083,1,0,0:0:0:0:
352,168,76162,1,0,0:0:0:0:
368,144,76240,1,0,0:0:0:0:
384,120,76318,2,8,P|384:80|296:40,1,125,8|10,0:0|0:0,0:0:0:0:
216,120,76943,6,0,L|160:56,1,62.5,0|8,0:0|0:0,0:0:0:0:
112,64,77255,1,10,0:0:0:0:
80,120,77412,1,0,0:0:0:0:
48,176,77568,1,8,0:0:0:0:
136,264,77880,1,10,0:0:0:0:
264,264,78193,1,8,0:0:0:0:
136,264,78505,1,10,0:0:0:0:
264,264,78818,1,8,0:0:0:0:
280,136,79130,5,10,0:0:0:0:
336,160,79287,2,0,L|400:184,1,62.5,0|8,0:0|0:0,0:0:0:0:
440,136,79599,2,0,L|480:80,1,62.5,0|10,0:0|0:0,0:0:0:0:
476,85,79912,1,0,0:0:0:0:
416,40,80068,2,8,P|352:48|312:112,2,125,8|10|8,0:0|0:0|0:0,0:0:0:0:
363,153,81005,5,0,0:0:0:0:
335,167,81083,1,0,0:0:0:0:
313,190,81162,1,0,0:0:0:0:
304,219,81240,1,0,0:0:0:0:
292,247,81318,2,8,P|212:247|212:207,1,125,8|10,0:0|0:0,0:0:0:0:
208,104,81943,5,8,0:0:0:0:
304,104,82177,1,0,0:0:0:0:
304,104,82255,1,10,0:0:0:0:
400,104,82490,1,0,0:0:0:0:
400,104,82568,6,0,P|400:184|360:216,2,125,8|10|8,0:0|0:0|0:0,0:0:0:0:
272,96,83505,6,8,P|232:88|152:144,2,125,10|8|10,0:0|0:0|0:0,0:0:0:0:
360,128,84287,1,0,0:0:0:0:
360,192,84443,1,0,0:0:0:0:
360,288,84677,1,0,0:0:0:0:
360,288,84755,1,10,0:0:0:0:
280,288,84912,5,0,0:0:0:0:
280,200,85068,2,8,B|192:200|192:200|192:136,2,125,8|10|8,0:0|0:0|0:0,0:0:0:0:
104,288,86005,5,10,0:0:0:0:
128,304,86083,1,0,0:0:0:0:
160,320,86162,1,0,0:0:0:0:
192,320,86240,1,0,0:0:0:0:
224,312,86318,1,8,0:0:0:0:
256,192,86630,1,10,0:0:0:0:
384,192,86943,1,8,0:0:0:0:
320,88,87255,1,10,0:0:0:0:
320,88,87412,1,0,0:0:0:0:
208,104,87568,6,8,P|192:136|144:144,1,62.5
168,240,87880,2,8,P|200:256|208:304,1,62.5,10|8,0:0|0:0,0:0:0:0:
304,280,88193,2,8,P|320:248|368:240,1,62.5
344,144,88505,2,8,P|312:128|304:80,1,62.5,10|8,0:0|0:0,0:0:0:0:
176,80,88818,6,8,P|160:112|112:120,1,62.5
136,256,89130,2,8,P|168:272|176:320,1,62.5,10|8,0:0|0:0,0:0:0:0:
320,296,89443,2,8,P|336:264|384:256,1,62.5,8|12,0:0|0:0,0:0:0:0:
368,120,89755,2,0,P|336:104|328:56,1,62.5,2|0,0:0|0:0,0:0:0:0:
256,192,90068,12,0,91318,0:0:0:0:
80,56,91630,5,0,0:0:0:0:
152,160,91943,2,0,P|184:160|248:240,1,125
248,344,92568,5,8,0:0:0:0:
248,216,92880,1,2,0:0:0:0:
376,216,93193,1,8,0:0:0:0:
376,88,93505,5,2,0:0:0:0:
304,88,93662,1,0,0:0:0:0:
272,88,93740,1,0,0:0:0:0:
240,88,93818,1,8,0:0:0:0:
240,216,94130,5,2,0:0:0:0:
368,216,94443,1,8,0:0:0:0:
280,128,94755,5,2,0:0:0:0:
256,112,94833,1,0,0:0:0:0:
232,96,94912,1,0,0:0:0:0:
208,80,94990,1,0,0:0:0:0:
184,64,95068,1,8,0:0:0:0:
80,128,95380,6,8,P|104:160|96:248,1,125,2|8,0:0|0:0,0:0:0:0:
48,360,96005,2,8,P|88:368|168:304,1,125,2|8,0:0|0:0,0:0:0:0:
160,200,96630,5,2,0:0:0:0:
160,200,96787,1,0,0:0:0:0:
160,200,96943,1,8,0:0:0:0:
280,120,97255,5,2,0:0:0:0:
312,128,97333,1,0,0:0:0:0:
336,152,97412,1,0,0:0:0:0:
352,184,97490,1,0,0:0:0:0:
360,216,97568,1,8,0:0:0:0:
432,112,97880,5,2,0:0:0:0:
432,240,98193,2,8,B|352:240|352:240|352:184,1,125,8|2,0:0|0:0,0:0:0:0:
256,192,98662,5,0,0:0:0:0:
224,192,98740,1,0,0:0:0:0:
208,168,98818,1,8,0:0:0:0:
80,168,99130,1,2,0:0:0:0:
208,168,99443,1,8,0:0:0:0:
208,264,99677,5,0,0:0:0:0:
208,264,99755,1,2,0:0:0:0:
304,264,99989,1,0,0:0:0:0:
304,264,100068,1,8,0:0:0:0:
304,136,100380,2,8,P|344:136|384:224,1,125,2|8,0:0|0:0,0:0:0:0:
392,328,101005,2,8,P|336:328|304:272,1,125,2|8,0:0|0:0,0:0:0:0:
304,152,101630,6,0,L|216:152,2,62.5,2|0|8,0:0|0:0|0:0,0:0:0:0:
400,152,102177,1,0,0:0:0:0:
400,184,102255,1,2,0:0:0:0:
400,216,102333,1,0,0:0:0:0:
400,248,102412,1,0,0:0:0:0:
320,248,102568,5,8,0:0:0:0:
192,248,102880,1,2,0:0:0:0:
320,248,103193,1,8,0:0:0:0:
280,160,103427,6,0,L|248:184,1,31.25,0|2,0:0|0:0,0:0:0:0:
160,160,103740,2,0,L|120:192,1,31.25,0|8,0:0|0:0,0:0:0:0:
80,288,104130,2,8,P|104:336|184:320,1,125,2|8,0:0|0:0,0:0:0:0:
256,296,104677,5,0,0:0:0:0:
256,296,104755,1,2,0:0:0:0:
280,208,104990,1,0,0:0:0:0:
280,208,105068,1,8,0:0:0:0:
280,80,105380,1,2,0:0:0:0:
152,80,105693,1,8,0:0:0:0:
152,208,106005,1,2,0:0:0:0:
280,208,106318,1,8,0:0:0:0:
368,120,106630,6,0,L|312:184,2,62.5,2|0|8,0:0|0:0|0:0,0:0:0:0:
424,40,107177,1,0,0:0:0:0:
392,40,107255,1,2,0:0:0:0:
360,40,107333,1,0,0:0:0:0:
328,40,107412,1,0,0:0:0:0:
296,40,107490,1,0,0:0:0:0:
264,40,107568,6,8,B|192:40|192:40|192:240,1,250
192,344,108505,2,0,L|128:344,1,62.5,10|0,0:0|0:0,0:0:0:0:
129,344,108740,1,0,0:0:0:0:
129,344,108818,1,8,0:0:0:0:
256,192,109130,12,0,111943,0:0:0:0:
256,192,119755,12,0,121943,0:0:0:0:
256,176,122568,5,8,0:0:0:0:
144,120,122880,2,0,P|144:80|184:80,2,62.5,10|0|8,0:0|0:0|0:0,0:0:0:0:
56,208,123505,5,10,0:0:0:0:
64,240,123583,1,0,0:0:0:0:
88,264,123662,1,0,0:0:0:0:
120,280,123740,1,0,0:0:0:0:
152,272,123818,1,8,0:0:0:0:
272,304,124130,1,10,0:0:0:0:
152,272,124443,1,8,0:0:0:0:
152,144,124755,5,10,0:0:0:0:
176,120,124833,1,0,0:0:0:0:
208,104,124912,1,0,0:0:0:0:
240,104,124990,1,0,0:0:0:0:
272,112,125068,1,8,0:0:0:0:
280,240,125380,2,0,L|408:240,1,125,10|8,0:0|0:0,0:0:0:0:
400,112,126005,5,10,0:0:0:0:
336,112,126162,1,0,0:0:0:0:
272,112,126318,2,0,P|240:112|224:200,1,125,8|10,0:0|0:0,0:0:0:0:
152,256,126865,5,0,0:0:0:0:
152,256,126943,1,8,0:0:0:0:
216,320,127177,1,0,0:0:0:0:
216,320,127255,1,10,0:0:0:0:
288,320,127412,6,0,P|344:312|352:288,1,62.5,0|8,0:0|0:0,0:0:0:0:
344,184,127880,1,10,0:0:0:0:
344,56,128193,1,8,0:0:0:0:
216,56,128505,5,10,0:0:0:0:
216,88,128583,1,0,0:0:0:0:
216,120,128662,1,0,0:0:0:0:
216,152,128740,1,0,0:0:0:0:
216,184,128818,1,8,0:0:0:0:
216,312,129130,2,0,P|248:328|288:304,2,62.5,10|0|8,0:0|0:0|0:0,0:0:0:0:
120,280,129755,5,10,0:0:0:0:
120,248,129833,1,0,0:0:0:0:
120,216,129912,1,0,0:0:0:0:
120,184,129990,1,0,0:0:0:0:
120,152,130068,1,8,0:0:0:0:
248,216,130380,2,0,P|280:160|232:112,1,125,10|8,0:0|0:0,0:0:0:0:
376,128,131005,2,0,P|408:80|352:24,1,125,10|8,0:0|0:0,0:0:0:0:
248,32,131630,1,10,0:0:0:0:
152,40,131865,5,0,0:0:0:0:
152,40,131943,1,8,0:0:0:0:
152,136,132177,1,0,0:0:0:0:
152,136,132255,1,10,0:0:0:0:
248,136,132490,5,0,0:0:0:0:
248,136,132568,1,8,0:0:0:0:
248,264,132880,2,0,P|240:296|152:280,1,125,10|8,0:0|0:0,0:0:0:0:
48,248,133505,5,10,0:0:0:0:
80,232,133583,1,0,0:0:0:0:
112,216,133662,1,0,0:0:0:0:
144,200,133740,1,0,0:0:0:0:
176,184,133818,1,8,0:0:0:0:
88,104,134130,2,0,B|88:40|88:40|160:40,1,125,10|8,0:0|0:0,0:0:0:0:
272,40,134755,5,10,0:0:0:0:
272,72,134833,1,0,0:0:0:0:
272,104,134912,1,0,0:0:0:0:
272,136,134990,1,0,0:0:0:0:
272,168,135068,1,8,0:0:0:0:
272,296,135380,2,10,B|312:304|312:304|400:256,1,125,10|8,0:0|0:0,0:0:0:0:
384,136,136005,5,10,0:0:0:0:
392,216,136162,1,0,0:0:0:0:
392,216,136240,1,0,0:0:0:0:
392,216,136318,1,8,0:0:0:0:
392,344,136630,1,10,0:0:0:0:
304,320,136865,6,0,L|272:344,1,31.25,0|8,0:0|0:0,0:0:0:0:
192,296,137177,1,0,0:0:0:0:
168,280,137255,1,0,0:0:0:0:
144,264,137333,1,0,0:0:0:0:
120,248,137412,1,0,0:0:0:0:
96,232,137490,1,0,0:0:0:0:
72,208,137568,2,0,P|64:160|120:112,1,125,8|10,0:0|0:0,0:0:0:0:
208,24,138193,1,8,0:0:0:0:
248,136,138505,5,10,0:0:0:0:
272,160,138583,1,0,0:0:0:0:
280,192,138662,1,0,0:0:0:0:
280,224,138740,1,0,0:0:0:0:
272,256,138818,1,8,0:0:0:0:
144,256,139130,1,10,0:0:0:0:
16,256,139443,1,8,0:0:0:0:
32,160,139677,5,0,0:0:0:0:
56,144,139755,1,10,0:0:0:0:
80,128,139833,1,0,0:0:0:0:
104,112,139912,1,0,0:0:0:0:
128,96,139990,1,0,0:0:0:0:
160,88,140068,6,0,L|203:134,1,62.5,8|0,0:0|0:0,0:0:0:0:
248,176,140380,2,0,L|299:132,1,62.5,8|0,0:0|0:0,0:0:0:0:
344,176,140693,2,0,L|396:217,1,62.5,8|0,0:0|0:0,0:0:0:0:
416,272,141005,5,8,0:0:0:0:
392,296,141083,1,0,0:0:0:0:
368,312,141162,1,0,0:0:0:0:
336,320,141240,1,0,0:0:0:0:
304,320,141318,1,8,0:0:0:0:
272,304,141396,1,0,0:0:0:0:
256,280,141474,1,0,0:0:0:0:
232,256,141552,1,0,0:0:0:0:
208,240,141630,1,8,0:0:0:0:
168,192,141787,6,0,L|117:142,1,62.5,0|8,0:0|0:0,0:0:0:0:
176,112,142099,2,0,L|236:52,1,62.5,0|10,0:0|0:0,0:0:0:0:
220,67,142412,1,0,0:0:0:0:
272,120,142568,6,0,P|312:144|376:88,1,125,8|10,0:0|0:0,0:0:0:0:
368,232,143193,1,8,0:0:0:0:
256,288,143505,1,10,0:0:0:0:
224,280,143583,1,0,0:0:0:0:
200,264,143662,1,0,0:0:0:0:
184,240,143740,1,0,0:0:0:0:
168,208,143818,2,0,B|192:168|192:168|272:168,1,125,8|10,0:0|0:0,0:0:0:0:
352,216,144365,5,0,0:0:0:0:
352,216,144443,1,8,0:0:0:0:
280,152,144677,1,0,0:0:0:0:
280,152,144755,1,10,0:0:0:0:
384,96,144912,1,0,0:0:0:0:
384,96,144990,1,0,0:0:0:0:
384,96,145068,6,0,P|384:144|448:184,1,125
320,192,145693,2,0,P|352:232|432:256,1,125
304,296,146318,2,0,P|336:336|416:360,1,125
312,56,146865,6,0,L|264:56,1,31.25,0|8,0:0|0:0,0:0:0:0:
184,56,147177,1,0,0:0:0:0:
184,56,147255,1,10,0:0:0:0:
144,152,147490,5,0,0:0:0:0:
144,152,147568,1,8,0:0:0:0:
16,152,147880,2,0,P|16:200|80:232,1,125,10|8,0:0|0:0,0:0:0:0:
168,328,148505,5,8,0:0:0:0:
200,344,148583,1,0,0:0:0:0:
232,336,148662,1,0,0:0:0:0:
288,288,148818,2,0,L|424:288,1,125,0|10,0:0|0:0,0:0:0:0:
416,160,149443,5,8,0:0:0:0:
352,232,149677,1,0,0:0:0:0:
352,232,149756,1,10,0:0:0:0:
288,160,149990,5,0,0:0:0:0:
288,160,150068,2,0,P|240:208|272:272,1,125
168,168,150693,2,0,P|192:240|256:256,1,125
112,248,151318,2,0,P|168:288|224:256,1,125
312,264,151865,5,0,0:0:0:0:
312,264,151943,1,8,0:0:0:0:
384,208,152177,1,0,0:0:0:0:
384,208,152255,1,10,0:0:0:0:
384,112,152490,6,0,L|384:72,1,31.25,0|8,0:0|0:0,0:0:0:0:
256,72,152880,2,0,P|256:112|168:168,1,125,10|8,0:0|0:0,0:0:0:0:
72,168,153505,1,10,0:0:0:0:
72,264,153740,5,0,0:0:0:0:
72,264,153818,1,8,0:0:0:0:
72,136,154130,2,0,L|208:136,1,125,10|8,0:0|0:0,0:0:0:0:
288,144,154677,5,0,0:0:0:0:
288,144,154755,1,10,0:0:0:0:
288,240,154990,1,0,0:0:0:0:
288,240,155068,1,8,0:0:0:0:
192,128,155380,5,10,0:0:0:0:
304,216,155693,1,8,0:0:0:0:
192,128,156005,1,10,0:0:0:0:
304,216,156318,1,8,0:0:0:0:
192,128,156630,1,10,0:0:0:0:
96,128,156865,6,0,L|96:184,1,31.25,0|8,0:0|0:0,0:0:0:0:
96,224,157177,1,0,0:0:0:0:
96,224,157255,1,10,0:0:0:0:
96,320,157490,1,0,0:0:0:0:
96,320,157568,1,8,0:0:0:0:
224,320,157880,5,10,0:0:0:0:
224,192,158193,1,8,0:0:0:0:
152,224,158505,1,10,0:0:0:0:
136,200,158583,1,0,0:0:0:0:
120,176,158662,1,0,0:0:0:0:
104,152,158740,1,0,0:0:0:0:
88,128,158818,1,8,0:0:0:0:
208,88,159130,6,0,L|336:88,1,125,10|8,0:0|0:0,0:0:0:0:
368,176,159677,2,0,L|320:192,1,31.25,0|10,0:0|0:0,0:0:0:0:
208,104,160068,6,8,P|192:136|144:144,1,62.5
168,240,160380,2,8,P|200:256|208:304,1,62.5,10|8,0:0|0:0,0:0:0:0:
304,280,160693,2,8,P|320:248|368:240,1,62.5
344,144,161005,2,8,P|312:128|304:80,1,62.5,10|8,0:0|0:0,0:0:0:0:
176,80,161318,6,8,P|160:112|112:120,1,62.5
136,256,161630,2,8,P|168:272|176:320,1,62.5,10|8,0:0|0:0,0:0:0:0:
320,296,161943,2,8,P|336:264|384:256,1,62.5,8|12,0:0|0:0,0:0:0:0:
368,120,162255,2,0,P|336:104|328:56,1,62.5,2|0,0:0|0:0,0:0:0:0:
256,192,162568,12,0,164755,0:0:0:0:
56,216,175068,6,0,P|57:256|236:314,1,250
336,272,176005,1,0,0:0:0:0:
440,200,176318,6,0,P|480:144|368:24,1,250
360,144,177255,1,0,0:0:0:0:
264,224,177568,6,0,P|210:206|159:30,1,250
32,56,178505,1,0,0:0:0:0:
56,72,178583,1,0,0:0:0:0:
80,88,178662,1,0,0:0:0:0:
104,104,178740,1,0,0:0:0:0:
128,120,178818,1,0,0:0:0:0:
208,168,179052,5,0,0:0:0:0:
208,168,179130,2,0,P|234:209|184:284,2,125
288,120,179990,5,0,0:0:0:0:
288,120,180068,2,0,P|196:103|94:233,1,250
96,336,181005,1,0,0:0:0:0:
192,336,181240,5,0,0:0:0:0:
192,336,181318,2,0,P|184:252|336:185,1,250
320,48,182255,1,0,0:0:0:0:
416,48,182490,5,0,0:0:0:0:
416,48,182568,2,0,P|420:128|396:186,1,125
405,169,182959,1,0,0:0:0:0:
405,169,183037,1,0,0:0:0:0:
405,169,183115,1,0,0:0:0:0:
405,169,183193,1,0,0:0:0:0:
357,284,183505,6,0,P|301:309|279:301,2,62.5
161,195,184130,1,0,0:0:0:0:
140,318,184443,1,0,0:0:0:0:
264,314,184755,1,0,0:0:0:0:
389,308,185068,1,0,0:0:0:0:
390,183,185380,1,0,0:0:0:0:
383,57,185693,1,0,0:0:0:0:
260,79,186005,1,0,0:0:0:0:
134,79,186240,1,0,0:0:0:0:
134,79,186318,1,0,0:0:0:0:
137,203,186630,1,0,0:0:0:0:
122,327,186943,1,0,0:0:0:0:
244,351,187255,1,0,0:0:0:0:
367,333,187490,1,0,0:0:0:0:
367,333,187568,1,0,0:0:0:0:
368,208,187880,1,0,0:0:0:0:
368,82,188193,1,0,0:0:0:0:
259,66,188505,2,0,P|188:53|130:98,1,125
114,212,189130,1,0,0:0:0:0:
112,344,189365,1,0,0:0:0:0:
112,337,189443,1,0,0:0:0:0:
296,312,189677,1,0,0:0:0:0:
296,312,189755,1,0,0:0:0:0:
344,304,189833,1,0,0:0:0:0:
376,304,189912,1,0,0:0:0:0:
400,288,189990,1,0,0:0:0:0:
424,224,190068,2,0,P|408:184|336:128,2,125
304,256,191005,1,0,0:0:0:0:
272,248,191083,1,0,0:0:0:0:
240,240,191162,1,0,0:0:0:0:
208,232,191240,1,0,0:0:0:0:
176,216,191318,1,0,0:0:0:0:
96,120,191630,1,0,0:0:0:0:
176,72,191943,1,0,0:0:0:0:
296,88,192177,1,0,0:0:0:0:
296,88,192255,1,0,0:0:0:0:
352,168,192490,1,0,0:0:0:0:
352,168,192568,2,0,P|362:231|302:268,2,125
247,99,193505,2,0,P|196:98|147:167,2,125
