osu file format v14

[General]
AudioFilename: audio.mp3
AudioLeadIn: 0
PreviewTime: 87699
Countdown: 0
SampleSet: Soft
StackLeniency: 0.7
Mode: 0
LetterboxInBreaks: 0
WidescreenStoryboard: 1

[Editor]
DistanceSpacing: 1
BeatDivisor: 8
GridSize: 4
TimelineZoom: 2.299999

[Metadata]
Title:Tired ft. Gavin James
TitleUnicode:Tired ft. Gavin James
Artist:Alan Walker
ArtistUnicode:Alan Walker
Creator:SuTHee35233
Version:Tired
Source:
Tags:Alan Walker AlanWalker Gavin James GavinJames Tired
BeatmapID:1824591
BeatmapSetID:857132

[Difficulty]
HPDrainRate:6.5
CircleSize:4.2
OverallDifficulty:7.5
ApproachRate:8.7
SliderMultiplier:1.9
SliderTickRate:2

[Events]
//Background and Video events
0,0,"Alan-Walker-5.jpg",0,0
Video,0,"bg tired~2.flv"
//Break Periods
//Storyboard Layer 0 (Background)
//Storyboard Layer 1 (Fail)
//Storyboard Layer 2 (Pass)
//Storyboard Layer 3 (Foreground)
//Storyboard Sound Samples

[TimingPoints]
11006,483.870967741935,4,2,0,15,1,0
11007,-200,4,2,0,30,0,0
28425,-111.111111111111,4,2,0,50,0,0
43909,-100,4,2,0,70,0,0
59393,-133.333333333333,4,2,0,30,0,0
74876,-100,4,2,0,70,0,0
82376,-83.3333333333333,4,2,0,70,0,0
87699,-83.3333333333333,4,2,0,70,0,0
88425,-133.333333333333,4,2,0,30,0,0
89876,-333.333333333333,4,2,0,30,0,0
90360,-66.6666666666667,4,2,0,90,0,1
105844,-111.111111111111,4,2,0,70,0,0
121328,-111.111111111111,4,2,0,80,0,0
136812,-133.333333333333,4,2,0,30,0,0
152296,-100,4,2,0,70,0,0
159796,-83.3333333333333,4,2,0,70,0,0
167780,-66.6666666666667,4,2,0,90,0,1
181328,-66.6666666666667,4,2,0,90,0,0
183264,-58.8235294117647,4,2,0,70,0,1
196328,-200,4,2,0,50,0,0

[Colours]
Combo1 : 0,255,255
Combo2 : 38,123,164
Combo3 : 18,124,255
Combo4 : 255,104,32
Combo5 : 236,133,19
Combo6 : 233,200,84

[HitObjects]
131,58,11005,5,2,0:0:0:0:
165,245,11489,1,0,0:0:0:0:
51,103,11973,2,0,B|85:69|85:69|140:54,1,95
172,135,12699,1,0,0:0:0:0:
83,165,12941,2,0,P|53:113|48:88,2,71.25
153,239,13909,2,0,P|216:252|260:236,1,95
410,210,14876,6,0,L|444:112,1,95,2|0,0:0|0:0,0:0:0:0:
271,37,15844,2,0,L|303:147,1,95
391,116,16570,1,0,0:0:0:0:
340,39,16812,2,0,P|271:36|255:44,2,71.25
391,116,17780,2,0,B|403:159|369:163|384:208,1,95
435,354,18747,6,0,B|370:340|370:340|322:343,1,95,2|0,0:0|0:0,0:0:0:0:
180,245,19715,2,0,B|153:256|153:256|88:265,1,95
121,172,20441,1,0,0:0:0:0:
197,313,20683,2,0,B|170:323|170:323|113:330,2,71.25
283,266,21651,2,0,B|361:212,1,95
381,36,22618,6,0,P|335:45|289:76,1,95,2|0,0:0|0:0,0:0:0:0:
208,104,23344,2,0,P|254:95|300:64,1,95
146,85,24070,2,0,P|144:124|152:144,1,47.5
154,292,24554,1,2,0:0:0:0:
188,181,24796,1,0,0:0:0:0:
109,264,25038,1,0,0:0:0:0:
81,121,25280,1,0,0:0:0:0:
136,225,25522,2,0,P|155:280|152:296,2,71.25
153,224,28425,6,0,P|194:244|241:251,1,85.4999973907472,2|0,0:0|0:0,0:0:0:0:
330,209,28909,1,0,0:0:0:0:
117,230,29151,2,0,P|154:257|199:272,1,85.4999973907472,2|0,0:0|0:0,0:0:0:0:
327,228,29635,1,0,0:0:0:0:
231,94,29876,2,0,P|207:136|203:175,1,85.4999973907472,2|0,0:0|0:0,0:0:0:0:
278,264,30360,5,2,0:0:0:0:
415,273,30602,1,0,0:0:0:0:
476,162,30844,1,0,0:0:0:0:
443,310,31086,2,0,P|394:289|352:245,1,85.4999973907472,2|0,0:0|0:0,0:0:0:0:
299,164,31570,1,0,0:0:0:0:
434,241,31812,1,2,0:0:0:0:
242,284,32054,1,0,0:0:0:0:
347,90,32296,6,0,P|284:72|266:76,1,85.4999973907472,2|0,0:0|0:0,0:0:0:0:
176,137,32780,1,0,0:0:0:0:
282,233,33022,2,0,L|296:143,1,85.4999973907472,2|0,0:0|0:0,0:0:0:0:
430,45,33505,2,0,L|416:129,1,85.4999973907472,0|2,0:0|0:0,0:0:0:0:
403,250,33989,1,0,0:0:0:0:
470,152,34231,6,0,P|459:115|421:82,1,85.4999973907472,2|0,0:0|0:0,0:0:0:0:
261,88,34715,1,0,0:0:0:0:
320,181,34957,2,0,P|373:167|396:145,1,85.4999973907472,2|0,0:0|0:0,0:0:0:0:
220,56,35441,1,0,0:0:0:0:
263,187,35683,1,2,0:0:0:0:
421,102,35925,1,0,0:0:0:0:
321,23,36167,6,0,P|300:85|308:137,1,85.4999973907472,2|0,0:0|0:0,0:0:0:0:
317,204,36651,1,0,0:0:0:0:
321,23,36893,2,0,P|322:88|348:135,1,85.4999973907472,2|0,0:0|0:0,0:0:0:0:
379,196,37377,1,0,0:0:0:0:
401,313,37618,2,0,L|312:275,1,85.4999973907472,2|0,0:0|0:0,0:0:0:0:
160,332,38102,5,2,0:0:0:0:
220,231,38344,1,0,0:0:0:0:
323,280,38586,1,0,0:0:0:0:
138,252,38828,2,0,P|117:206|127:162,1,85.4999973907472,2|0,0:0|0:0,0:0:0:0:
219,37,39312,1,0,0:0:0:0:
237,157,39554,1,2,0:0:0:0:
129,89,39796,1,0,0:0:0:0:
307,90,40038,6,0,P|355:88|396:94,1,85.4999973907472,2|0,0:0|0:0,0:0:0:0:
486,146,40522,1,0,0:0:0:0:
298,288,40764,2,0,P|282:244|298:201,1,85.4999973907472,2|0,0:0|0:0,0:0:0:0:
400,101,41247,2,0,P|416:145|400:188,1,85.4999973907472,0|2,0:0|0:0,0:0:0:0:
293,209,41731,1,0,0:0:0:0:
201,138,41973,6,0,L|99:129,1,85.4999973907472,2|0,0:0|0:0,0:0:0:0:
45,48,42457,1,0,0:0:0:0:
211,129,42699,2,0,L|112:102,1,85.4999973907472,2|0,0:0|0:0,0:0:0:0:
73,13,43183,1,0,0:0:0:0:
235,51,43425,2,0,P|229:103|195:141,1,85.4999973907472,2|0,0:0|0:0,0:0:0:0:
107,171,43909,6,0,L|90:284,1,95,2|0,0:0|0:0,0:0:0:0:
98,339,44272,1,0,0:0:0:0:
98,339,44393,1,0,0:0:0:0:
227,351,44635,1,2,0:0:0:0:
354,305,44876,2,0,L|371:192,1,95
394,141,45239,1,0,0:0:0:0:
394,141,45360,1,2,0:0:0:0:
498,76,45602,1,0,0:0:0:0:
441,205,45844,6,0,P|385:214|323:196,1,95,2|0,0:0|0:0,0:0:0:0:
277,175,46207,1,0,0:0:0:0:
277,175,46328,1,0,0:0:0:0:
120,117,46570,2,0,P|176:108|238:126,1,95,2|0,0:0|0:0,0:0:0:0:
249,243,47054,1,0,0:0:0:0:
292,249,47175,1,0,0:0:0:0:
329,225,47296,1,2,0:0:0:0:
368,203,47417,1,0,0:0:0:0:
411,186,47538,1,2,0:0:0:0:
455,188,47659,1,0,0:0:0:0:
494,190,47780,6,0,P|494:115|478:62,1,95,2|0,0:0|0:0,0:0:0:0:
459,36,48143,1,0,0:0:0:0:
459,36,48264,1,0,0:0:0:0:
339,36,48505,1,2,0:0:0:0:
256,193,48747,2,0,P|256:268|272:321,1,95
282,328,49110,1,0,0:0:0:0:
308,356,49231,1,2,0:0:0:0:
424,306,49473,1,0,0:0:0:0:
349,184,49715,6,0,P|290:183|236:201,1,95,2|0,0:0|0:0,0:0:0:0:
192,228,50078,1,0,0:0:0:0:
192,228,50199,2,0,L|173:97,1,95,0|2,0:0|0:0,0:0:0:0:
165,18,50683,2,0,B|215:8|215:8|289:13,1,95
259,11,51046,1,0,0:0:0:0:
326,29,51167,1,2,0:0:0:0:
334,87,51288,1,0,0:0:0:0:
322,139,51409,1,2,0:0:0:0:
295,183,51530,1,0,0:0:0:0:
272,221,51651,6,0,B|325:230|325:230|398:217,1,95,2|0,0:0|0:0,0:0:0:0:
431,190,52014,1,0,0:0:0:0:
431,190,52135,1,0,0:0:0:0:
425,70,52376,1,0,0:0:0:0:
255,38,52618,2,0,B|202:29|202:29|129:42,1,95
96,69,52981,1,0,0:0:0:0:
96,69,53102,2,0,P|75:135|91:194,1,95
119,311,53586,6,0,L|223:323,1,95,2|0,0:0|0:0,0:0:0:0:
276,300,53949,1,0,0:0:0:0:
276,300,54070,1,0,0:0:0:0:
253,167,54312,1,0,0:0:0:0:
293,39,54554,2,0,L|403:34,1,95
433,59,54917,1,0,0:0:0:0:
470,85,55038,2,0,P|488:160|483:190,1,95
460,319,55522,6,0,L|346:336,1,95,2|0,0:0|0:0,0:0:0:0:
332,324,55885,1,0,0:0:0:0:
303,311,56005,2,0,P|283:254|293:212,1,95
328,97,56489,6,0,B|265:100|265:100|204:85,1,95,2|0,0:0|0:0,0:0:0:0:
200,81,56852,1,0,0:0:0:0:
166,70,56973,2,0,P|170:122|159:177,1,95
61,307,57457,6,0,L|51:188,1,95,2|0,0:0|0:0,0:0:0:0:
64,172,57820,1,0,0:0:0:0:
85,134,57941,2,0,P|148:136|198:106,1,95
327,63,58425,6,0,P|371:47|418:52,1,95,2|0,0:0|0:0,0:0:0:0:
448,78,58788,1,0,0:0:0:0:
471,105,58909,2,0,L|466:212,1,95
454,326,59393,6,0,P|403:325|371:313,1,71.2500027179719,6|0,0:0|0:0,0:0:0:0:
252,276,59876,2,0,P|314:279|338:289,1,71.2500027179719,0|2,0:0|0:0,0:0:0:0:
187,306,60360,2,0,P|116:314|41:290,1,142.500005435944,0|2,0:0|0:0,0:0:0:0:
57,122,61086,1,0,0:0:0:0:
146,90,61328,2,0,B|214:71|258:77,2,106.875004076958,2|0|2,0:0|0:0|0:0,0:0:0:0:
57,122,62296,2,0,B|136:131|136:131|214:123,1,142.500005435944,0|2,0:0|0:0,0:0:0:0:
113,86,63022,1,0,0:0:0:0:
122,131,63142,1,0,0:0:0:0:
130,167,63264,6,0,P|169:172|226:163,1,71.2500027179719,2|0,0:0|0:0,0:0:0:0:
300,205,63747,2,0,P|337:196|388:168,1,71.2500027179719,0|2,0:0|0:0,0:0:0:0:
467,195,64231,2,0,B|467:110|467:110|450:54,1,142.500005435944,0|2,0:0|0:0,0:0:0:0:
331,101,64957,1,0,0:0:0:0:
367,184,65199,2,0,B|375:251|375:251|379:282|357:307,2,106.875004076958,2|0|2,0:0|0:0|0:0,0:0:0:0:
364,82,66167,2,0,B|288:95|288:95|206:88,1,142.500005435944,0|2,0:0|0:0,0:0:0:0:
118,73,66893,1,0,0:0:0:0:
223,188,67135,6,0,L|230:272,1,71.2500027179719,2|0,0:0|0:0,0:0:0:0:
313,212,67618,2,0,L|348:288,1,71.2500027179719,0|2,0:0|0:0,0:0:0:0:
442,315,68102,2,0,B|417:245|442:167,1,142.500005435944,0|2,0:0|0:0,0:0:0:0:
482,47,68828,1,0,0:0:0:0:
456,66,68949,1,0,0:0:0:0:
431,83,69070,2,0,B|368:100|368:100|321:91,2,106.875004076958,2|0|2,0:0|0:0|0:0,0:0:0:0:
506,29,70038,2,0,B|495:114|495:114|494:187,1,142.500005435944,0|2,0:0|0:0,0:0:0:0:
505,278,70764,1,0,0:0:0:0:
505,278,70885,1,0,0:0:0:0:
505,278,71005,6,0,B|434:288|434:288|355:262,1,142.500005435944,2|0,0:0|0:0,0:0:0:0:
296,168,71731,2,0,B|367:158|367:158|446:184,1,142.500005435944,2|0,0:0|0:0,0:0:0:0:
290,265,72457,2,0,L|205:275,1,71.2500027179719,2|0,0:0|0:0,0:0:0:0:
128,126,72941,1,0,0:0:0:0:
184,199,73183,1,0,0:0:0:0:
319,129,73425,1,0,0:0:0:0:
198,104,73667,1,0,0:0:0:0:
333,216,73909,1,0,0:0:0:0:
479,140,74151,1,0,0:0:0:0:
336,40,74393,2,0,L|328:123,1,71.2500027179719
278,175,74876,5,2,0:0:0:0:
336,40,75118,1,0,0:0:0:0:
367,178,75360,2,0,P|401:220|409:272,1,95
245,231,75844,1,2,0:0:0:0:
280,114,76086,1,0,0:0:0:0:
305,116,76207,1,0,0:0:0:0:
329,119,76328,2,0,P|396:131|431:163,1,95
217,152,76812,6,2,P|210:81|253:22,2,142.5,2|0|0,0:0|0:0|0:0,0:0:0:0:
291,253,77780,2,0,P|363:281|394:282,1,95,2|0,0:0|0:0,0:0:0:0:
427,259,78143,1,0,0:0:0:0:
433,217,78264,2,0,L|443:120,1,95,2|0,0:0|0:0,0:0:0:0:
450,71,78626,1,0,0:0:0:0:
423,76,78747,6,0,P|374:85|322:73,1,95,2|0,0:0|0:0,0:0:0:0:
207,90,79231,2,0,B|216:130|216:130|247:173,1,95,2|0,0:0|0:0,0:0:0:0:
362,132,79715,2,0,B|393:175|393:175|406:232,1,95,2|0,0:0|0:0,0:0:0:0:
312,328,80199,1,0,0:0:0:0:
378,287,80441,1,0,0:0:0:0:
228,333,80683,2,0,P|154:313|112:253,2,142.5,2|0|0,0:0|0:0|0:0,0:0:0:0:
378,287,81651,2,0,L|390:174,1,95,2|0,0:0|0:0,0:0:0:0:
401,86,82135,1,0,0:0:0:0:
264,114,82376,2,0,L|256:47,2,37.9999988403321
277,189,82618,6,2,P|197:216|158:208,1,113.999996520996,2|0,0:0|0:0,0:0:0:0:
99,163,82981,2,0,P|179:136|218:144,1,113.999996520996,2|0,0:0|0:0,0:0:0:0:
280,192,83344,2,0,L|266:312,1,113.999996520996,2|0,0:0|0:0,0:0:0:0:
346,335,83707,2,0,L|359:221,1,113.999996520996,2|0,0:0|0:0,0:0:0:0:
339,140,84070,1,2,0:0:0:0:
463,113,84312,2,0,L|467:46,2,37.9999988403321
460,190,84554,6,0,P|411:203|350:191,1,113.999996520996,2|0,0:0|0:0,0:0:0:0:
228,140,84917,2,0,P|277:127|338:139,1,113.999996520996,2|0,0:0|0:0,0:0:0:0:
284,196,85280,1,2,0:0:0:0:
140,319,85522,1,0,0:0:0:0:
146,257,85643,1,0,0:0:0:0:
101,216,85764,1,2,0:0:0:0:
106,159,85885,1,0,0:0:0:0:
158,122,86005,1,2,0:0:0:0:
168,66,86126,1,0,0:0:0:0:
233,66,86247,2,0,L|279:69,2,37.9999988403321
168,66,86489,6,0,B|173:109|173:109|191:115|175:124|175:124|180:170,1,113.999996520996,2|0,0:0|0:0,0:0:0:0:
192,274,86852,2,0,B|187:231|187:231|169:225|185:216|185:216|180:170,1,113.999996520996,2|0,0:0|0:0,0:0:0:0:
245,106,87215,1,2,0:0:0:0:
389,31,87457,5,2,0:0:0:0:
437,74,87578,1,0,0:0:0:0:
472,119,87699,5,2,0:0:0:0:
435,167,87820,1,0,0:0:0:0:
380,199,87941,5,2,0:0:0:0:
428,240,88062,1,0,0:0:0:0:
474,276,88183,5,2,0:0:0:0:
430,320,88304,1,0,0:0:0:0:
351,310,88425,6,0,P|339:259|343:228,1,71.2500027179719,2|0,0:0|0:0,0:0:0:0:
304,335,88909,2,0,P|311:283|325:255,1,71.2500027179719,2|0,0:0|0:0,0:0:0:0:
252,343,89393,2,0,P|276:296|299:275,1,71.2500027179719,2|0,0:0|0:0,0:0:0:0:
359,196,89876,2,0,L|409:194,1,42.7499986953736
401,194,90360,6,0,L|416:153,1,35.625001358986,6|0,0:0|0:0,0:0:0:0:
390,144,90481,2,0,L|404:102,1,35.625001358986
374,93,90602,2,0,L|388:51,1,35.625001358986
348,49,90723,2,0,L|362:7,1,35.625001358986
359,15,90844,2,4,B|291:20|291:42|219:47,1,142.500005435944,0|4,0:0|0:0,0:0:0:0:
175,54,91207,1,0,0:0:0:0:
132,59,91328,2,0,P|121:149|147:200,1,142.500005435944,2|0,0:0|0:0,0:0:0:0:
257,332,91812,1,4,0:0:0:0:
257,332,92054,1,0,0:0:0:0:
342,339,92175,1,0,0:0:0:0:
417,312,92296,2,0,P|448:230|447:159,1,142.500005435944,2|0,0:0|0:0,0:0:0:0:
234,189,92780,6,0,P|301:219|379:227,1,142.500005435944
343,156,93143,1,0,0:0:0:0:
343,156,93264,2,0,B|301:209|301:209|227:263,1,142.500005435944,2|0,0:0|0:0,0:0:0:0:
67,268,93747,2,0,P|38:185|58:117,1,142.500005435944
76,70,94110,1,0,0:0:0:0:
142,74,94231,6,0,L|196:88,1,35.625001358986,6|0,0:0|0:0,0:0:0:0:
195,118,94352,2,0,L|235:128,1,35.625001358986
247,95,94473,2,0,L|292:105,1,35.625001358986
291,141,94594,2,0,L|341:152,1,35.625001358986,2|0,0:0|0:0,0:0:0:0:
353,126,94715,2,0,B|424:106|424:106|496:116,1,142.500005435944,0|4,0:0|0:0,0:0:0:0:
494,173,95078,1,0,0:0:0:0:
493,231,95199,2,0,P|455:289|386:314,1,142.500005435944,2|0,0:0|0:0,0:0:0:0:
280,235,95683,1,4,0:0:0:0:
280,235,95925,5,0,0:0:0:0:
345,173,96046,1,0,0:0:0:0:
295,106,96167,2,0,B|223:103|223:103|150:119,1,142.500005435944,2|0,0:0|0:0,0:0:0:0:
47,283,96651,2,0,B|118:279|118:279|190:257,1,142.500005435944
258,220,97014,1,0,0:0:0:0:
258,220,97135,2,0,P|277:134|252:63,1,142.500005435944,2|0,0:0|0:0,0:0:0:0:
105,47,97618,1,2,0:0:0:0:
110,117,97739,1,0,0:0:0:0:
115,185,97860,1,2,0:0:0:0:
121,253,97981,1,0,0:0:0:0:
194,277,98102,6,0,L|253:302,1,35.625001358986,6|0,0:0|0:0,0:0:0:0:
228,266,98223,2,0,L|291:269,1,35.625001358986
264,242,98344,2,0,L|325:223,1,35.625001358986
282,211,98465,2,0,L|333:172,1,35.625001358986
277,167,98586,2,0,B|286:79|286:79|317:14,1,142.500005435944,0|4,0:0|0:0,0:0:0:0:
453,133,99070,2,0,L|466:293,1,142.500005435944,2|0,0:0|0:0,0:0:0:0:
323,349,99554,1,4,0:0:0:0:
323,349,99796,1,0,0:0:0:0:
253,285,99917,1,0,0:0:0:0:
160,308,100038,2,0,P|115:253|98:177,1,142.500005435944,2|0,0:0|0:0,0:0:0:0:
105,32,100522,6,0,P|150:87|167:163,1,142.500005435944
178,230,100885,1,0,0:0:0:0:
178,230,101005,2,0,L|331:218,1,142.500005435944,2|0,0:0|0:0,0:0:0:0:
467,348,101489,2,0,L|323:326,1,142.500005435944
250,198,101973,6,0,L|291:199,1,35.625001358986,6|0,0:0|0:0,0:0:0:0:
285,155,102094,2,0,L|345:160,1,35.625001358986
329,111,102215,2,0,L|368:126,1,35.625001358986
377,62,102336,2,0,L|417:96,1,35.625001358986
454,39,102457,2,0,P|470:129|452:209,1,142.500005435944,0|4,0:0|0:0,0:0:0:0:
384,352,102941,1,2,0:0:0:0:
336,158,103183,5,0,0:0:0:0:
171,243,103425,1,4,0:0:0:0:
228,90,103667,1,0,0:0:0:0:
357,256,103909,5,4,0:0:0:0:
171,115,104151,1,2,0:0:0:0:
286,328,104393,5,0,0:0:0:0:
311,68,104635,1,0,0:0:0:0:
109,203,104876,5,4,0:0:0:0:
413,246,105118,1,2,0:0:0:0:
255,9,105360,5,6,0:0:0:0:
255,9,105844,6,0,P|243:50|254:92,1,85.4999973907472,2|0,0:0|0:0,0:0:0:0:
339,158,106328,1,0,0:0:0:0:
192,20,106570,2,0,P|195:63|219:98,1,85.4999973907472,2|0,0:0|0:0,0:0:0:0:
322,131,107054,1,0,0:0:0:0:
402,51,107296,2,0,L|292:33,1,85.4999973907472,2|0,0:0|0:0,0:0:0:0:
137,117,107780,5,2,0:0:0:0:
146,298,108022,1,0,0:0:0:0:
227,211,108264,1,0,0:0:0:0:
40,168,108505,2,0,P|111:213|135:218,1,85.4999973907472,2|0,0:0|0:0,0:0:0:0:
321,162,108989,1,0,0:0:0:0:
192,105,109231,1,2,0:0:0:0:
248,289,109473,1,0,0:0:0:0:
439,314,109715,6,0,L|452:218,1,85.4999973907472,2|0,0:0|0:0,0:0:0:0:
442,131,110199,1,0,0:0:0:0:
272,225,110441,2,0,P|343:253|385:252,1,85.4999973907472,2|0,0:0|0:0,0:0:0:0:
373,92,110925,2,0,L|339:172,1,85.4999973907472,0|2,0:0|0:0,0:0:0:0:
279,312,111409,1,0,0:0:0:0:
178,253,111651,6,0,P|163:170|171:135,1,85.4999973907472,2|0,0:0|0:0,0:0:0:0:
224,77,112135,1,0,0:0:0:0:
103,204,112376,2,0,P|117:120|136:90,1,85.4999973907472,2|0,0:0|0:0,0:0:0:0:
224,77,112860,1,0,0:0:0:0:
375,27,113102,1,2,0:0:0:0:
246,17,113344,1,2,0:0:0:0:
378,88,113586,6,0,B|384:133|384:133|381:173,1,85.4999973907472,2|0,0:0|0:0,0:0:0:0:
355,273,114070,1,0,0:0:0:0:
247,107,114312,2,0,B|256:151|256:151|286:219,1,85.4999973907472,2|0,0:0|0:0,0:0:0:0:
330,271,114796,1,0,0:0:0:0:
468,330,115038,2,0,P|483:257|478:226,1,85.4999973907472,2|0,0:0|0:0,0:0:0:0:
341,103,115522,5,2,0:0:0:0:
179,56,115764,1,0,0:0:0:0:
244,230,116005,1,0,0:0:0:0:
249,127,116247,2,0,L|159:153,1,85.4999973907472,2|0,0:0|0:0,0:0:0:0:
317,300,116731,1,0,0:0:0:0:
342,101,116973,1,2,0:0:0:0:
166,150,117215,1,0,0:0:0:0:
258,194,117457,6,0,L|370:209,1,85.4999973907472,2|0,0:0|0:0,0:0:0:0:
443,186,117941,1,0,0:0:0:0:
285,116,118183,2,0,P|258:166|262:215,1,85.4999973907472,2|0,0:0|0:0,0:0:0:0:
314,283,118667,2,0,P|341:233|337:184,1,85.4999973907472,0|2,0:0|0:0,0:0:0:0:
296,43,119151,1,0,0:0:0:0:
196,77,119393,6,0,L|112:60,1,85.4999973907472,2|0,0:0|0:0,0:0:0:0:
5,98,119876,1,0,0:0:0:0:
83,184,120118,2,0,P|96:244|86:290,1,85.4999973907472,2|0,0:0|0:0,0:0:0:0:
38,363,120602,1,0,0:0:0:0:
154,260,120844,1,2,0:0:0:0:
327,278,121086,1,0,0:0:0:0:
184,340,121328,6,0,P|112:337|91:324,1,85.4999973907472,2|0,0:0|0:0,0:0:0:0:
74,303,121691,1,0,0:0:0:0:
56,274,121812,1,0,0:0:0:0:
45,140,122054,2,0,P|117:143|138:156,1,85.4999973907472,2|0,0:0|0:0,0:0:0:0:
231,198,122538,1,0,0:0:0:0:
265,215,122659,1,0,0:0:0:0:
300,229,122780,2,0,P|340:242|382:237,1,85.4999973907472,2|0,0:0|0:0,0:0:0:0:
455,157,123264,6,0,L|467:59,1,85.4999973907472,2|0,0:0|0:0,0:0:0:0:
438,43,123626,1,0,0:0:0:0:
404,23,123747,1,0,0:0:0:0:
335,219,123989,2,0,P|380:235|426:232,1,85.4999973907472,2|0,0:0|0:0,0:0:0:0:
335,111,124473,1,0,0:0:0:0:
295,98,124594,1,0,0:0:0:0:
250,101,124715,1,2,0:0:0:0:
207,122,124836,1,0,0:0:0:0:
169,150,124957,1,2,0:0:0:0:
129,118,125078,1,0,0:0:0:0:
88,80,125199,6,0,P|147:57|185:63,1,85.4999973907472,2|0,0:0|0:0,0:0:0:0:
206,65,125562,1,0,0:0:0:0:
244,74,125683,1,0,0:0:0:0:
318,247,125925,2,0,P|286:268|212:269,1,85.4999973907472,2|0,0:0|0:0,0:0:0:0:
153,334,126409,2,0,P|115:342|45:318,1,85.4999973907472,0|2,0:0|0:0,0:0:0:0:
37,245,126893,1,0,0:0:0:0:
122,157,127135,6,0,L|111:51,1,85.4999973907472,2|0,0:0|0:0,0:0:0:0:
135,41,127497,1,0,0:0:0:0:
168,29,127618,1,0,0:0:0:0:
284,58,127860,2,0,P|302:100|288:176,1,85.4999973907472,2|0,0:0|0:0,0:0:0:0:
229,204,128344,1,0,0:0:0:0:
259,236,128465,1,0,0:0:0:0:
298,254,128586,1,2,0:0:0:0:
339,259,128707,1,0,0:0:0:0:
380,256,128828,1,2,0:0:0:0:
424,247,128949,1,0,0:0:0:0:
461,225,129070,6,0,P|480:163|470:107,1,85.4999973907472,2|0,0:0|0:0,0:0:0:0:
468,101,129433,1,0,0:0:0:0:
443,66,129554,1,0,0:0:0:0:
324,18,129796,2,0,B|279:25|279:25|226:20,1,85.4999973907472,2|0,0:0|0:0,0:0:0:0:
106,14,130280,1,0,0:0:0:0:
75,41,130401,1,0,0:0:0:0:
45,74,130522,2,0,L|65:184,1,85.4999973907472,2|0,0:0|0:0,0:0:0:0:
149,225,131005,6,0,P|200:236|245:224,1,85.4999973907472,2|0,0:0|0:0,0:0:0:0:
260,210,131368,1,0,0:0:0:0:
285,192,131489,1,0,0:0:0:0:
404,128,131731,2,0,L|422:247,1,85.4999973907472,2|0,0:0|0:0,0:0:0:0:
396,305,132215,1,0,0:0:0:0:
366,334,132336,1,0,0:0:0:0:
327,339,132457,2,0,P|300:282|307:239,1,85.4999973907472,2|0,0:0|0:0,0:0:0:0:
363,165,132941,5,2,0:0:0:0:
254,100,133183,1,0,0:0:0:0:
254,111,133304,1,0,0:0:0:0:
254,121,133425,2,0,L|255:231,1,85.4999973907472,2|0,0:0|0:0,0:0:0:0:
428,158,133909,5,2,0:0:0:0:
254,76,134151,1,0,0:0:0:0:
254,100,134272,1,0,0:0:0:0:
254,121,134393,2,0,L|255:231,1,85.4999973907472,2|0,0:0|0:0,0:0:0:0:
496,155,134876,5,2,0:0:0:0:
254,36,135118,1,0,0:0:0:0:
254,76,135239,1,0,0:0:0:0:
254,121,135360,1,2,0:0:0:0:
245,321,135602,6,0,L|249:283,1,28.4999991302491
289,274,135764,2,0,L|298:228,1,28.4999991302491,0|2,0:0|0:0,0:0:0:0:
463,145,136086,1,0,0:0:0:0:
304,61,136328,1,2,0:0:0:0:
363,215,136570,1,2,0:0:0:0:
286,52,136812,6,0,L|207:47,1,71.2500027179719,4|0,0:0|0:0,0:0:0:0:
138,81,137296,1,0,0:0:0:0:
364,122,137538,2,0,L|285:130,1,71.2500027179719,2|0,0:0|0:0,0:0:0:0:
225,179,138022,1,0,0:0:0:0:
240,315,138264,2,0,P|218:270|216:219,1,71.2500027179719,2|0,0:0|0:0,0:0:0:0:
215,210,138626,1,0,0:0:0:0:
225,179,138747,2,2,P|292:161|339:166,2,106.875004076958,2|2|0,0:0|0:0|0:0,0:0:0:0:
52,233,139715,2,0,P|51:294|67:325,1,71.2500027179719,2|0,0:0|0:0,0:0:0:0:
136,222,140199,1,0,0:0:0:0:
76,72,140441,1,0,0:0:0:0:
64,106,140562,1,0,0:0:0:0:
75,134,140683,6,0,L|162:142,1,71.2500027179719,2|0,0:0|0:0,0:0:0:0:
233,90,141167,1,0,0:0:0:0:
333,244,141409,2,0,L|416:237,1,71.2500027179719,2|0,0:0|0:0,0:0:0:0:
469,161,141893,1,0,0:0:0:0:
394,79,142135,2,0,P|344:92|299:81,1,71.2500027179719,2|0,0:0|0:0,0:0:0:0:
254,151,142618,2,0,P|251:216|269:272,2,106.875004076958,2|0|0,0:0|0:0|0:0,0:0:0:0:
370,60,143586,2,0,B|373:100|373:100|363:159,1,71.2500027179719,2|0,0:0|0:0,0:0:0:0:
332,225,144070,1,0,0:0:0:0:
343,107,144312,1,0,0:0:0:0:
368,131,144433,1,0,0:0:0:0:
381,159,144554,6,0,L|306:152,1,71.2500027179719,2|0,0:0|0:0,0:0:0:0:
294,55,145038,1,0,0:0:0:0:
344,242,145280,2,0,L|251:245,1,71.2500027179719,2|0,0:0|0:0,0:0:0:0:
231,159,145764,1,0,0:0:0:0:
312,333,146005,1,2,0:0:0:0:
100,282,146247,1,0,0:0:0:0:
100,282,146368,1,0,0:0:0:0:
100,282,146489,2,0,B|79:219|121:222|87:158,2,106.875004076958,2|0|0,0:0|0:0|0:0,0:0:0:0:
204,305,147457,2,0,L|298:284,1,71.2500027179719
348,215,147941,1,0,0:0:0:0:
210,134,148183,1,0,0:0:0:0:
222,165,148304,1,0,0:0:0:0:
232,191,148425,6,0,P|195:216|151:222,1,71.2500027179719,2|0,0:0|0:0,0:0:0:0:
68,191,148909,1,0,0:0:0:0:
250,284,149151,2,0,P|206:294|163:285,1,71.2500027179719,2|0,0:0|0:0,0:0:0:0:
232,191,149635,1,0,0:0:0:0:
302,81,149876,1,2,0:0:0:0:
250,284,150118,1,0,0:0:0:0:
162,113,150360,5,2,0:0:0:0:
382,176,150602,1,0,0:0:0:0:
222,339,150844,5,0,0:0:0:0:
96,115,151086,1,0,0:0:0:0:
286,25,151328,5,0,0:0:0:0:
417,261,151570,1,0,0:0:0:0:
140,130,151812,1,0,0:0:0:0:
140,130,152296,6,0,P|141:200|124:263,1,95,2|0,0:0|0:0,0:0:0:0:
48,257,152780,2,0,P|47:327|64:390,1,95
169,304,153264,2,2,L|270:318,1,95,2|0,0:0|0:0,0:0:0:0:
281,247,153626,1,0,0:0:0:0:
281,247,153747,2,0,P|285:198|257:127,1,95
148,160,154231,2,0,L|162:0,2,142.5,2|0|0,0:0|0:0|0:0,0:0:0:0:
127,287,155199,2,0,P|179:293|239:287,1,95,2|0,0:0|0:0,0:0:0:0:
242,255,155562,1,0,0:0:0:0:
256,223,155683,2,0,L|277:105,1,95
163,78,156167,6,0,P|111:82|57:111,1,95,2|0,0:0|0:0,0:0:0:0:
63,221,156651,2,0,P|67:282|105:344,1,95
211,333,157135,2,0,L|315:311,1,95,2|0,0:0|0:0,0:0:0:0:
340,254,157497,1,0,0:0:0:0:
340,254,157618,2,0,P|320:200|339:142,1,95
362,38,158102,2,0,P|418:47|505:22,2,142.5,2|0|0,0:0|0:0|0:0,0:0:0:0:
232,12,159070,2,0,L|254:125,1,95,2|0,0:0|0:0,0:0:0:0:
172,216,159554,1,0,0:0:0:0:
238,334,159796,2,2,L|287:343,2,37.9999988403321,2|0|0,0:0|0:0|0:0,0:0:0:0:
192,320,160038,6,0,B|134:329|134:329|73:314,1,113.999996520996,2|0,0:0|0:0,0:0:0:0:
203,219,160401,2,0,B|261:210|261:210|322:225,1,113.999996520996,2|0,0:0|0:0,0:0:0:0:
192,270,160764,2,0,B|134:279|134:279|73:264,1,113.999996520996,2|0,0:0|0:0,0:0:0:0:
203,169,161127,2,0,B|261:160|261:160|322:175,1,113.999996520996,2|0,0:0|0:0,0:0:0:0:
380,199,161489,1,2,0:0:0:0:
495,252,161731,2,0,L|507:304,2,37.9999988403321
485,213,161973,6,0,B|475:159|471:151|471:151|477:151|477:151|473:146|464:100,1,113.999996520996,2|0,0:0|0:0,0:0:0:0:
446,3,162336,2,2,B|456:57|460:65|460:65|454:65|454:65|458:70|467:116,1,113.999996520996,2|0,0:0|0:0,0:0:0:0:
485,213,162699,1,0,0:0:0:0:
331,307,162941,5,2,0:0:0:0:
276,294,163062,1,0,0:0:0:0:
223,268,163183,1,2,0:0:0:0:
184,226,163304,1,0,0:0:0:0:
155,173,163425,1,2,0:0:0:0:
144,119,163546,1,0,0:0:0:0:
146,61,163667,6,0,L|197:62,1,37.9999988403321,2|0,0:0|0:0,0:0:0:0:
222,94,163828,2,0,L|262:96,1,37.9999988403321
229,80,165118,5,0,0:0:0:0:
275,176,165360,1,2,0:0:0:0:
396,176,165602,1,0,0:0:0:0:
229,80,165844,5,4,0:0:0:0:
326,282,166086,1,0,0:0:0:0:
230,68,166328,5,4,0:0:0:0:
233,350,166570,1,0,0:0:0:0:
230,58,166812,5,4,0:0:0:0:
116,348,167054,1,0,0:0:0:0:
230,48,167296,1,4,0:0:0:0:
287,55,167780,6,0,L|285:97,1,35.625001358986,6|0,0:0|0:0,0:0:0:0:
332,72,167901,2,0,L|330:114,1,35.625001358986
380,88,168022,2,0,L|378:130,1,35.625001358986
425,105,168143,2,0,L|423:147,1,35.625001358986
473,129,168264,2,0,L|383:263,1,142.500005435944,0|4,0:0|0:0,0:0:0:0:
315,256,168626,1,0,0:0:0:0:
299,275,168747,2,0,P|231:295|160:289,1,142.500005435944,2|0,0:0|0:0,0:0:0:0:
210,102,169231,1,4,0:0:0:0:
386,63,169473,1,0,0:0:0:0:
344,127,169594,1,0,0:0:0:0:
280,172,169715,6,0,P|210:193|138:183,1,142.500005435944,2|0,0:0|0:0,0:0:0:0:
44,58,170199,2,0,L|192:36,1,142.500005435944,2|0,0:0|0:0,0:0:0:0:
223,104,170562,1,0,0:0:0:0:
223,104,170683,2,0,B|295:123|295:123|374:114,1,142.500005435944,2|0,0:0|0:0,0:0:0:0:
505,14,171167,2,0,P|489:83|495:186,1,142.500005435944,2|0,0:0|0:0,0:0:0:0:
487,337,171651,6,0,L|485:298,1,35.625001358986,6|0,0:0|0:0,0:0:0:0:
453,310,171772,2,0,L|437:271,1,35.625001358986
411,289,171893,2,0,L|379:265,1,35.625001358986
358,278,172014,2,0,L|320:271,1,35.625001358986
287,290,172135,2,0,B|213:307|213:307|131:285,1,142.500005435944,0|4,0:0|0:0,0:0:0:0:
145,208,172497,1,0,0:0:0:0:
145,208,172618,2,0,P|121:132|149:68,1,142.500005435944,2|0,0:0|0:0,0:0:0:0:
309,28,173102,2,0,P|325:114|308:174,1,142.500005435944,4|0,0:0|0:0,0:0:0:0:
249,212,173465,1,0,0:0:0:0:
249,212,173586,6,0,B|223:261|223:261|231:361,1,142.500005435944,2|0,0:0|0:0,0:0:0:0:
392,246,174070,2,0,B|418:197|418:197|410:97,1,142.500005435944,2|0,0:0|0:0,0:0:0:0:
334,180,174433,1,0,0:0:0:0:
334,180,174554,2,0,B|299:136|299:136|290:36,1,142.500005435944,2|0,0:0|0:0,0:0:0:0:
130,44,175038,1,2,0:0:0:0:
94,72,175159,1,0,0:0:0:0:
104,116,175280,1,2,0:0:0:0:
147,129,175401,1,0,0:0:0:0:
190,115,175522,6,0,L|231:104,1,35.625001358986,6|0,0:0|0:0,0:0:0:0:
242,140,175643,2,0,L|281:146,1,35.625001358986
303,110,175764,2,0,L|344:94,1,35.625001358986
357,146,175885,2,0,L|411:153,1,35.625001358986
415,83,176005,2,0,B|451:141|451:141|459:218,1,142.500005435944,0|4,0:0|0:0,0:0:0:0:
315,328,176489,2,0,P|241:302|168:330,1,142.500005435944,2|0,0:0|0:0,0:0:0:0:
8,369,176973,1,4,0:0:0:0:
8,369,177215,1,0,0:0:0:0:
59,305,177336,1,0,0:0:0:0:
59,223,177457,6,0,P|52:126|89:68,1,142.500005435944,2|0,0:0|0:0,0:0:0:0:
228,49,177941,2,0,L|396:68,1,142.500005435944,2|0,0:0|0:0,0:0:0:0:
454,71,178304,1,0,0:0:0:0:
454,71,178425,2,2,B|470:145|470:145|476:182|453:218,1,142.500005435944,2|0,0:0|0:0,0:0:0:0:
355,337,178909,2,0,B|265:316|265:316|186:332,1,142.500005435944,2|0,0:0|0:0,0:0:0:0:
134,349,179272,1,0,0:0:0:0:
158,270,179393,6,0,L|171:224,1,35.625001358986,6|0,0:0|0:0,0:0:0:0:
197,240,179514,2,0,L|217:187,1,35.625001358986
248,212,179635,2,0,L|266:170,1,35.625001358986
306,186,179755,2,0,L|339:141,1,35.625001358986
385,181,179876,2,0,B|485:148|485:148|436:127,1,142.500005435944,0|4,0:0|0:0,0:0:0:0:
299,92,180360,1,0,0:0:0:0:
140,141,180602,5,2,0:0:0:0:
137,200,180844,1,4,0:0:0:0:
134,259,181086,1,0,0:0:0:0:
257,183,181328,5,4,0:0:0:0:
263,241,181570,1,2,0:0:0:0:
455,88,181812,5,4,0:0:0:0:
449,146,182054,1,2,0:0:0:0:
426,304,182296,5,4,0:0:0:0:
415,246,182538,1,0,0:0:0:0:
375,21,182780,1,0,0:0:0:0:
235,178,183022,1,0,0:0:0:0:
167,314,183264,6,0,P|207:325|259:314,1,80.750001540184,6|0,0:0|0:0,0:0:0:0:
326,253,183505,2,0,P|286:242|234:253,1,80.750001540184
168,289,183747,2,0,P|208:300|260:289,1,80.750001540184,2|0,0:0|0:0,0:0:0:0:
326,227,183989,2,0,P|286:216|234:227,1,80.750001540184,4|0,0:0|0:0,0:0:0:0:
184,141,184231,6,0,L|195:222,1,80.750001540184
109,184,184473,2,0,L|99:104,1,80.750001540184,2|0,0:0|0:0,0:0:0:0:
200,110,184715,2,4,L|211:191,1,80.750001540184,4|0,0:0|0:0,0:0:0:0:
125,153,184957,2,0,L|115:73,1,80.750001540184
211,40,185199,5,2,0:0:0:0:
291,44,185319,1,0,0:0:0:0:
372,48,185440,1,0,0:0:0:0:
452,52,185561,1,0,0:0:0:0:
460,67,185683,1,2,0:0:0:0:
385,92,185804,1,0,0:0:0:0:
308,110,185925,1,0,0:0:0:0:
232,134,186045,1,0,0:0:0:0:
101,185,186167,6,0,B|140:187|144:189|144:189|143:183|143:183|147:186|194:189,1,80.750001540184,2|0,0:0|0:0,0:0:0:0:
297,128,186409,2,0,B|258:126|254:124|254:124|255:130|255:130|251:127|204:124,1,80.750001540184
140,45,186651,2,0,P|129:83|140:126,1,80.750001540184,2|0,0:0|0:0,0:0:0:0:
259,268,186893,2,0,P|270:230|259:187,1,80.750001540184
198,134,187135,5,6,0:0:0:0:
198,100,187255,1,0,0:0:0:0:
215,69,187376,1,0,0:0:0:0:
238,48,187497,1,0,0:0:0:0:
267,40,187618,1,2,0:0:0:0:
321,57,187739,1,0,0:0:0:0:
369,84,187860,1,4,0:0:0:0:
417,123,187981,1,0,0:0:0:0:
440,166,188102,6,0,L|447:259,1,80.750001540184
352,254,188344,2,0,L|345:161,1,80.750001540184,2|0,0:0|0:0,0:0:0:0:
420,168,188586,2,0,L|427:261,1,80.750001540184,4|0,0:0|0:0,0:0:0:0:
332,256,188828,2,0,L|325:163,1,80.750001540184
322,91,189070,5,2,0:0:0:0:
313,90,189191,1,0,0:0:0:0:
303,89,189312,1,0,0:0:0:0:
294,89,189433,1,0,0:0:0:0:
201,139,189554,1,2,0:0:0:0:
231,142,189675,1,0,0:0:0:0:
268,207,189796,1,0,0:0:0:0:
301,209,189917,1,0,0:0:0:0:
413,179,190038,6,0,P|453:168|495:172,1,80.750001540184,2|0,0:0|0:0,0:0:0:0:
392,121,190280,2,0,P|352:132|310:128,1,80.750001540184,2|0,0:0|0:0,0:0:0:0:
248,58,190522,5,4,0:0:0:0:
189,98,190642,1,2,0:0:0:0:
121,71,190764,1,4,0:0:0:0:
66,120,190884,1,2,0:0:0:0:
90,222,191005,6,6,L|92:281,1,40.375000770092,6|0,0:0|0:0,0:0:0:0:
114,220,191126,2,0,L|116:279,1,40.375000770092
136,220,191247,2,0,L|138:279,1,40.375000770092
160,218,191368,2,0,L|162:277,1,40.375000770092
229,212,191489,2,0,L|305:172,1,80.750001540184,2|0,0:0|0:0,0:0:0:0:
368,228,191731,2,0,L|297:266,1,80.750001540184,4|0,0:0|0:0,0:0:0:0:
217,308,191973,6,0,P|204:265|202:221,1,80.750001540184
202,163,192215,2,0,P|213:121|238:79,1,80.750001540184,2|0,0:0|0:0,0:0:0:0:
286,34,192457,2,0,P|295:77|293:121,1,80.750001540184,4|0,0:0|0:0,0:0:0:0:
276,188,192699,2,0,P|261:228|232:268,1,80.750001540184
140,287,192941,5,2,0:0:0:0:
140,287,193062,1,0,0:0:0:0:
140,287,193183,2,0,P|177:323|223:339,1,80.750001540184
263,276,193425,1,2,0:0:0:0:
263,276,193546,1,0,0:0:0:0:
263,276,193667,2,0,P|226:240|180:224,1,80.750001540184
172,167,193909,5,2,0:0:0:0:
133,132,194030,1,0,0:0:0:0:
77,117,194151,1,0,0:0:0:0:
21,133,194272,1,0,0:0:0:0:
1,201,194393,1,2,0:0:0:0:
7,267,194514,1,0,0:0:0:0:
41,326,194635,1,0,0:0:0:0:
110,340,194755,1,0,0:0:0:0:
162,324,194876,6,6,L|217:288,1,40.375000770092,6|0,0:0|0:0,0:0:0:0:
219,310,194997,2,0,L|260:308,1,40.375000770092
282,296,195118,2,0,L|337:324,1,40.375000770092
336,332,195239,2,0,L|385:323,1,40.375000770092
370,282,195360,6,0,P|415:242|442:186,1,80.750001540184,2|0,0:0|0:0,0:0:0:0:
489,131,195602,2,0,P|444:171|417:227,1,80.750001540184,4|0,0:0|0:0,0:0:0:0:
399,297,195844,6,0,P|428:244|434:182,1,80.750001540184
459,115,196086,2,2,P|430:168|424:230,1,80.750001540184,2|0,0:0|0:0,0:0:0:0:
327,191,196328,6,4,L|325:151,1,23.75,4|0,0:0|0:0,0:0:0:0:
318,76,196570,2,0,L|321:118,1,23.75
395,167,196812,5,2,0:0:0:0:
185,219,197054,1,0,0:0:0:0:
411,251,197296,5,2,0:0:0:0:
151,158,197538,1,0,0:0:0:0:
350,325,197780,5,2,0:0:0:0:
155,75,198022,1,0,0:0:0:0:
254,373,198264,5,4,0:0:0:0:
