osu file format v14

[General]
AudioFilename: audio.mp3
AudioLeadIn: 0
PreviewTime: 87699
Countdown: 0
SampleSet: Soft
StackLeniency: 0.7
Mode: 0
LetterboxInBreaks: 0
WidescreenStoryboard: 1

[Editor]
DistanceSpacing: 1
BeatDivisor: 4
GridSize: 4
TimelineZoom: 0.9999996

[Metadata]
Title:Tired ft. Gavin James
TitleUnicode:Tired ft. Gavin James
Artist:Alan Walker
ArtistUnicode:Alan Walker
Creator:SuTHee35233
Version:Easy
Source:
Tags:Alan Walker AlanWalker Gavin James GavinJames Tired
BeatmapID:1790875
BeatmapSetID:857132

[Difficulty]
HPDrainRate:3
CircleSize:3
OverallDifficulty:3
ApproachRate:3.5
SliderMultiplier:0.9
SliderTickRate:1

[Events]
//Background and Video events
0,0,"Alan-Walker-5.jpg",0,0
Video,0,"bg tired~2.flv"
//Break Periods
2,106044,112206
2,181044,181812
//Storyboard Layer 0 (Background)
//Storyboard Layer 1 (Fail)
//Storyboard Layer 2 (Pass)
//Storyboard Layer 3 (Foreground)
//Storyboard Sound Samples

[TimingPoints]
11006,483.870967741935,4,2,0,15,1,0
11006,-133.333333333333,4,2,0,30,0,0
28425,-100,4,2,0,50,0,0
43909,-100,4,2,0,70,0,0
59393,-117.647058823529,4,2,0,30,0,0
74876,-100,4,2,0,70,0,0
87699,-100,4,2,0,70,0,0
90360,-66.6666666666667,4,2,0,90,0,1
105844,-100,4,2,0,70,0,0
121328,-100,4,2,0,80,0,0
136812,-117.647058823529,4,2,0,30,0,0
152296,-100,4,2,0,70,0,0
167780,-66.6666666666667,4,2,0,90,0,1
181328,-66.6666666666667,4,2,0,90,0,0
183264,-66.6666666666667,4,2,0,90,0,1
196328,-100,4,2,0,50,0,0

[Colours]
Combo1 : 0,255,255
Combo2 : 38,123,164
Combo3 : 18,124,255
Combo4 : 255,104,32
Combo5 : 236,133,19
Combo6 : 233,200,84

[HitObjects]
146,193,11489,5,0,0:0:0:0:
188,244,11973,2,0,P|270:262|286:262,1,101.250003862381
320,252,12941,2,0,L|363:212,2,50.6250019311906,2|0|0,0:0|0:0|0:0,0:0:0:0:
286,261,13909,1,2,0:0:0:0:
92,321,15360,5,0,0:0:0:0:
126,263,15844,2,0,P|132:212|113:163,1,101.250003862381
87,146,16812,2,0,L|63:207,2,50.6250019311906,2|0|0,0:0|0:0|0:0,0:0:0:0:
108,119,17780,2,0,L|174:89,1,67.5000025749207,2|0,0:0|0:0,0:0:0:0:
299,128,19231,5,0,0:0:0:0:
360,156,19715,2,0,B|299:182|299:182|262:184,1,101.250003862381
230,190,20683,2,0,P|195:215|186:225,2,50.6250019311906,2|0|0,0:0|0:0|0:0,0:0:0:0:
264,183,21651,2,0,L|341:203,1,67.5000025749207,2|0,0:0|0:0,0:0:0:0:
484,21,23828,6,0,L|473:68,2,33.7500012874604
453,36,24554,2,0,B|421:25|421:25|376:34,1,67.5000025749207,2|0,0:0|0:0,0:0:0:0:
326,58,25522,2,0,L|304:111,2,50.6250019311906,2|0|0,0:0|0:0|0:0,0:0:0:0:
326,58,28425,6,0,P|259:67|203:104,1,135,2|2,0:0|0:0,0:0:0:0:
154,180,29635,1,0,0:0:0:0:
251,272,30360,6,0,P|322:267|384:242,1,135,2|2,0:0|0:0,0:0:0:0:
444,179,31570,1,0,0:0:0:0:
348,83,32296,6,0,B|270:89|270:89|205:114,1,135,2|2,0:0|0:0,0:0:0:0:
152,172,33505,1,0,0:0:0:0:
95,243,33989,2,0,B|149:290|149:290|228:293,1,135
256,284,34957,2,0,P|303:245|323:204,1,90,2|2,0:0|0:0,0:0:0:0:
282,89,36167,6,0,L|178:78,1,90,2|0,0:0|0:0,0:0:0:0:
152,100,36893,2,0,P|127:147|125:193,1,90,2|0,0:0|0:0,0:0:0:0:
223,274,38102,6,0,P|305:275|329:272,1,90,2|0,0:0|0:0,0:0:0:0:
356,261,38828,2,0,L|374:157,1,90,2|0,0:0|0:0,0:0:0:0:
266,87,40038,6,0,P|210:95|159:87,1,90,2|0,0:0|0:0,0:0:0:0:
144,122,40764,2,0,P|151:198|154:215,2,90,2|0|0,0:0|0:0|0:0,0:0:0:0:
177,91,41973,2,0,P|234:116|277:111,1,90,2|0,0:0|0:0,0:0:0:0:
305,118,42699,2,0,B|353:120|353:120|405:139,1,90,2|0,0:0|0:0,0:0:0:0:
447,257,43909,6,0,P|385:282|352:285,1,90,2|0,0:0|0:0,0:0:0:0:
325,258,44635,2,0,L|216:268,1,90,2|0,0:0|0:0,0:0:0:0:
101,250,45844,6,0,P|82:191|80:151,1,90,2|0,0:0|0:0,0:0:0:0:
107,127,46570,2,0,L|169:110,2,45,2|0|0,0:0|0:0|0:0,0:0:0:0:
191,232,47780,6,0,P|230:281|264:297,1,90,2|0,0:0|0:0,0:0:0:0:
291,269,48505,2,0,L|393:271,1,90,2|0,0:0|0:0,0:0:0:0:
410,185,49473,2,0,P|419:129|372:51,1,135
339,55,50441,2,0,L|234:43,2,90
322,97,51651,6,0,P|297:153|307:187,1,90,2|0,0:0|0:0,0:0:0:0:
313,222,52376,2,0,P|326:286|316:317,1,90,2|0,0:0|0:0,0:0:0:0:
172,204,53828,6,0,L|168:154,2,45,0|0|2,0:0|0:0|0:0,0:0:0:0:
92,246,54796,1,2,0:0:0:0:
265,292,55764,6,0,L|261:356,2,45,0|0|2,0:0|0:0|0:0,0:0:0:0:
341,244,56731,1,2,0:0:0:0:
256,192,57457,12,4,59393,0:0:0:0:
255,189,61328,6,0,L|189:173,2,57.3750010943413
292,197,62296,2,0,P|321:249|266:315,1,153.000002918243,0|2,0:0|0:0,0:0:0:0:
200,279,63747,5,0,0:0:0:0:
131,311,64231,2,0,P|86:260|99:211,1,114.750002188683
110,184,65199,2,0,P|127:139|138:125,2,57.3750010943413
148,187,66167,2,0,P|214:203|233:203,1,76.5000014591217
260,197,66893,2,0,L|282:159,1,38.2500007295609,0|2,0:0|0:0,0:0:0:0:
334,110,67618,5,0,0:0:0:0:
375,174,68102,2,0,B|402:240|388:293,1,114.750002188683
363,314,69070,2,0,P|325:322|305:320,2,57.3750010943413
389,286,70038,2,0,P|350:237|338:232,1,76.5000014591217
264,249,71005,6,0,P|205:189|196:159,2,114.750002188683,2|0|0,0:0|0:0|0:0,0:0:0:0:
338,266,72941,1,4,0:0:0:0:
411,244,73425,1,4,0:0:0:0:
449,177,73909,2,0,L|432:132,2,38.2500007295609,4|0|0,0:0|0:0|0:0,0:0:0:0:
465,266,74876,6,0,L|377:303,1,90,2|0,0:0|0:0,0:0:0:0:
292,310,75844,2,0,P|208:321|138:312,1,135
121,289,76812,2,0,P|98:238|94:209,2,67.5,2|0|0,0:0|0:0|0:0,0:0:0:0:
158,316,77780,2,0,B|182:280|182:280|185:225,1,90
182,143,78747,5,2,0:0:0:0:
271,140,79231,1,0,0:0:0:0:
360,153,79715,2,0,L|386:59,1,90
298,38,80683,2,0,P|233:30|217:35,2,67.5,2|0|0,0:0|0:0|0:0,0:0:0:0:
336,61,81651,2,0,P|416:85|436:98,1,90
447,124,82376,2,0,L|459:170,1,45,0|2,0:0|0:0,0:0:0:0:
426,251,83102,5,0,0:0:0:0:
345,290,83586,2,0,P|286:273|238:220,1,135
192,216,84554,2,0,L|159:146,2,67.5,2|0|0,0:0|0:0|0:0,0:0:0:0:
237,219,85522,2,0,P|281:177|329:170,1,90
397,178,86489,6,0,P|434:234|426:305,1,135,2|0,0:0|0:0,0:0:0:0:
339,288,87699,2,0,L|309:238,2,45,0|2|0,0:0|0:0|0:0,0:0:0:0:
296,302,88425,1,4,0:0:0:0:
206,265,88909,1,4,0:0:0:0:
143,190,89393,1,4,0:0:0:0:
124,101,89876,1,4,0:0:0:0:
209,42,90360,6,0,P|201:142|237:235,1,202.500007724762,6|4,0:0|0:0,0:0:0:0:
359,294,91570,2,0,L|431:276,1,67.5000025749208,2|4,0:0|0:0,0:0:0:0:
482,155,92296,2,0,L|510:87,2,67.5000025749208
349,183,93264,2,0,P|295:195|274:188,1,67.5000025749208
155,152,93989,1,2,0:0:0:0:
107,103,94231,6,6,P|197:70|262:70,1,135.000005149842,6|0,0:0|0:0,0:0:0:0:
303,64,94957,2,0,P|384:61|459:88,1,135.000005149842,4|0,0:0|0:0,0:0:0:0:
492,113,95683,1,4,0:0:0:0:
474,246,96167,2,0,L|485:320,2,67.5000025749208
338,244,97135,2,0,P|272:226|196:239,1,135.000005149842,0|4,0:0|0:0,0:0:0:0:
145,263,97860,1,2,0:0:0:0:
101,314,98102,6,0,P|81:226|77:155,1,135.000005149842,6|0,0:0|0:0,0:0:0:0:
57,116,98828,2,0,B|122:83|122:83|212:87,1,135.000005149842,4|0,0:0|0:0,0:0:0:0:
246,112,99554,1,4,0:0:0:0:
370,160,100038,2,0,L|397:238,2,67.5000025749208
451,52,101005,2,0,L|473:118,1,67.5000025749208
467,251,101731,1,2,0:0:0:0:
415,294,101973,6,0,P|345:284|276:298,1,135.000005149842,4|0,0:0|0:0,0:0:0:0:
216,311,102699,2,0,P|140:317|66:281,1,135.000005149842,4|0,0:0|0:0,0:0:0:0:
53,236,103425,1,4,0:0:0:0:
256,192,103909,12,2,105844,0:0:0:0:
255,191,113586,6,0,P|285:257|286:281,1,90,2|0,0:0|0:0,0:0:0:0:
256,307,114312,2,0,P|203:320|144:312,1,90,2|0,0:0|0:0,0:0:0:0:
101,200,115522,6,0,L|88:101,1,90,2|0,0:0|0:0,0:0:0:0:
70,69,116247,2,0,P|139:46|196:60,1,90,2|0,0:0|0:0,0:0:0:0:
286,79,117457,6,0,P|363:94|399:108,1,90,2|0,0:0|0:0,0:0:0:0:
352,137,118183,2,0,L|300:242,2,90,2|0|0,0:0|0:0|0:0,0:0:0:0:
395,148,119393,2,0,P|433:191|454:255,1,90,2|0,0:0|0:0,0:0:0:0:
466,260,120118,2,0,P|428:308|395:327,1,90,2|0,0:0|0:0,0:0:0:0:
269,320,121328,6,0,P|197:294|150:293,1,90,2|0,0:0|0:0,0:0:0:0:
145,268,122054,2,0,P|106:222|103:169,1,90,2|0,0:0|0:0,0:0:0:0:
235,193,123264,6,0,P|266:146|326:114,1,90,2|0,0:0|0:0,0:0:0:0:
337,119,123989,2,0,L|439:110,1,90,2|0,0:0|0:0,0:0:0:0:
395,242,125199,6,0,P|389:291|359:333,1,90,2|0,0:0|0:0,0:0:0:0:
322,326,125925,2,0,P|272:327|226:322,2,90,2|0|0,0:0|0:0|0:0,0:0:0:0:
367,324,127135,2,0,P|313:271|276:232,1,90,2|0,0:0|0:0,0:0:0:0:
271,228,127860,2,0,P|214:210|146:214,2,90,2|0|0,0:0|0:0|0:0,0:0:0:0:
394,282,129554,5,0,0:0:0:0:
421,246,129796,2,0,P|479:236|515:215,1,90,2|0,0:0|0:0,0:0:0:0:
378,94,131247,6,0,L|312:89,1,45,2|0,0:0|0:0,0:0:0:0:
295,115,131731,2,0,P|229:120|174:92,1,90,2|0,0:0|0:0,0:0:0:0:
43,36,133183,6,0,L|68:85,1,45,2|0,0:0|0:0,0:0:0:0:
48,119,133667,2,0,P|25:182|33:230,1,90,2|0,0:0|0:0,0:0:0:0:
256,192,134876,12,0,136812,0:0:0:0:
264,150,138747,6,0,P|207:148|195:150,2,57.3750010943413,2|0|0,0:0|0:0|0:0,0:0:0:0:
296,170,139715,2,0,L|380:193,1,76.5000014591217
332,257,140683,5,2,0:0:0:0:
265,294,141167,1,0,0:0:0:0:
188,288,141651,2,0,P|137:262|104:215,1,114.750002188683
70,196,142618,2,0,L|55:129,2,57.3750010943413,2|0|0,0:0|0:0|0:0,0:0:0:0:
102,174,143586,2,0,P|156:146|186:147,1,76.5000014591217
244,165,144554,6,0,L|325:181,1,76.5000014591217,2|0,0:0|0:0,0:0:0:0:
384,220,145522,2,0,P|402:279|367:321,1,114.750002188683
334,318,146489,2,0,L|319:251,2,57.3750010943413,2|0|0,0:0|0:0|0:0,0:0:0:0:
297,330,147457,2,0,P|235:320|212:301,1,76.5000014591217
169,260,148425,6,0,B|126:200|126:200|89:179,1,114.750002188683,2|2,0:0|0:0,0:0:0:0:
20,147,149635,2,0,L|36:104,2,38.2500007295609,0|2|0,0:0|0:0|0:0,0:0:0:0:
21,185,150360,2,0,P|70:203|108:194,1,76.5000014591217,4|4,0:0|0:0,0:0:0:0:
155,155,151328,2,0,P|211:159|240:181,1,76.5000014591217,4|2,0:0|0:0,0:0:0:0:
313,196,152296,6,0,L|349:231,2,45,2|0|2,0:0|0:0|0:0,0:0:0:0:
257,125,153264,2,0,P|187:108|158:110,1,90,2|0,0:0|0:0,0:0:0:0:
98,163,154231,2,0,L|113:241,2,67.5,2|0|0,0:0|0:0|0:0,0:0:0:0:
56,145,155199,2,0,P|58:100|76:59,1,90,2|0,0:0|0:0,0:0:0:0:
163,81,156167,6,0,L|170:134,1,45,2|0,0:0|0:0,0:0:0:0:
210,142,156651,2,0,P|234:179|240:223,1,90,2|2,0:0|0:0,0:0:0:0:
160,264,157618,2,0,L|150:307,1,45
122,343,158102,2,0,P|104:289|103:262,2,67.5,2|0|0,0:0|0:0|0:0,0:0:0:0:
165,353,159070,2,0,L|270:366,1,90,2|0,0:0|0:0,0:0:0:0:
295,345,159796,2,0,P|305:301|305:288,1,45,2|2,0:0|0:0,0:0:0:0:
284,214,160522,5,0,0:0:0:0:
365,177,161005,2,0,B|322:100|322:100|276:89,1,135
231,84,161973,2,0,P|175:74|155:77,2,67.5,2|0|0,0:0|0:0|0:0,0:0:0:0:
276,89,162941,2,0,P|321:135|320:175,1,90
314,247,163909,5,2,0:0:0:0:
314,247,165118,6,0,L|253:254,2,45
358,238,165844,2,0,P|383:205|369:150,1,90,4|4,0:0|0:0,0:0:0:0:
363,116,166570,1,0,0:0:0:0:
345,75,166812,2,0,L|246:53,1,90,4|6,0:0|0:0,0:0:0:0:
155,68,167780,6,0,P|139:145|164:199,1,135.000005149842,6|0,0:0|0:0,0:0:0:0:
224,217,168505,2,0,L|377:267,1,135.000005149842,4|0,0:0|0:0,0:0:0:0:
414,285,169231,1,4,0:0:0:0:
436,151,169715,2,0,L|518:168,2,67.5000025749208
385,25,170683,2,0,P|336:17|298:19,1,67.5000025749208
235,124,171409,1,0,0:0:0:0:
195,178,171651,6,0,L|43:181,1,135.000005149842,6|0,0:0|0:0,0:0:0:0:
63,248,172376,2,0,B|109:299|109:299|187:329,1,135.000005149842,4|0,0:0|0:0,0:0:0:0:
238,320,173102,1,4,0:0:0:0:
373,317,173586,2,0,L|447:349,2,67.5000025749208
412,187,174554,2,0,P|415:102|392:57,1,135.000005149842,0|4,0:0|0:0,0:0:0:0:
329,35,175280,1,2,0:0:0:0:
279,80,175522,6,0,L|249:238,1,135.000005149842,6|0,0:0|0:0,0:0:0:0:
239,278,176247,2,0,P|211:331|124:322,1,135.000005149842,4|0,0:0|0:0,0:0:0:0:
90,291,176973,1,4,0:0:0:0:
47,162,177457,2,0,L|22:86,2,67.5000025749208
179,132,178425,2,0,B|247:119,1,67.5000025749208
374,158,179151,1,0,0:0:0:0:
437,135,179393,6,0,B|463:198|463:198|441:283,1,135.000005149842,6|0,0:0|0:0,0:0:0:0:
414,322,180118,2,0,B|332:332|356:357|270:353,1,135.000005149842,4|0,0:0|0:0,0:0:0:0:
222,324,180844,1,4,0:0:0:0:
228,107,183264,6,0,P|291:67|370:74,1,135.000005149842,6|0,0:0|0:0,0:0:0:0:
409,97,183989,2,0,B|446:151|446:151|461:248,1,135.000005149842,4|0,0:0|0:0,0:0:0:0:
451,287,184715,1,4,0:0:0:0:
316,300,185199,2,0,P|320:225|303:177,2,101.250003862381
254,328,186167,2,0,L|131:245,1,135.000005149842
128,112,187135,6,0,P|217:54|275:55,1,135.000005149842,6|0,0:0|0:0,0:0:0:0:
310,58,187860,2,0,P|399:84|438:134,1,135.000005149842,4|0,0:0|0:0,0:0:0:0:
454,174,188586,1,4,0:0:0:0:
460,308,189070,2,0,P|407:343|364:347,2,101.250003862381
420,252,190038,2,0,B|351:249|351:249|271:292,1,135.000005149842
176,348,191005,6,0,P|142:259|150:204,1,135.000005149842,6|0,0:0|0:0,0:0:0:0:
158,154,191731,2,0,L|304:124,1,135.000005149842,4|0,0:0|0:0,0:0:0:0:
357,134,192457,1,4,0:0:0:0:
479,190,192941,2,0,B|493:253|493:253|483:307,2,101.250003862381
415,213,193909,2,0,B|360:257|360:257|279:263,1,135.000005149842
161,269,194876,6,0,L|119:121,1,135.000005149842,6|0,0:0|0:0,0:0:0:0:
160,82,195602,2,0,P|239:48|312:67,1,135.000005149842,4|0,0:0|0:0,0:0:0:0:
337,74,196328,5,4,0:0:0:0:
323,172,196812,2,0,L|271:180,2,45
380,263,197780,1,0,0:0:0:0:
476,290,198264,2,0,P|444:338|396:346,1,90
