osu file format v14

[General]
AudioFilename: audio.mp3
AudioLeadIn: 0
PreviewTime: 50298
Countdown: 0
SampleSet: Soft
StackLeniency: 0.7
Mode: 3
LetterboxInBreaks: 0
SpecialStyle: 0
WidescreenStoryboard: 0

[Editor]
DistanceSpacing: 0.5
BeatDivisor: 4
GridSize: 8
TimelineZoom: 1.3

[Metadata]
Title:The Spectre (Cut Ver.)
TitleUnicode:The Spectre (Cut Ver.)
Artist:Alan Walker
ArtistUnicode:Alan Walker
Creator:Irone OSU
Version:We Live, We Love, We Lie
Source:
Tags:realistic smurf cat blue mushroom cat meme Шайлушай Shailushai nate hallinan smurf sighting we live. we love. we lie. electronic dance music edm house techno english Anders Frøen Froeen Froen Jesper Borgen Lars Kristian Rosness Marcus Arnbekk Mood Melodies Fredrik Borch Olsen Gunnar Greve Tommy LaVerdi
BeatmapID:4315581
BeatmapSetID:2063378

[Difficulty]
HPDrainRate:8
CircleSize:4
OverallDifficulty:8
ApproachRate:5
SliderMultiplier:1.4
SliderTickRate:1

[Events]
//Background and Video events
0,0,"smurf.jpg",0,0
//Break Periods
//Storyboard Layer 0 (Background)
//Storyboard Layer 1 (Fail)
//Storyboard Layer 2 (Pass)
//Storyboard Layer 3 (Foreground)
//Storyboard Layer 4 (Overlay)
//Storyboard Sound Samples

[TimingPoints]
220,468.75,4,2,1,40,1,0
7720,-100,4,2,1,50,0,0
22720,-100,4,2,1,55,0,0
37720,-100,4,2,1,60,0,0
52720,-100,4,2,1,65,0,0
60220,-100,4,2,1,70,0,0
65845,-100,4,2,1,40,0,0
66782,-100,4,2,1,45,0,0
67016,-100,4,2,1,50,0,0
67251,-100,4,2,1,55,0,0
67485,-100,4,2,1,60,0,0
67710,468.75,4,2,1,80,1,1
67710,-100,4,2,1,80,0,1
82710,-100,4,2,1,90,0,1
97710,-100,4,2,1,20,0,0

[HitObjects]
64,192,220,128,0,454:0:0:0:0:
192,192,688,128,0,923:0:0:0:0:
448,192,1157,128,0,2095:0:0:0:0:
192,192,2095,128,0,2329:0:0:0:0:
448,192,2563,128,0,2798:0:0:0:0:
64,192,3032,128,0,3970:0:0:0:0:
320,192,3970,128,0,4204:0:0:0:0:
64,192,4438,128,0,4673:0:0:0:0:
192,192,4907,128,0,5845:0:0:0:0:
448,192,5845,128,0,6079:0:0:0:0:
320,192,6313,128,0,6548:0:0:0:0:
64,192,6782,128,0,7720:0:0:0:0:
320,192,7720,1,2,0:0:0:0:
448,192,7720,1,4,0:0:0:30:soft-hitfinish.wav
320,192,7954,1,0,0:0:0:0:
192,192,8188,1,0,0:0:0:0:
192,192,8423,128,0,8657:0:0:0:0:
320,192,8657,128,0,8891:0:0:0:0:
192,192,8891,128,0,9126:0:0:0:0:
448,192,9126,128,0,10063:0:0:0:0:
192,192,9360,1,0,0:0:0:0:
320,192,9595,1,0,0:0:0:0:
320,192,9829,1,0,0:0:0:0:
64,192,10063,1,0,0:0:0:0:
64,192,10298,128,0,10532:0:0:0:0:
320,192,10532,1,0,0:0:0:0:
320,192,10766,128,0,11001:0:0:0:0:
64,192,11001,1,0,0:0:0:0:
64,192,11235,128,0,11938:0:0:0:0:
320,192,11470,1,0,0:0:0:0:
320,192,11704,1,0,0:0:0:0:
192,192,11938,1,0,0:0:0:0:
192,192,12173,128,0,12876:0:0:0:0:
448,192,12407,1,0,0:0:0:0:
448,192,12641,1,0,0:0:0:0:
64,192,12876,1,0,0:0:0:0:
64,192,13110,1,0,0:0:0:0:
448,192,13345,128,0,13579:0:0:0:0:
64,192,13579,1,0,0:0:0:0:
320,192,13696,128,0,13930:0:0:0:0:
64,192,13813,1,0,0:0:0:0:
192,192,14048,128,0,14282:0:0:0:0:
448,192,14282,1,0,0:0:0:0:
192,192,14516,128,0,14751:0:0:0:0:
320,192,14751,1,0,0:0:0:0:
64,192,14985,128,0,15688:0:0:0:0:
192,192,15220,1,0,0:0:0:0:
192,192,15454,1,0,0:0:0:0:
320,192,15688,1,0,0:0:0:0:
320,192,15923,128,0,16157:0:0:0:0:
192,192,16157,128,0,16391:0:0:0:0:
320,192,16391,128,0,16626:0:0:0:0:
64,192,16626,128,0,17563:0:0:0:0:
320,192,16860,1,0,0:0:0:0:
192,192,17095,1,0,0:0:0:0:
192,192,17329,1,0,0:0:0:0:
448,192,17563,1,0,0:0:0:0:
448,192,17798,128,0,18032:0:0:0:0:
192,192,18032,1,0,0:0:0:0:
192,192,18266,128,0,18501:0:0:0:0:
448,192,18501,1,0,0:0:0:0:
448,192,18735,128,0,19438:0:0:0:0:
192,192,18970,1,0,0:0:0:0:
192,192,19204,1,0,0:0:0:0:
320,192,19438,1,0,0:0:0:0:
320,192,19673,128,0,20376:0:0:0:0:
64,192,19907,1,0,0:0:0:0:
64,192,20141,1,0,0:0:0:0:
448,192,20376,1,0,0:0:0:0:
448,192,20610,128,0,20845:0:0:0:0:
64,192,20845,128,0,21079:0:0:0:0:
448,192,21079,1,0,0:0:0:0:
192,192,21196,128,0,21430:0:0:0:0:
448,192,21313,1,0,0:0:0:0:
320,192,21548,128,0,22016:0:0:0:0:
192,192,21782,1,0,0:0:0:0:
64,192,22016,1,0,0:0:0:0:
64,192,22251,128,0,22485:0:0:0:0:
448,192,22485,128,0,23188:0:0:0:0:
64,192,22720,1,0,0:0:0:0:
192,192,22720,1,0,0:0:0:0:
192,192,22954,1,0,0:0:0:0:
320,192,23188,1,0,0:0:0:0:
320,192,23423,128,0,23540:0:0:0:0:
64,192,23657,128,0,23774:0:0:0:0:
448,192,23891,128,0,24009:0:0:0:0:
192,192,24126,128,0,24243:0:0:0:0:
320,192,24360,128,0,24477:0:0:0:0:
64,192,24595,128,0,25298:0:0:0:0:
448,192,24595,1,0,0:0:0:0:
448,192,24829,1,0,0:0:0:0:
320,192,25063,1,0,0:0:0:0:
448,192,25298,1,0,0:0:0:0:
64,192,25532,1,0,0:0:0:0:
192,192,25532,128,0,26235:0:0:0:0:
64,192,25766,1,0,0:0:0:0:
448,192,26001,1,0,0:0:0:0:
64,192,26235,1,0,0:0:0:0:
192,192,26470,1,0,0:0:0:0:
320,192,26470,128,0,27173:0:0:0:0:
192,192,26704,1,0,0:0:0:0:
64,192,26938,1,0,0:0:0:0:
192,192,27173,1,0,0:0:0:0:
448,192,27407,1,0,0:0:0:0:
64,192,27641,1,0,0:0:0:0:
448,192,27876,1,0,0:0:0:0:
64,192,28110,128,0,28227:0:0:0:0:
192,192,28345,1,0,0:0:0:0:
448,192,28345,128,0,28462:0:0:0:0:
320,192,28579,1,0,0:0:0:0:
64,192,28696,128,0,28813:0:0:0:0:
448,192,28813,1,0,0:0:0:0:
192,192,29048,128,0,29516:0:0:0:0:
448,192,29282,1,0,0:0:0:0:
448,192,29516,1,0,0:0:0:0:
64,192,29751,128,0,29868:0:0:0:0:
192,192,29985,128,0,30102:0:0:0:0:
320,192,30220,1,0,0:0:0:0:
448,192,30220,1,0,0:0:0:0:
320,192,30454,1,0,0:0:0:0:
192,192,30688,1,0,0:0:0:0:
192,192,30923,1,0,0:0:0:0:
448,192,31157,128,0,31274:0:0:0:0:
64,192,31391,128,0,31509:0:0:0:0:
320,192,31626,128,0,31743:0:0:0:0:
192,192,31860,128,0,31977:0:0:0:0:
64,192,32095,1,0,0:0:0:0:
448,192,32095,128,0,32798:0:0:0:0:
64,192,32329,1,0,0:0:0:0:
192,192,32563,1,0,0:0:0:0:
64,192,32798,1,0,0:0:0:0:
320,192,33032,128,0,33735:0:0:0:0:
448,192,33032,1,0,0:0:0:0:
448,192,33266,1,0,0:0:0:0:
64,192,33501,1,0,0:0:0:0:
448,192,33735,1,0,0:0:0:0:
192,192,33970,128,0,34673:0:0:0:0:
320,192,33970,1,0,0:0:0:0:
320,192,34204,1,0,0:0:0:0:
448,192,34438,1,0,0:0:0:0:
320,192,34673,1,0,0:0:0:0:
64,192,34907,1,0,0:0:0:0:
448,192,35141,1,0,0:0:0:0:
64,192,35376,128,0,35610:0:0:0:0:
448,192,35610,128,0,35845:0:0:0:0:
192,192,35845,1,0,0:0:0:0:
320,192,35845,1,0,0:0:0:0:
64,192,36079,1,0,0:0:0:0:
320,192,36313,128,0,36548:0:0:0:0:
192,192,36548,128,0,36782:0:0:0:0:
64,192,36782,1,0,0:0:0:0:
448,192,36782,1,0,0:0:0:0:
320,192,37016,1,0,0:0:0:0:
192,192,37251,128,0,37485:0:0:0:0:
320,192,37485,128,0,37720:0:0:0:0:
64,192,37720,1,2,0:0:0:0:
192,192,37720,1,0,0:0:0:0:
192,192,37954,1,0,0:0:0:0:
448,192,38188,1,0,0:0:0:0:
448,192,38423,1,0,0:0:0:0:
64,192,38657,128,0,38891:0:0:0:70:soft-hitnormal.wav
320,192,38657,1,0,0:0:0:0:
320,192,38891,128,0,39126:0:0:0:0:
192,192,39126,128,0,39360:0:0:0:0:
448,192,39360,128,0,39829:0:0:0:0:
64,192,39595,1,0,0:0:0:0:
64,192,39829,1,0,0:0:0:0:
448,192,40063,128,0,40298:0:0:0:0:
192,192,40298,128,0,40532:0:0:0:0:
64,192,40532,1,0,0:0:0:70:soft-hitnormal.wav
320,192,40532,128,0,40884:0:0:0:0:
64,192,40766,1,0,0:0:0:0:
448,192,40884,128,0,41235:0:0:0:0:
192,192,41001,1,0,0:0:0:0:
64,192,41235,1,0,0:0:0:70:soft-hitnormal.wav
192,192,41235,128,0,41470:0:0:0:0:
320,192,41470,1,2,0:0:0:0:
448,192,41470,1,0,0:0:0:0:
320,192,41704,1,0,0:0:0:0:
192,192,41938,1,0,0:0:0:0:
192,192,42173,1,0,0:0:0:0:
64,192,42407,1,0,0:0:0:70:soft-hitnormal.wav
320,192,42407,1,0,0:0:0:0:
320,192,42641,128,0,42876:0:0:0:0:
64,192,42876,128,0,43110:0:0:0:0:
448,192,43110,128,0,43579:0:0:0:0:
192,192,43345,1,0,0:0:0:0:
192,192,43579,1,0,0:0:0:0:
320,192,43813,128,0,44048:0:0:0:0:
192,192,44048,128,0,44282:0:0:0:0:
64,192,44282,1,0,0:0:0:70:soft-hitnormal.wav
448,192,44282,1,0,0:0:0:0:
448,192,44516,128,0,44751:0:0:0:0:
64,192,44751,128,0,45220:0:0:0:0:
192,192,44985,1,0,0:0:0:0:
320,192,45220,1,2,0:0:0:0:
448,192,45220,1,0,0:0:0:0:
320,192,45454,1,0,0:0:0:0:
64,192,45688,1,0,0:0:0:0:
64,192,45923,1,0,0:0:0:0:
192,192,46157,1,0,0:0:0:70:soft-hitnormal.wav
448,192,46157,128,0,46391:0:0:0:0:
192,192,46391,128,0,46626:0:0:0:0:
320,192,46626,128,0,46860:0:0:0:0:
64,192,46860,128,0,47329:0:0:0:0:
448,192,47095,1,0,0:0:0:0:
448,192,47329,1,0,0:0:0:0:
64,192,47563,128,0,47798:0:0:0:0:
320,192,47798,128,0,48032:0:0:0:0:
192,192,48032,128,0,48384:0:0:0:70:soft-hitnormal.wav
448,192,48032,1,0,0:0:0:0:
448,192,48266,1,0,0:0:0:0:
64,192,48384,128,0,48735:0:0:0:0:
320,192,48501,1,0,0:0:0:0:
320,192,48735,128,0,48970:0:0:0:70:soft-hitnormal.wav
448,192,48735,1,0,0:0:0:0:
64,192,48970,1,2,0:0:0:0:
192,192,48970,1,0,0:0:0:0:
192,192,49204,1,0,0:0:0:0:
320,192,49438,1,0,0:0:0:0:
320,192,49673,1,0,0:0:0:0:
192,192,49907,1,0,0:0:0:70:soft-hitnormal.wav
448,192,49907,1,0,0:0:0:0:
192,192,50141,1,0,0:0:0:0:
448,192,50376,128,0,50845:0:0:0:0:
64,192,50610,128,0,50845:0:0:0:0:
192,192,50845,1,0,0:0:0:0:
320,192,50845,1,0,0:0:0:0:
448,192,51079,1,0,0:0:0:0:
192,192,51313,128,0,51782:0:0:0:0:
320,192,51548,128,0,51782:0:0:0:0:
64,192,51782,1,0,0:0:0:0:
192,192,52016,1,0,0:0:0:0:
448,192,52251,128,0,52720:0:0:0:0:
320,192,52485,128,0,52720:0:0:0:0:
64,192,52720,128,0,52837:0:0:0:0:
192,192,52720,128,0,52837:0:0:0:0:
448,192,52954,1,0,0:0:0:0:
320,192,53188,128,0,53305:0:0:0:0:
448,192,53188,128,0,53305:0:0:0:0:
192,192,53423,128,0,53540:0:0:0:0:
320,192,53423,128,0,53540:0:0:0:0:
64,192,53657,128,0,53774:0:0:0:0:
192,192,53657,128,0,54126:0:0:0:0:
64,192,53891,1,0,0:0:0:0:
320,192,54126,128,0,54204:0:0:0:0:
448,192,54126,128,0,54204:0:0:0:0:
448,192,54282,128,0,54360:0:0:0:0:
64,192,54360,128,0,54438:0:0:0:0:
192,192,54360,128,0,54438:0:0:0:0:
64,192,54516,128,0,54595:0:0:0:0:
320,192,54595,128,0,54712:0:0:0:0:
448,192,54595,128,0,55063:0:0:0:0:
320,192,54829,1,0,0:0:0:0:
64,192,55063,128,0,55141:0:0:0:0:
320,192,55063,128,0,55141:0:0:0:0:
64,192,55298,128,0,55376:0:0:0:0:
448,192,55298,128,0,55376:0:0:0:0:
192,192,55532,128,0,56470:0:0:0:0:
448,192,55532,128,0,55610:0:0:0:0:
64,192,55766,1,0,0:0:0:0:
64,192,56001,1,0,0:0:0:0:
448,192,56001,128,0,56235:0:0:0:0:
320,192,56235,1,0,0:0:0:0:
64,192,56470,128,0,56587:0:0:0:0:
448,192,56470,128,0,56587:0:0:0:0:
320,192,56704,1,0,0:0:0:0:
64,192,56938,128,0,57016:0:0:0:0:
320,192,56938,128,0,57016:0:0:0:0:
64,192,57173,128,0,57251:0:0:0:0:
448,192,57173,128,0,57251:0:0:0:0:
192,192,57407,128,0,57485:0:0:0:0:
448,192,57407,128,0,57876:0:0:0:0:
192,192,57641,1,0,0:0:0:0:
64,192,57876,128,0,57954:0:0:0:0:
320,192,57876,128,0,57954:0:0:0:0:
320,192,58032,128,0,58110:0:0:0:0:
192,192,58110,128,0,58188:0:0:0:0:
448,192,58110,128,0,58188:0:0:0:0:
192,192,58266,128,0,58345:0:0:0:0:
64,192,58345,128,0,58462:0:0:0:0:
320,192,58345,128,0,58462:0:0:0:0:
64,192,58579,1,0,0:0:0:0:
320,192,58813,128,0,58891:0:0:0:0:
448,192,58813,128,0,58891:0:0:0:0:
192,192,59048,128,0,59126:0:0:0:0:
320,192,59048,128,0,59126:0:0:0:0:
192,192,59282,128,0,60220:0:0:0:0:
448,192,59282,128,0,59360:0:0:0:0:
320,192,59516,1,0,0:0:0:0:
64,192,59751,1,0,0:0:0:0:
448,192,59751,128,0,60102:0:0:0:0:
64,192,59985,1,0,0:0:0:0:
64,192,60220,1,2,0:0:0:0:
320,192,60220,128,8,60337:0:0:0:0:
448,192,60220,128,0,60337:0:0:0:0:
320,192,60454,1,0,0:0:0:0:
64,192,60688,128,2,60805:0:0:0:0:
192,192,60688,128,8,60805:0:0:0:0:
448,192,60688,1,0,0:0:0:0:
192,192,60923,128,0,61040:0:0:0:0:
320,192,60923,128,0,61040:0:0:0:0:
64,192,61157,128,2,61274:0:0:0:0:
320,192,61157,1,8,0:0:0:0:
448,192,61157,128,0,61626:0:0:0:0:
192,192,61391,1,0,0:0:0:0:
64,192,61626,128,2,61704:0:0:0:0:
192,192,61626,128,8,61704:0:0:0:0:
320,192,61626,1,0,0:0:0:0:
64,192,61782,128,0,61860:0:0:0:0:
320,192,61860,128,0,61938:0:0:0:0:
448,192,61860,128,0,61938:0:0:0:0:
448,192,62016,128,0,62095:0:0:0:0:
64,192,62095,128,2,62563:0:0:0:0:
192,192,62095,128,8,62212:0:0:0:0:
320,192,62095,1,0,0:0:0:0:
192,192,62329,1,0,0:0:0:0:
192,192,62563,128,8,62641:0:0:0:0:
320,192,62563,1,2,0:0:0:0:
448,192,62563,128,0,62641:0:0:0:0:
64,192,62798,128,0,62876:0:0:0:0:
448,192,62798,128,0,62876:0:0:0:0:
64,192,63032,128,2,63110:0:0:0:0:
192,192,63032,1,8,0:0:0:0:
320,192,63032,128,0,63970:0:0:0:0:
448,192,63266,1,0,0:0:0:0:
64,192,63501,128,8,63735:0:0:0:0:
192,192,63501,1,2,0:0:0:0:
448,192,63501,1,0,0:0:0:0:
192,192,63735,1,0,0:0:0:0:
64,192,63970,1,2,0:0:0:0:
192,192,63970,1,8,0:0:0:0:
448,192,63970,1,0,0:0:0:0:
64,192,64204,1,8,0:0:0:0:
320,192,64204,1,2,0:0:0:0:
192,192,64438,1,2,0:0:0:0:
448,192,64438,1,8,0:0:0:0:
320,192,64673,1,8,0:0:0:0:
448,192,64673,1,2,0:0:0:0:
64,192,64907,1,2,0:0:0:0:
320,192,64907,1,8,0:0:0:0:
448,192,65024,1,8,0:0:0:0:
64,192,65141,1,8,0:0:0:0:
192,192,65141,1,2,0:0:0:0:
320,192,65259,1,8,0:0:0:0:
64,192,65376,1,2,0:0:0:0:
448,192,65376,1,8,0:0:0:0:
192,192,65493,1,8,0:0:0:0:
64,192,65610,1,8,0:0:0:0:
448,192,65610,1,2,0:0:0:0:
320,192,65727,1,8,0:0:0:0:
64,192,65845,1,0,0:0:0:0:
192,192,65845,128,0,65923:0:0:0:0:
320,192,66079,128,0,66157:0:0:0:0:
320,192,66313,128,0,66391:0:0:0:0:
448,192,66548,128,0,66626:0:0:0:0:
192,192,66782,128,0,66860:0:0:0:0:
192,192,67016,128,0,67104:0:0:0:0:
192,192,67251,128,0,67368:0:0:0:0:
192,192,67485,128,0,67632:0:0:0:0:
64,192,67710,1,2,0:0:0:0:
192,192,67710,1,4,0:0:0:0:
320,192,67710,128,0,67827:0:0:0:0:
448,192,67710,128,0,67827:0:0:0:0:
320,192,67944,1,0,0:0:0:0:
64,192,68178,128,8,68295:0:0:0:0:
192,192,68178,128,0,68530:0:0:0:0:
448,192,68178,128,0,68295:0:0:0:0:
320,192,68413,128,0,68530:0:0:0:0:
448,192,68413,128,0,68764:0:0:0:0:
64,192,68647,128,2,69116:0:0:0:0:
320,192,68647,128,0,68764:0:0:0:0:
192,192,68881,1,0,0:0:0:0:
192,192,69116,128,8,69194:0:0:0:0:
320,192,69116,1,0,0:0:0:0:
448,192,69116,128,0,69350:0:0:0:0:
192,192,69272,128,0,69350:0:0:0:0:
64,192,69350,128,0,69585:0:0:0:0:
320,192,69350,128,0,69428:0:0:0:0:
320,192,69506,128,0,69585:0:0:0:0:
192,192,69585,128,2,69702:0:0:0:0:
448,192,69585,128,0,70053:0:0:0:0:
64,192,69819,1,0,0:0:0:0:
64,192,70053,128,8,70131:0:0:0:0:
192,192,70053,128,0,70131:0:0:0:0:
320,192,70053,128,0,70131:0:0:0:0:
192,192,70288,128,0,70366:0:0:0:0:
448,192,70288,128,0,70366:0:0:0:0:
320,192,70522,128,2,70913:0:0:0:0:
448,192,70522,128,0,70600:0:0:0:0:
64,192,70756,1,0,0:0:0:0:
64,192,70991,1,8,0:0:0:0:
192,192,70991,1,0,0:0:0:0:
320,192,70991,128,0,71460:0:0:0:0:
448,192,71225,1,0,0:0:0:0:
64,192,71460,128,2,71577:0:0:0:0:
448,192,71460,128,0,71577:0:0:0:0:
192,192,71694,1,0,0:0:0:0:
320,192,71811,1,0,0:0:0:0:
64,192,71928,1,8,0:0:0:0:
192,192,71928,1,0,0:0:0:0:
448,192,71928,1,0,0:0:0:0:
64,192,72163,128,0,72514:0:0:0:0:
320,192,72163,128,0,72280:0:0:0:0:
320,192,72397,128,2,72866:0:0:0:0:
448,192,72397,128,0,72514:0:0:0:0:
192,192,72631,1,0,0:0:0:0:
64,192,72866,128,8,73100:0:0:0:0:
192,192,72866,128,0,72944:0:0:0:0:
448,192,72866,1,0,0:0:0:0:
192,192,73022,128,0,73100:0:0:0:0:
320,192,73100,128,0,73178:0:0:0:0:
448,192,73100,128,0,73335:0:0:0:0:
320,192,73256,128,0,73335:0:0:0:0:
64,192,73335,128,2,73452:0:0:0:0:
192,192,73335,128,0,73452:0:0:0:0:
320,192,73569,1,0,0:0:0:0:
64,192,73686,1,0,0:0:0:0:
192,192,73803,1,8,0:0:0:0:
320,192,73803,1,0,0:0:0:0:
448,192,73803,1,0,0:0:0:0:
64,192,74038,128,0,74116:0:0:0:0:
192,192,74038,128,0,74116:0:0:0:0:
64,192,74272,128,2,74350:0:0:0:0:
448,192,74272,128,0,74663:0:0:0:0:
320,192,74506,1,0,0:0:0:0:
192,192,74741,1,8,0:0:0:0:
320,192,74741,1,0,0:0:0:0:
448,192,74741,128,0,75210:0:0:0:0:
64,192,74975,1,0,0:0:0:0:
320,192,75092,1,0,0:0:0:0:
64,192,75210,128,2,75327:0:0:0:0:
192,192,75210,128,0,75327:0:0:0:0:
192,192,75444,1,0,0:0:0:0:
64,192,75678,128,8,75795:0:0:0:0:
320,192,75678,128,0,76030:0:0:0:0:
448,192,75678,128,0,75795:0:0:0:0:
64,192,75913,128,0,76264:0:0:0:0:
192,192,75913,128,0,76030:0:0:0:0:
192,192,76147,128,2,76264:0:0:0:0:
448,192,76147,128,0,76616:0:0:0:0:
320,192,76381,1,0,0:0:0:0:
64,192,76616,128,8,76850:0:0:0:0:
192,192,76616,1,0,0:0:0:0:
320,192,76616,128,0,76694:0:0:0:0:
320,192,76772,128,0,76850:0:0:0:0:
192,192,76850,128,0,76928:0:0:0:0:
448,192,76850,128,0,77085:0:0:0:0:
192,192,77006,128,0,77085:0:0:0:0:
64,192,77085,128,2,77553:0:0:0:0:
320,192,77085,128,0,77202:0:0:0:0:
448,192,77319,1,0,0:0:0:0:
192,192,77553,128,8,77631:0:0:0:0:
320,192,77553,128,0,77631:0:0:0:0:
448,192,77553,128,0,77631:0:0:0:0:
64,192,77788,128,0,77866:0:0:0:0:
320,192,77788,128,0,77866:0:0:0:0:
64,192,78022,128,2,78100:0:0:0:0:
192,192,78022,128,0,78413:0:0:0:0:
448,192,78256,1,0,0:0:0:0:
192,192,78491,128,8,78960:0:0:0:0:
320,192,78491,1,0,0:0:0:0:
448,192,78491,1,0,0:0:0:0:
64,192,78725,1,0,0:0:0:0:
64,192,78960,128,2,79077:0:0:0:0:
448,192,78960,128,0,79077:0:0:0:0:
320,192,79194,1,0,0:0:0:0:
192,192,79311,1,0,0:0:0:0:
64,192,79428,1,8,0:0:0:0:
320,192,79428,1,0,0:0:0:0:
448,192,79428,1,0,0:0:0:0:
192,192,79663,128,0,79780:0:0:0:0:
448,192,79663,128,0,80014:0:0:0:0:
64,192,79897,128,2,80014:0:0:0:0:
192,192,79897,128,0,80366:0:0:0:0:
320,192,80131,1,0,0:0:0:0:
64,192,80366,1,8,0:0:0:0:
320,192,80366,128,0,80444:0:0:0:0:
448,192,80366,128,0,80600:0:0:0:0:
320,192,80522,128,0,80600:0:0:0:0:
64,192,80600,128,0,80835:0:0:0:0:
192,192,80600,128,0,80678:0:0:0:0:
192,192,80756,128,0,80835:0:0:0:0:
320,192,80835,128,2,80952:0:0:0:0:
448,192,80835,128,0,80952:0:0:0:0:
192,192,81069,1,0,0:0:0:0:
448,192,81186,1,0,0:0:0:0:
64,192,81303,1,8,0:0:0:0:
192,192,81303,1,0,0:0:0:0:
320,192,81303,1,0,0:0:0:0:
320,192,81538,128,0,81616:0:0:0:0:
448,192,81538,128,0,81616:0:0:0:0:
64,192,81772,128,2,82124:0:0:0:0:
448,192,81772,128,0,82358:0:0:0:0:
192,192,82006,128,0,82124:0:0:0:0:
64,192,82241,128,8,82358:0:0:0:0:
192,192,82241,128,0,82358:0:0:0:0:
320,192,82241,128,0,82592:0:0:0:0:
64,192,82475,128,0,82592:0:0:0:0:
448,192,82475,128,0,82592:0:0:0:0:
64,192,82710,1,2,0:0:0:0:
192,192,82710,128,4,82827:0:0:0:0:
320,192,82710,128,0,82827:0:0:0:0:
448,192,82710,1,0,0:0:0:0:
192,192,82944,1,4,0:0:0:90:hat.wav
64,192,83178,128,8,83530:0:0:0:0:
320,192,83178,128,0,83764:0:0:0:0:
448,192,83178,128,0,83295:0:0:0:0:
192,192,83413,128,4,83530:0:0:0:90:hat.wav
448,192,83413,128,0,83764:0:0:0:0:
64,192,83647,128,2,84116:0:0:0:0:
192,192,83647,128,0,83764:0:0:0:0:
320,192,83881,1,4,0:0:0:90:hat.wav
192,192,84116,128,8,84194:0:0:0:0:
320,192,84116,1,0,0:0:0:0:
448,192,84116,128,0,84428:0:0:0:0:
192,192,84272,128,0,84428:0:0:0:0:
64,192,84350,128,4,84702:0:0:0:90:hat.wav
320,192,84350,128,0,84428:0:0:0:0:
320,192,84506,128,0,84702:0:0:0:0:
192,192,84585,128,2,84702:0:0:0:0:
448,192,84585,128,0,85053:0:0:0:0:
64,192,84819,1,4,0:0:0:90:hat.wav
64,192,85053,1,8,0:0:0:0:
192,192,85053,1,0,0:0:0:0:
320,192,85053,1,0,0:0:0:0:
192,192,85288,128,4,85366:0:0:0:90:hat.wav
448,192,85288,128,0,85366:0:0:0:0:
64,192,85522,128,2,85913:0:0:0:0:
448,192,85522,128,0,85756:0:0:0:0:
320,192,85756,1,4,0:0:0:90:hat.wav
64,192,85991,128,8,86460:0:0:0:0:
320,192,85991,1,0,0:0:0:0:
448,192,85991,128,0,86342:0:0:0:0:
192,192,86225,1,4,0:0:0:90:hat.wav
192,192,86460,128,2,86577:0:0:0:0:
448,192,86460,128,0,86577:0:0:0:0:
448,192,86694,1,4,0:0:0:90:hat.wav
64,192,86928,1,8,0:0:0:0:
192,192,86928,1,0,0:0:0:0:
320,192,86928,1,0,0:0:0:0:
64,192,87163,128,4,87241:0:0:0:90:hat.wav
448,192,87163,128,0,87241:0:0:0:0:
192,192,87397,128,2,87866:0:0:0:0:
448,192,87397,128,0,87631:0:0:0:0:
320,192,87631,1,4,0:0:0:90:hat.wav
64,192,87866,1,8,0:0:0:0:
320,192,87866,128,0,87944:0:0:0:0:
448,192,87866,128,0,88178:0:0:0:0:
320,192,88022,128,0,88178:0:0:0:0:
64,192,88100,128,4,88452:0:0:0:90:hat.wav
192,192,88100,128,0,88178:0:0:0:0:
192,192,88256,128,0,88452:0:0:0:0:
320,192,88335,128,2,88452:0:0:0:0:
448,192,88335,128,0,88452:0:0:0:0:
192,192,88569,1,4,0:0:0:90:hat.wav
64,192,88803,128,8,88881:0:0:0:0:
192,192,88803,128,0,88881:0:0:0:0:
448,192,88803,128,0,88881:0:0:0:0:
320,192,89038,128,4,89116:0:0:0:90:hat.wav
448,192,89038,128,0,89116:0:0:0:0:
64,192,89272,128,2,89663:0:0:0:0:
320,192,89272,128,0,89506:0:0:0:0:
448,192,89506,1,4,0:0:0:90:hat.wav
64,192,89741,128,8,90210:0:0:0:0:
192,192,89741,1,0,0:0:0:0:
320,192,89741,128,0,90092:0:0:0:0:
448,192,89975,1,4,0:0:0:90:hat.wav
192,192,90210,128,2,90327:0:0:0:0:
320,192,90210,128,0,90327:0:0:0:0:
320,192,90444,1,4,0:0:0:90:hat.wav
64,192,90678,128,8,90795:0:0:0:0:
192,192,90678,128,0,91264:0:0:0:0:
448,192,90678,128,0,91030:0:0:0:0:
64,192,90913,128,4,91264:0:0:0:90:hat.wav
320,192,90913,128,0,91030:0:0:0:0:
320,192,91147,128,2,91264:0:0:0:0:
448,192,91147,128,0,91499:0:0:0:0:
192,192,91381,1,4,0:0:0:90:hat.wav
64,192,91616,128,8,91928:0:0:0:0:
192,192,91616,1,0,0:0:0:0:
320,192,91616,128,0,91694:0:0:0:0:
320,192,91772,128,0,91928:0:0:0:0:
192,192,91850,128,4,91928:0:0:0:90:hat.wav
448,192,91850,128,0,92202:0:0:0:0:
192,192,92006,128,0,92202:0:0:0:0:
64,192,92085,128,2,92553:0:0:0:0:
320,192,92085,128,0,92202:0:0:0:0:
448,192,92319,1,4,0:0:0:90:hat.wav
192,192,92553,1,8,0:0:0:0:
320,192,92553,1,0,0:0:0:0:
448,192,92553,1,0,0:0:0:0:
64,192,92788,128,4,92866:0:0:0:90:hat.wav
320,192,92788,128,0,92866:0:0:0:0:
64,192,93022,128,2,93256:0:0:0:0:
448,192,93022,128,0,93413:0:0:0:0:
192,192,93256,1,4,0:0:0:90:hat.wav
64,192,93491,128,8,93842:0:0:0:0:
192,192,93491,1,0,0:0:0:0:
448,192,93491,128,0,93960:0:0:0:0:
320,192,93725,1,4,0:0:0:90:hat.wav
64,192,93960,128,2,94077:0:0:0:0:
320,192,93960,128,0,94077:0:0:0:0:
64,192,94194,1,4,0:0:0:90:hat.wav
192,192,94428,1,8,0:0:0:0:
320,192,94428,1,0,0:0:0:0:
448,192,94428,1,0,0:0:0:0:
64,192,94663,128,4,94741:0:0:0:90:hat.wav
448,192,94663,128,0,94741:0:0:0:0:
64,192,94897,128,2,95131:0:0:0:0:
320,192,94897,128,0,95366:0:0:0:0:
192,192,95131,1,4,0:0:0:90:hat.wav
64,192,95366,128,8,95678:0:0:0:0:
192,192,95366,128,0,95444:0:0:0:0:
448,192,95366,1,0,0:0:0:0:
192,192,95522,128,0,95678:0:0:0:0:
320,192,95600,128,4,95678:0:0:0:90:hat.wav
448,192,95600,128,0,95952:0:0:0:0:
320,192,95756,128,0,95952:0:0:0:0:
64,192,95835,128,2,95952:0:0:0:0:
192,192,95835,128,0,95952:0:0:0:0:
320,192,96069,1,4,0:0:0:90:hat.wav
64,192,96303,128,8,96381:0:0:0:0:
320,192,96303,128,0,96381:0:0:0:0:
448,192,96303,128,0,96381:0:0:0:0:
64,192,96538,128,4,96616:0:0:0:90:hat.wav
192,192,96538,128,0,96616:0:0:0:0:
192,192,96772,128,2,97006:0:0:0:0:
448,192,96772,128,0,97163:0:0:0:0:
64,192,97006,1,4,0:0:0:90:hat.wav
192,192,97241,128,8,97592:0:0:0:0:
320,192,97241,1,0,0:0:0:0:
448,192,97241,128,0,97710:0:0:0:0:
64,192,97475,1,4,0:0:0:90:hat.wav
