osu file format v14

[General]
AudioFilename: audio.mp3
AudioLeadIn: 0
PreviewTime: 50298
Countdown: 0
SampleSet: Soft
StackLeniency: 0.7
Mode: 3
LetterboxInBreaks: 0
SpecialStyle: 0
WidescreenStoryboard: 1

[Editor]
DistanceSpacing: 0.5
BeatDivisor: 4
GridSize: 8
TimelineZoom: 1.3

[Metadata]
Title:The Spectre (Cut Ver.)
TitleUnicode:The Spectre (Cut Ver.)
Artist:Alan Walker
ArtistUnicode:Alan Walker
Creator:Irone OSU
Version:Normal
Source:
Tags:realistic smurf cat blue mushroom cat meme Шайлушай Shailushai nate hallinan smurf sighting we live. we love. we lie. electronic dance music edm house techno english Anders Frøen Froeen Froen Jesper Borgen Lars Kristian Rosness Marcus Arnbekk Mood Melodies Fredrik Borch Olsen Gunnar Greve Tommy LaVerdi
BeatmapID:4315622
BeatmapSetID:2063378

[Difficulty]
HPDrainRate:7
CircleSize:4
OverallDifficulty:7
ApproachRate:5
SliderMultiplier:1.4
SliderTickRate:1

[Events]
//Background and Video events
0,0,"smurf.jpg",0,0
//Break Periods
//Storyboard Layer 0 (Background)
//Storyboard Layer 1 (Fail)
//Storyboard Layer 2 (Pass)
//Storyboard Layer 3 (Foreground)
//Storyboard Layer 4 (Overlay)
//Storyboard Sound Samples

[TimingPoints]
220,468.75,4,2,1,40,1,0
7720,-100,4,2,1,50,0,0
22720,-100,4,2,1,55,0,0
37720,-100,4,2,1,60,0,0
52720,-100,4,2,1,65,0,0
60220,-100,4,2,1,70,0,0
65845,-100,4,2,1,40,0,0
66782,-100,4,2,1,45,0,0
67016,-100,4,2,1,50,0,0
67251,-100,4,2,1,55,0,0
67485,-100,4,2,1,60,0,0
67710,468.75,4,2,1,80,1,1
67710,-100,4,2,1,80,0,1
82710,-100,4,2,1,90,0,1
97710,-100,4,2,1,20,0,0

[HitObjects]
64,192,220,128,0,454:0:0:0:0:
192,192,688,128,0,923:0:0:0:0:
448,192,1157,128,0,2095:0:0:0:0:
192,192,2095,128,0,2329:0:0:0:0:
448,192,2563,128,0,2798:0:0:0:0:
64,192,3032,128,0,3970:0:0:0:0:
320,192,3970,128,0,4204:0:0:0:0:
64,192,4438,128,0,4673:0:0:0:0:
192,192,4907,128,0,5845:0:0:0:0:
448,192,5845,128,0,6079:0:0:0:0:
320,192,6313,128,0,6548:0:0:0:0:
64,192,6782,128,0,7720:0:0:0:0:
320,192,7720,1,2,0:0:0:0:
448,192,7720,1,4,0:0:0:30:soft-hitfinish.wav
448,192,8188,1,0,0:0:0:0:
192,192,8423,128,0,8657:0:0:0:0:
320,192,8657,128,0,8891:0:0:0:0:
192,192,8891,128,0,9126:0:0:0:0:
448,192,9126,128,0,10063:0:0:0:0:
64,192,9595,1,0,0:0:0:0:
320,192,10063,1,0,0:0:0:0:
64,192,10298,128,0,10532:0:0:0:0:
448,192,10532,1,0,0:0:0:0:
192,192,10766,128,0,11001:0:0:0:0:
320,192,11001,1,0,0:0:0:0:
64,192,11235,128,0,11938:0:0:0:0:
448,192,11470,1,0,0:0:0:0:
192,192,11938,1,0,0:0:0:0:
320,192,12173,128,0,12876:0:0:0:0:
64,192,12407,1,0,0:0:0:0:
64,192,12876,1,0,0:0:0:0:
192,192,13345,1,0,0:0:0:0:
448,192,13345,128,0,13696:0:0:0:0:
320,192,13696,128,0,14048:0:0:0:0:
64,192,13813,1,0,0:0:0:0:
192,192,14048,128,0,14282:0:0:0:0:
448,192,14282,1,0,0:0:0:0:
192,192,14516,128,0,14751:0:0:0:0:
320,192,14751,1,0,0:0:0:0:
64,192,14985,128,0,15454:0:0:0:0:
448,192,15220,1,0,0:0:0:0:
64,192,15688,1,0,0:0:0:0:
320,192,15923,128,0,16157:0:0:0:0:
192,192,16157,128,0,16391:0:0:0:0:
320,192,16391,128,0,16626:0:0:0:0:
64,192,16626,128,0,17563:0:0:0:0:
448,192,17095,1,0,0:0:0:0:
192,192,17563,1,0,0:0:0:0:
448,192,17798,128,0,18032:0:0:0:0:
64,192,18032,1,0,0:0:0:0:
320,192,18266,128,0,18501:0:0:0:0:
192,192,18501,1,0,0:0:0:0:
448,192,18735,128,0,19438:0:0:0:0:
64,192,18970,1,0,0:0:0:0:
320,192,19438,1,0,0:0:0:0:
192,192,19673,128,0,20376:0:0:0:0:
448,192,19907,1,0,0:0:0:0:
320,192,20376,1,0,0:0:0:0:
448,192,20610,128,0,20845:0:0:0:0:
64,192,20845,128,0,21196:0:0:0:0:
192,192,21196,128,0,21548:0:0:0:0:
448,192,21313,1,0,0:0:0:0:
320,192,21548,128,0,22016:0:0:0:0:
64,192,21782,1,0,0:0:0:0:
64,192,22251,128,0,22485:0:0:0:0:
448,192,22485,128,0,22720:0:0:0:0:
64,192,22720,1,0,0:0:0:0:
192,192,22720,1,0,0:0:0:0:
192,192,23188,1,0,0:0:0:0:
320,192,23423,128,0,23657:0:0:0:0:
64,192,23657,128,0,23891:0:0:0:0:
448,192,23891,128,0,24126:0:0:0:0:
192,192,24126,128,0,24360:0:0:0:0:
320,192,24360,128,0,24595:0:0:0:0:
64,192,24595,128,0,25298:0:0:0:0:
448,192,24595,1,0,0:0:0:0:
320,192,25063,1,0,0:0:0:0:
192,192,25532,128,0,26235:0:0:0:0:
448,192,25532,1,0,0:0:0:0:
320,192,26001,1,0,0:0:0:0:
64,192,26470,1,0,0:0:0:0:
320,192,26470,128,0,27173:0:0:0:0:
192,192,26938,1,0,0:0:0:0:
64,192,27407,1,0,0:0:0:0:
320,192,27876,1,0,0:0:0:0:
64,192,28110,128,0,28345:0:0:0:0:
320,192,28345,1,0,0:0:0:0:
448,192,28345,128,0,28696:0:0:0:0:
192,192,28696,128,0,29048:0:0:0:0:
64,192,28813,1,0,0:0:0:0:
320,192,29048,128,0,29516:0:0:0:0:
448,192,29282,1,0,0:0:0:0:
64,192,29751,128,0,29985:0:0:0:0:
192,192,29985,128,0,30220:0:0:0:0:
320,192,30220,1,0,0:0:0:0:
448,192,30220,1,0,0:0:0:0:
192,192,30688,1,0,0:0:0:0:
448,192,31157,128,0,31391:0:0:0:0:
64,192,31391,128,0,31626:0:0:0:0:
320,192,31626,128,0,31860:0:0:0:0:
192,192,31860,128,0,32095:0:0:0:0:
64,192,32095,1,0,0:0:0:0:
448,192,32095,128,0,32798:0:0:0:0:
192,192,32563,1,0,0:0:0:0:
64,192,33032,1,0,0:0:0:0:
320,192,33032,128,0,33735:0:0:0:0:
192,192,33501,1,0,0:0:0:0:
192,192,33970,128,0,34673:0:0:0:0:
448,192,33970,1,0,0:0:0:0:
320,192,34438,1,0,0:0:0:0:
448,192,34907,1,0,0:0:0:0:
64,192,35376,128,0,35610:0:0:0:0:
448,192,35610,128,0,35845:0:0:0:0:
192,192,35845,1,0,0:0:0:0:
320,192,35845,1,0,0:0:0:0:
320,192,36313,128,0,36548:0:0:0:0:
192,192,36548,128,0,36782:0:0:0:0:
64,192,36782,1,0,0:0:0:0:
448,192,36782,1,0,0:0:0:0:
192,192,37251,128,0,37485:0:0:0:0:
320,192,37485,128,0,37720:0:0:0:0:
64,192,37720,1,2,0:0:0:0:
192,192,37720,1,0,0:0:0:0:
320,192,38188,1,0,0:0:0:0:
64,192,38657,128,0,38891:0:0:0:70:soft-hitnormal.wav
192,192,38657,1,0,0:0:0:0:
320,192,38891,128,0,39126:0:0:0:0:
192,192,39126,128,0,39360:0:0:0:0:
448,192,39360,128,0,39829:0:0:0:0:
64,192,39595,1,0,0:0:0:0:
448,192,40063,128,0,40298:0:0:0:0:
192,192,40298,128,0,40532:0:0:0:0:
64,192,40532,1,0,0:0:0:70:soft-hitnormal.wav
320,192,40532,128,0,40884:0:0:0:0:
448,192,40884,128,0,41235:0:0:0:0:
64,192,41235,1,0,0:0:0:70:soft-hitnormal.wav
192,192,41235,128,0,41470:0:0:0:0:
320,192,41470,1,2,0:0:0:0:
448,192,41470,1,0,0:0:0:0:
192,192,41938,1,0,0:0:0:0:
64,192,42407,1,0,0:0:0:70:soft-hitnormal.wav
448,192,42407,1,0,0:0:0:0:
320,192,42641,128,0,42876:0:0:0:0:
64,192,42876,128,0,43110:0:0:0:0:
448,192,43110,128,0,43579:0:0:0:0:
192,192,43345,1,0,0:0:0:0:
320,192,43813,128,0,44048:0:0:0:0:
192,192,44048,128,0,44282:0:0:0:0:
64,192,44282,1,0,0:0:0:70:soft-hitnormal.wav
448,192,44282,1,0,0:0:0:0:
320,192,44516,128,0,44751:0:0:0:0:
64,192,44751,128,0,45220:0:0:0:0:
320,192,45220,1,2,0:0:0:0:
448,192,45220,1,0,0:0:0:0:
192,192,45688,1,0,0:0:0:0:
320,192,46157,1,0,0:0:0:70:soft-hitnormal.wav
448,192,46157,128,0,46391:0:0:0:0:
192,192,46391,128,0,46626:0:0:0:0:
320,192,46626,128,0,46860:0:0:0:0:
64,192,46860,128,0,47329:0:0:0:0:
448,192,47095,1,0,0:0:0:0:
64,192,47563,128,0,47798:0:0:0:0:
320,192,47798,128,0,48032:0:0:0:0:
192,192,48032,128,0,48384:0:0:0:70:soft-hitnormal.wav
448,192,48032,1,0,0:0:0:0:
64,192,48384,128,0,48735:0:0:0:0:
320,192,48735,128,0,48970:0:0:0:70:soft-hitnormal.wav
448,192,48735,1,0,0:0:0:0:
64,192,48970,1,2,0:0:0:0:
192,192,48970,1,0,0:0:0:0:
320,192,49438,1,0,0:0:0:0:
64,192,49907,1,0,0:0:0:70:soft-hitnormal.wav
448,192,49907,1,0,0:0:0:0:
448,192,50376,128,0,50845:0:0:0:0:
64,192,50610,128,0,50845:0:0:0:0:
320,192,50845,1,0,0:0:0:0:
192,192,51313,128,0,51782:0:0:0:0:
320,192,51548,128,0,51782:0:0:0:0:
64,192,51782,1,0,0:0:0:0:
448,192,52251,128,0,52720:0:0:0:0:
320,192,52485,128,0,52720:0:0:0:0:
64,192,52720,128,0,52954:0:0:0:0:
448,192,52954,1,0,0:0:0:0:
320,192,53188,128,0,53423:0:0:0:0:
192,192,53423,128,0,53657:0:0:0:0:
64,192,53657,128,0,54126:0:0:0:0:
320,192,53891,1,0,0:0:0:0:
448,192,54126,128,0,54360:0:0:0:0:
192,192,54360,128,0,54595:0:0:0:0:
448,192,54595,128,0,55063:0:0:0:0:
64,192,54829,1,0,0:0:0:0:
320,192,55063,1,0,0:0:0:0:
448,192,55298,1,0,0:0:0:0:
192,192,55532,128,0,56470:0:0:0:0:
64,192,55766,1,0,0:0:0:0:
448,192,56001,1,0,0:0:0:0:
320,192,56235,1,0,0:0:0:0:
448,192,56470,128,0,56704:0:0:0:0:
64,192,56704,1,0,0:0:0:0:
192,192,56938,128,0,57173:0:0:0:0:
320,192,57173,128,0,57407:0:0:0:0:
448,192,57407,128,0,57876:0:0:0:0:
192,192,57641,1,0,0:0:0:0:
320,192,57876,128,0,58110:0:0:0:0:
64,192,58110,128,0,58345:0:0:0:0:
320,192,58345,128,0,58579:0:0:0:0:
192,192,58579,1,0,0:0:0:0:
64,192,58813,128,0,59048:0:0:0:0:
448,192,59048,128,0,59282:0:0:0:0:
192,192,59282,128,0,60220:0:0:0:0:
448,192,59516,1,0,0:0:0:0:
320,192,59751,1,0,0:0:0:0:
64,192,59985,1,0,0:0:0:0:
320,192,60220,1,2,0:0:0:0:
448,192,60220,128,8,60454:0:0:0:0:
192,192,60454,1,0,0:0:0:0:
64,192,60688,1,2,0:0:0:0:
320,192,60688,128,8,60923:0:0:0:0:
192,192,60923,128,0,61157:0:0:0:0:
320,192,61157,1,2,0:0:0:0:
448,192,61157,128,8,61626:0:0:0:0:
64,192,61391,1,0,0:0:0:0:
192,192,61626,128,2,61860:0:0:0:0:
320,192,61626,1,8,0:0:0:0:
448,192,61860,128,0,62095:0:0:0:0:
64,192,62095,1,2,0:0:0:0:
192,192,62095,128,8,62563:0:0:0:0:
448,192,62329,1,0,0:0:0:0:
64,192,62563,1,8,0:0:0:0:
320,192,62563,128,2,62798:0:0:0:0:
192,192,62798,128,0,63032:0:0:0:0:
320,192,63032,1,2,0:0:0:0:
448,192,63032,128,8,63970:0:0:0:0:
64,192,63266,1,0,0:0:0:0:
192,192,63501,1,8,0:0:0:0:
320,192,63501,1,2,0:0:0:0:
64,192,63735,1,0,0:0:0:0:
192,192,63970,1,2,0:0:0:0:
320,192,63970,1,8,0:0:0:0:
448,192,64204,1,10,0:0:0:0:
64,192,64438,1,2,0:0:0:0:
192,192,64438,1,8,0:0:0:0:
320,192,64673,1,8,0:0:0:0:
448,192,64673,1,2,0:0:0:0:
64,192,64907,1,2,0:0:0:0:
192,192,64907,1,8,0:0:0:0:
320,192,65141,1,10,0:0:0:0:
64,192,65376,1,10,0:0:0:0:
192,192,65493,1,8,0:0:0:0:
320,192,65610,1,10,0:0:0:0:
448,192,65727,1,8,0:0:0:0:
64,192,65845,1,0,0:0:0:0:
192,192,66079,1,0,0:0:0:0:
320,192,66313,1,0,0:0:0:0:
448,192,66548,1,0,0:0:0:0:
192,192,66782,1,0,0:0:0:0:
320,192,67016,1,0,0:0:0:0:
192,192,67251,1,0,0:0:0:0:
192,192,67485,1,0,0:0:0:0:
64,192,67710,1,2,0:0:0:0:
448,192,67710,128,4,67944:0:0:0:0:
192,192,67944,1,0,0:0:0:0:
64,192,68178,128,8,68413:0:0:0:0:
320,192,68178,1,0,0:0:0:0:
448,192,68413,128,0,68647:0:0:0:0:
64,192,68647,1,2,0:0:0:0:
192,192,68647,128,0,69116:0:0:0:0:
320,192,68881,1,0,0:0:0:0:
64,192,69116,1,8,0:0:0:0:
448,192,69116,128,0,69350:0:0:0:0:
192,192,69350,128,0,69585:0:0:0:0:
320,192,69585,1,2,0:0:0:0:
448,192,69585,128,0,70053:0:0:0:0:
64,192,69819,1,0,0:0:0:0:
192,192,70053,1,8,0:0:0:0:
320,192,70053,128,0,70288:0:0:0:0:
64,192,70288,128,0,70522:0:0:0:0:
320,192,70522,1,2,0:0:0:0:
448,192,70522,128,0,70991:0:0:0:0:
64,192,70756,1,0,0:0:0:0:
192,192,70991,1,8,0:0:0:0:
320,192,70991,128,0,71460:0:0:0:0:
64,192,71225,1,0,0:0:0:0:
192,192,71460,128,2,71694:0:0:0:0:
448,192,71460,1,0,0:0:0:0:
320,192,71694,1,0,0:0:0:0:
192,192,71928,1,8,0:0:0:0:
448,192,71928,1,0,0:0:0:0:
64,192,72163,128,0,72397:0:0:0:0:
320,192,72397,1,2,0:0:0:0:
448,192,72397,128,0,72866:0:0:0:0:
192,192,72631,1,0,0:0:0:0:
64,192,72866,128,8,73100:0:0:0:0:
320,192,72866,1,0,0:0:0:0:
448,192,73100,128,0,73335:0:0:0:0:
64,192,73335,128,2,73569:0:0:0:0:
192,192,73335,1,0,0:0:0:0:
448,192,73569,1,0,0:0:0:0:
192,192,73803,1,8,0:0:0:0:
320,192,73803,1,0,0:0:0:0:
64,192,74038,128,0,74272:0:0:0:0:
192,192,74272,128,2,74741:0:0:0:0:
320,192,74272,1,0,0:0:0:0:
448,192,74506,1,0,0:0:0:0:
64,192,74741,1,8,0:0:0:0:
320,192,74741,128,0,75210:0:0:0:0:
448,192,74975,1,0,0:0:0:0:
64,192,75210,128,2,75444:0:0:0:0:
192,192,75210,1,0,0:0:0:0:
320,192,75444,1,0,0:0:0:0:
192,192,75678,1,8,0:0:0:0:
448,192,75678,128,0,75913:0:0:0:0:
64,192,75913,128,0,76147:0:0:0:0:
320,192,76147,128,2,76616:0:0:0:0:
448,192,76147,1,0,0:0:0:0:
192,192,76381,1,0,0:0:0:0:
64,192,76616,128,8,76850:0:0:0:0:
448,192,76616,1,0,0:0:0:0:
320,192,76850,128,0,77085:0:0:0:0:
64,192,77085,128,2,77553:0:0:0:0:
192,192,77085,1,0,0:0:0:0:
448,192,77319,1,0,0:0:0:0:
192,192,77553,128,8,77788:0:0:0:0:
320,192,77553,1,0,0:0:0:0:
448,192,77788,128,0,78022:0:0:0:0:
64,192,78022,128,2,78491:0:0:0:0:
192,192,78022,1,0,0:0:0:0:
448,192,78256,1,0,0:0:0:0:
192,192,78491,128,8,78960:0:0:0:0:
320,192,78491,1,0,0:0:0:0:
448,192,78725,1,0,0:0:0:0:
64,192,78960,1,2,0:0:0:0:
320,192,78960,128,0,79194:0:0:0:0:
192,192,79194,1,0,0:0:0:0:
64,192,79428,1,8,0:0:0:0:
320,192,79428,1,0,0:0:0:0:
448,192,79663,128,0,79897:0:0:0:0:
64,192,79897,128,2,80366:0:0:0:0:
192,192,79897,1,0,0:0:0:0:
320,192,80131,1,0,0:0:0:0:
192,192,80366,1,8,0:0:0:0:
448,192,80366,128,0,80600:0:0:0:0:
64,192,80600,128,0,80835:0:0:0:0:
320,192,80835,1,2,0:0:0:0:
448,192,80835,128,0,81069:0:0:0:0:
64,192,81069,1,0,0:0:0:0:
192,192,81303,1,8,0:0:0:0:
320,192,81303,1,0,0:0:0:0:
448,192,81538,128,0,81772:0:0:0:0:
192,192,81772,1,2,0:0:0:0:
320,192,81772,128,0,82006:0:0:0:0:
64,192,82006,128,0,82241:0:0:0:0:
320,192,82241,1,8,0:0:0:0:
448,192,82241,128,0,82475:0:0:0:0:
192,192,82475,128,0,82710:0:0:0:0:
64,192,82710,1,2,0:0:0:0:
320,192,82710,128,4,82944:0:0:0:0:
192,192,82944,1,4,0:0:0:90:hat.wav
64,192,83178,1,8,0:0:0:0:
448,192,83178,128,0,83413:0:0:0:0:
320,192,83413,128,4,83647:0:0:0:90:hat.wav
64,192,83647,128,2,84116:0:0:0:0:
192,192,83647,1,0,0:0:0:0:
448,192,83881,1,4,0:0:0:90:hat.wav
192,192,84116,1,8,0:0:0:0:
320,192,84116,128,0,84350:0:0:0:0:
64,192,84350,128,4,84585:0:0:0:90:hat.wav
320,192,84585,128,2,85053:0:0:0:0:
448,192,84585,1,0,0:0:0:0:
64,192,84819,1,4,0:0:0:90:hat.wav
192,192,85053,1,8,0:0:0:0:
448,192,85053,1,0,0:0:0:0:
64,192,85288,128,4,85522:0:0:0:90:hat.wav
320,192,85522,128,2,85991:0:0:0:0:
448,192,85522,1,0,0:0:0:0:
64,192,85756,1,4,0:0:0:90:hat.wav
192,192,85991,128,8,86460:0:0:0:0:
448,192,85991,1,0,0:0:0:0:
320,192,86225,1,4,0:0:0:90:hat.wav
64,192,86460,1,2,0:0:0:0:
448,192,86460,128,0,86694:0:0:0:0:
192,192,86694,1,4,0:0:0:90:hat.wav
64,192,86928,1,8,0:0:0:0:
320,192,86928,1,0,0:0:0:0:
448,192,87163,128,4,87397:0:0:0:90:hat.wav
192,192,87397,128,2,87866:0:0:0:0:
320,192,87397,1,0,0:0:0:0:
64,192,87631,1,4,0:0:0:90:hat.wav
320,192,87866,128,8,88100:0:0:0:0:
448,192,87866,1,0,0:0:0:0:
192,192,88100,128,4,88335:0:0:0:90:hat.wav
64,192,88335,1,2,0:0:0:0:
320,192,88335,128,0,88569:0:0:0:0:
192,192,88569,1,4,0:0:0:90:hat.wav
320,192,88803,1,8,0:0:0:0:
448,192,88803,128,0,89038:0:0:0:0:
192,192,89038,128,4,89272:0:0:0:90:hat.wav
64,192,89272,1,2,0:0:0:0:
320,192,89272,128,0,89741:0:0:0:0:
192,192,89506,1,4,0:0:0:90:hat.wav
64,192,89741,1,8,0:0:0:0:
448,192,89741,128,0,90210:0:0:0:0:
320,192,89975,1,4,0:0:0:90:hat.wav
64,192,90210,1,2,0:0:0:0:
192,192,90210,128,0,90444:0:0:0:0:
320,192,90444,1,4,0:0:0:90:hat.wav
64,192,90678,128,8,90913:0:0:0:0:
448,192,90678,1,0,0:0:0:0:
192,192,90913,128,4,91147:0:0:0:90:hat.wav
320,192,91147,1,2,0:0:0:0:
448,192,91147,128,0,91616:0:0:0:0:
64,192,91381,1,4,0:0:0:90:hat.wav
192,192,91616,128,8,91850:0:0:0:0:
320,192,91616,1,0,0:0:0:0:
448,192,91850,128,4,92085:0:0:0:90:hat.wav
64,192,92085,1,2,0:0:0:0:
192,192,92085,128,0,92553:0:0:0:0:
448,192,92319,1,4,0:0:0:90:hat.wav
64,192,92553,1,8,0:0:0:0:
320,192,92553,1,0,0:0:0:0:
448,192,92788,128,4,93022:0:0:0:90:hat.wav
64,192,93022,1,2,0:0:0:0:
192,192,93022,128,0,93491:0:0:0:0:
448,192,93256,1,4,0:0:0:90:hat.wav
64,192,93491,1,8,0:0:0:0:
320,192,93491,128,0,93960:0:0:0:0:
192,192,93725,1,4,0:0:0:90:hat.wav
64,192,93960,128,2,94194:0:0:0:0:
448,192,93960,1,0,0:0:0:0:
320,192,94194,1,4,0:0:0:90:hat.wav
192,192,94428,1,8,0:0:0:0:
448,192,94428,1,0,0:0:0:0:
64,192,94663,128,4,94897:0:0:0:90:hat.wav
192,192,94897,1,2,0:0:0:0:
320,192,94897,128,0,95366:0:0:0:0:
448,192,95131,1,4,0:0:0:90:hat.wav
64,192,95366,1,8,0:0:0:0:
192,192,95366,128,0,95600:0:0:0:0:
320,192,95600,128,4,95835:0:0:0:90:hat.wav
192,192,95835,128,2,96069:0:0:0:0:
448,192,95835,1,0,0:0:0:0:
320,192,96069,1,4,0:0:0:90:hat.wav
64,192,96303,1,8,0:0:0:0:
192,192,96303,128,0,96538:0:0:0:0:
320,192,96538,128,4,96772:0:0:0:90:hat.wav
192,192,96772,128,2,97241:0:0:0:0:
448,192,96772,1,0,0:0:0:0:
320,192,97006,1,4,0:0:0:90:hat.wav
64,192,97241,128,8,97710:0:0:0:0:
448,192,97241,1,0,0:0:0:0:
192,192,97475,1,4,0:0:0:90:hat.wav
