osu file format v14

[General]
AudioFilename: audio.mp3
AudioLeadIn: 0
PreviewTime: 24533
Countdown: 1
SampleSet: Normal
StackLeniency: 0.7
Mode: 0
LetterboxInBreaks: 0
WidescreenStoryboard: 1

[Editor]
DistanceSpacing: 1.4
BeatDivisor: 4
GridSize: 4
TimelineZoom: 1

[Metadata]
Title:Sing Me To Sleep (Marshmello remix) (Cole Rolland guitar remix)
TitleUnicode:Sing Me To Sleep (Marshmello remix) (Cole Rolland guitar remix)
Artist:Alan Walker
ArtistUnicode:Alan Walker
Creator:FireAce62
Version:Insane
Source:
Tags:
BeatmapID:1875273
BeatmapSetID:896904

[Difficulty]
HPDrainRate:6
CircleSize:3.5
OverallDifficulty:6.5
ApproachRate:9
SliderMultiplier:1.8
SliderTickRate:1

[Events]
//Background and Video events
0,0,"stretched-1920-1080-921152.jpg",0,0
//Break Periods
2,42258,44131
2,61862,63141
2,83098,84378
2,137455,138586
2,166119,167695
//Storyboard Layer 0 (Background)
//Storyboard Layer 1 (Fail)
//Storyboard Layer 2 (Pass)
//Storyboard Layer 3 (Foreground)
//Storyboard Sound Samples

[TimingPoints]
6712,594.059405940594,4,1,0,50,1,0
25721,-66.6666666666667,4,1,0,50,0,0
44583,-100,4,1,0,50,0,0
54236,-66.6666666666667,4,1,0,50,0,0
61959,-66.6666666666667,4,1,0,50,0,1
63741,594.059405940594,4,1,0,50,1,1
81511,-66.6666666666667,4,1,0,50,0,1
82899,-100,4,1,0,50,0,0
110968,-33.3333333333333,4,1,0,50,0,0
111414,-66.6666666666667,4,1,0,50,0,0
119137,-66.6666666666667,4,1,0,50,0,1
158790,-66.6666666666667,4,1,0,50,0,0
159978,-100,4,1,0,50,0,0

[HitObjects]
53,178,6712,6,0,P|67:150|109:122,1,45
172,160,7009,2,0,P|196:141|251:134,1,45
320,193,7306,6,0,P|319:225|295:269,1,45
219,286,7603,2,0,P|198:315|156:321,1,45
187,165,7900,6,0,P|237:181|287:217,1,90
230,111,8494,2,0,P|172:98|155:103,1,45
88,197,8791,2,0,P|136:171|163:170,1,45
206,279,9088,2,0,P|174:257|131:255,1,45
101,183,11167,6,0,P|131:163|166:160,1,45
180,230,11464,2,0,P|231:235|254:252,1,45
213,308,11761,2,0,P|258:335|266:359,1,45
331,275,12058,6,0,P|361:295|392:301,1,45
406,228,12355,2,0,P|457:223|482:205,1,45
432,148,12652,2,0,P|477:121|488:97,1,45
373,49,12949,5,0,0:0:0:0:
308,173,13246,2,0,P|262:202|237:200,1,45
151,222,13543,2,0,P|109:255|104:281,1,45
249,307,13840,2,0,B|325:300|359:232|359:232|351:203|316:177,1,180
182,94,15919,6,0,P|220:77|261:76,1,45
374,122,16216,2,0,P|336:105|293:105,1,45
188,166,16513,6,0,P|226:145|267:140,1,45
377,192,16811,2,0,P|337:172|302:171,1,45
203,233,17108,2,0,P|161:236|123:219,1,45
11,146,17405,5,0,0:0:0:0:
186,299,17702,2,0,P|249:279|276:222,2,90
185,135,18593,2,0,B|180:72|252:56|252:56|303:86|341:26,1,180
373,97,21117,6,0,P|341:120|305:131,1,45
410,230,21414,2,0,P|378:207|342:196,1,45
111,239,21711,2,0,P|137:195|194:185,1,90
214,185,22157,1,0,0:0:0:0:
344,210,22305,2,0,P|392:189|408:172,1,45
481,80,22602,6,0,P|443:44|417:43,1,45
211,69,22899,2,0,P|249:33|277:30,1,45
380,171,23196,2,0,P|338:213|317:219,1,45
186,225,23493,2,0,B|219:260|197:287|197:287|239:320|304:327,1,180
278,252,25721,5,0,0:0:0:0:
124,149,26018,2,0,P|163:93|185:75,1,82.5000031471254
223,162,26315,2,0,P|287:111|306:106,1,82.5000031471254
380,186,26612,5,0,0:0:0:0:
228,75,26910,2,0,P|151:60|125:67,1,82.5000031471254
169,146,27207,2,0,P|98:167|78:183,1,82.5000031471254
231,226,27504,2,0,P|329:247|383:290,1,165.000006294251
296,140,28098,6,0,P|216:106|191:64,1,82.5000031471254
106,90,28395,2,0,P|47:146|48:158,1,82.5000031471254
80,272,28692,1,0,0:0:0:0:
196,179,28989,5,0,0:0:0:0:
106,90,29286,2,0,P|158:27|177:26,1,82.5000031471254
196,179,29583,2,0,P|144:242|132:246,1,82.5000031471254
48,304,29880,1,0,0:0:0:0:
189,320,30177,6,0,P|243:283|258:253,1,82.5000031471254
318,164,30474,2,0,B|349:110|393:99|393:99|381:41|263:89|263:89|266:32|195:38,1,330.000012588501
103,36,31365,1,0,0:0:0:0:
156,181,31662,1,0,0:0:0:0:
302,75,31959,6,0,P|373:72|403:90,1,82.5000031471254
211,147,32256,2,0,P|267:167|302:160,1,82.5000031471254
444,170,32553,1,0,0:0:0:0:
211,147,32850,2,0,P|151:217|152:230,1,82.5000031471254
220,267,33147,5,0,0:0:0:0:
220,267,33296,1,0,0:0:0:0:
285,117,33444,2,0,P|227:74|188:76,1,82.5000031471254
90,152,33741,1,0,0:0:0:0:
90,152,33890,2,0,P|130:192|169:209,1,82.5000031471254
317,261,34335,6,0,P|318:311|287:348,1,82.5000031471254
131,342,34632,1,0,0:0:0:0:
212,233,34929,1,0,0:0:0:0:
301,338,35226,6,0,P|373:358|395:353,1,82.5000031471254
457,235,35523,1,0,0:0:0:0:
212,198,35820,2,0,P|176:255|191:300,1,82.5000031471254
301,338,36117,2,0,P|371:322|396:331,1,82.5000031471254
494,175,36414,6,0,P|436:153|406:155,1,82.5000031471254
278,196,36712,2,0,P|211:198|170:182,1,82.5000031471254
73,66,37009,2,0,P|25:129|38:155,1,82.5000031471254
125,232,37306,5,0,0:0:0:0:
282,108,37603,2,0,P|357:132|369:145,1,82.5000031471254
278,196,37900,2,0,P|237:210|188:187,1,82.5000031471254
97,110,38197,2,0,P|25:133|17:143,1,82.5000031471254
52,290,38494,1,0,0:0:0:0:
213,340,38791,6,0,P|287:334|304:324,1,82.5000031471254
278,196,39088,2,0,P|182:207|169:220,1,82.5000031471254
146,272,39385,2,0,P|75:286|37:276,1,82.5000031471254
154,82,39682,6,0,P|190:156|185:186,1,82.5000031471254
303,11,39979,2,0,P|267:85|271:116,1,82.5000031471254
315,270,40276,1,0,0:0:0:0:
173,142,40573,1,0,0:0:0:0:
206,350,40870,2,0,P|237:300|228:271,1,82.5000031471254
285,132,41167,2,0,P|320:195|350:202,1,82.5000031471254
436,258,41464,5,0,0:0:0:0:
263,182,41761,1,0,0:0:0:0:
93,105,42058,1,0,0:0:0:0:
262,323,44731,6,0,P|343:296|373:272,1,90
165,48,45919,2,0,P|84:75|54:99,1,90
410,216,46811,6,0,P|411:136|386:96,1,90
107,211,47999,2,0,P|105:288|135:333,1,90
340,103,49187,6,0,P|270:83|216:83,1,90
149,171,50375,2,0,P|226:150|269:152,1,90
383,335,51860,6,0,P|300:343|259:340,1,90
100,206,53048,5,0,0:0:0:0:
100,206,53345,1,0,0:0:0:0:
196,288,53642,1,0,0:0:0:0:
319,313,53939,1,0,0:0:0:0:
282,150,54236,6,0,P|212:130|123:129,1,135.000005149841
176,238,54830,2,0,P|217:276|274:285,1,67.5000025749207
275,83,55127,2,0,P|225:67|189:65,1,67.5000025749207
254,213,55424,2,0,P|303:263|305:286,1,67.5000025749207
174,275,55721,5,0,0:0:0:0:
174,275,56018,1,0,0:0:0:0:
104,173,56315,2,0,P|164:175|198:195,2,82.5000031471254
180,280,56910,5,0,0:0:0:0:
180,280,57058,2,0,P|251:297|281:291,1,82.5000031471254
408,218,57504,2,0,P|339:174|324:174,1,82.5000031471254
135,209,57801,2,0,P|81:191|50:159,1,82.5000031471254
5,42,58098,1,0,0:0:0:0:
185,86,58395,5,0,0:0:0:0:
284,200,58692,1,0,0:0:0:0:
256,230,58840,1,0,0:0:0:0:
216,241,58989,1,0,0:0:0:0:
175,239,59137,1,0,0:0:0:0:
136,228,59286,1,0,0:0:0:0:
104,204,59434,1,0,0:0:0:0:
82,170,59583,1,0,0:0:0:0:
71,132,59731,1,0,0:0:0:0:
74,92,59880,1,0,0:0:0:0:
84,54,60028,1,0,0:0:0:0:
160,138,60177,5,0,0:0:0:0:
174,176,60325,1,0,0:0:0:0:
176,217,60474,1,0,0:0:0:0:
168,257,60622,1,0,0:0:0:0:
152,295,60771,1,0,0:0:0:0:
126,327,60919,1,0,0:0:0:0:
91,349,61068,2,0,B|62:313|30:242|30:242|92:236|92:236|89:160|76:143,1,270.000010299683
393,361,63741,5,0,0:0:0:0:
275,157,64038,1,0,0:0:0:0:
225,275,64335,2,0,P|176:327|138:330,1,110
40,86,64929,5,0,0:0:0:0:
148,256,65226,1,0,0:0:0:0:
220,82,65523,5,0,0:0:0:0:
303,190,65671,1,0,0:0:0:0:
348,68,65820,2,0,P|390:34|416:36,2,55
275,294,66414,5,0,0:0:0:0:
235,64,66711,1,0,0:0:0:0:
401,249,67008,1,0,0:0:0:0:
117,93,67305,1,0,0:0:0:0:
306,323,67602,1,0,0:0:0:0:
263,64,67899,1,0,0:0:0:0:
172,297,68196,1,0,0:0:0:0:
391,217,68493,6,0,P|413:168|406:130,1,55
265,51,68790,2,0,P|241:95|245:127,1,55
265,224,69087,1,0,0:0:0:0:
101,76,69384,1,0,0:0:0:0:
351,148,69681,5,0,0:0:0:0:
177,326,69978,1,0,0:0:0:0:
134,98,70275,5,0,0:0:0:0:
222,179,70424,1,0,0:0:0:0:
219,39,70572,1,0,0:0:0:0:
307,247,70869,5,0,0:0:0:0:
389,329,71018,1,0,0:0:0:0:
363,182,71166,1,0,0:0:0:0:
462,299,71315,1,0,0:0:0:0:
423,133,71463,2,0,P|405:112|347:96,1,55
296,116,71760,5,0,0:0:0:0:
242,260,71909,1,0,0:0:0:0:
215,74,72057,1,0,0:0:0:0:
88,216,72206,5,0,0:0:0:0:
224,167,72354,1,0,0:0:0:0:
102,300,72503,1,0,0:0:0:0:
155,83,72651,5,0,0:0:0:0:
260,216,72800,1,0,0:0:0:0:
85,150,72948,2,0,P|39:162|25:177,1,45
102,300,73245,6,0,P|203:322|226:317,1,90
493,78,73840,1,0,0:0:0:0:
302,123,73988,1,0,0:0:0:0:
467,193,74137,1,0,0:0:0:0:
122,245,74434,6,0,P|152:296|166:309,1,45
304,125,74731,2,0,P|297:82|273:61,1,45
238,240,75028,2,0,P|273:301|275:303,1,45
198,138,75325,2,0,P|140:143|134:147,1,45
304,301,75622,5,0,0:0:0:0:
168,89,75919,1,0,0:0:0:0:
422,128,76216,1,0,0:0:0:0:
116,202,76513,1,0,0:0:0:0:
396,287,76810,1,0,0:0:0:0:
281,55,77107,1,0,0:0:0:0:
59,241,77404,1,0,0:0:0:0:
386,153,77701,1,0,0:0:0:0:
113,78,77998,5,0,0:0:0:0:
342,327,78295,1,0,0:0:0:0:
297,103,78592,6,0,P|241:110|221:121,1,45
114,252,78889,2,0,P|174:253|190:243,1,45
325,159,79186,2,0,P|379:169|400:182,1,45
254,306,79483,2,0,P|221:311|187:303,1,45
88,181,79780,2,0,P|130:187|161:178,1,45
281,99,80077,2,0,P|244:104|214:95,1,45
47,60,80374,5,0,0:0:0:0:
231,265,80671,1,0,0:0:0:0:
230,43,80968,1,0,0:0:0:0:
50,211,81265,1,0,0:0:0:0:
261,156,81562,6,0,L|340:185,2,67.5000025749207
139,114,82008,2,0,L|58:85,2,67.5000025749207
262,228,82453,2,0,L|338:254,1,67.5000025749207
92,171,82750,2,0,L|13:142,1,67.5000025749207
137,262,84978,6,0,L|174:309,2,45
82,182,85424,1,0,0:0:0:0:
82,182,85572,1,0,0:0:0:0:
226,214,85721,2,0,L|290:232,1,45
410,257,86018,5,0,0:0:0:0:
335,145,86166,1,0,0:0:0:0:
251,299,86315,2,0,L|223:347,1,45
209,183,86612,2,0,L|235:137,1,45
297,359,86909,2,0,L|329:297,3,45
358,151,87503,6,0,P|310:105|265:103,1,90
137,167,88097,2,0,P|174:199|196:204,1,45
284,171,88394,1,0,0:0:0:0:
94,33,88691,2,0,P|151:22|205:36,1,110
339,96,89137,5,0,0:0:0:0:
171,160,89285,2,0,P|147:206|151:221,1,45
187,328,89582,2,0,L|230:363,1,45
63,236,89879,2,0,L|20:202,1,45
142,229,90176,5,0,0:0:0:0:
168,235,90325,1,0,0:0:0:0:
194,237,90473,1,0,0:0:0:0:
222,170,90622,5,0,0:0:0:0:
247,163,90770,1,0,0:0:0:0:
268,147,90919,1,0,0:0:0:0:
288,130,91067,1,0,0:0:0:0:
301,107,91216,1,0,0:0:0:0:
354,180,91364,5,0,0:0:0:0:
368,203,91513,1,0,0:0:0:0:
373,230,91661,1,0,0:0:0:0:
362,256,91810,2,0,P|326:257|309:247,2,45
157,207,92255,6,0,P|123:198|108:184,2,45
306,184,92701,1,0,0:0:0:0:
306,184,92849,2,0,P|269:147|244:143,1,45
58,172,93295,5,0,0:0:0:0:
58,172,93443,2,0,P|120:197|129:212,1,45
173,230,93740,1,0,0:0:0:0:
223,289,93889,1,0,0:0:0:0:
286,134,94037,5,0,0:0:0:0:
342,241,94186,2,0,L|375:308,1,45
210,139,94483,2,0,L|177:73,1,45
218,332,94780,1,0,0:0:0:0:
104,134,95077,5,0,0:0:0:0:
217,195,95225,2,0,P|252:213|272:216,1,45
455,330,95523,2,0,P|420:348|355:342,1,90
278,286,95968,2,0,P|228:283|198:268,1,45
151,195,96265,2,0,P|104:171|92:153,1,45
254,102,96562,6,0,P|293:144|294:156,4,45
117,70,97304,1,0,0:0:0:0:
117,70,97453,1,0,0:0:0:0:
200,211,97601,6,0,P|254:242|265:242,1,45
369,261,97899,1,0,0:0:0:0:
288,127,98196,2,0,P|245:95|235:93,1,45
103,162,98493,2,0,P|51:182|38:205,1,45
115,316,98790,2,0,P|91:352|86:373,1,45
213,226,99087,5,0,0:0:0:0:
308,342,99236,1,0,0:0:0:0:
357,285,99384,1,0,0:0:0:0:
362,209,99533,1,0,0:0:0:0:
322,144,99681,1,0,0:0:0:0:
258,101,99830,1,0,0:0:0:0:
213,226,99978,5,0,0:0:0:0:
114,129,100127,1,0,0:0:0:0:
73,194,100275,1,0,0:0:0:0:
69,271,100424,1,0,0:0:0:0:
109,336,100572,1,0,0:0:0:0:
176,372,100721,1,0,0:0:0:0:
213,226,100869,5,0,0:0:0:0:
308,342,101018,1,0,0:0:0:0:
357,285,101166,1,0,0:0:0:0:
362,209,101315,1,0,0:0:0:0:
322,144,101463,1,0,0:0:0:0:
258,101,101612,1,0,0:0:0:0:
216,207,101760,6,0,P|211:271|172:264,1,110
93,111,102354,1,0,0:0:0:0:
235,233,102948,6,0,P|186:275|160:253,1,110
215,79,103542,1,0,0:0:0:0:
227,269,104137,6,0,P|163:264|168:234,1,110
321,146,104731,1,0,0:0:0:0:
174,275,105919,5,0,0:0:0:0:
71,98,106513,2,0,P|171:74|262:98,1,180
347,267,107701,5,0,0:0:0:0:
244,90,108295,2,0,P|344:66|434:89,2,180
256,288,110077,1,0,0:0:0:0:
160,160,110374,1,0,0:0:0:0:
352,160,110671,1,0,0:0:0:0:
256,288,110968,6,0,B|256:253|256:253|231:243|231:243|277:244|277:244|227:224|227:224|280:224|280:224|255:200|255:200|254:169,1,270
134,69,111562,1,0,0:0:0:0:
81,132,111711,1,0,0:0:0:0:
65,212,111859,1,0,0:0:0:0:
256,288,112156,5,0,0:0:0:0:
378,69,112453,2,0,P|415:112|430:154,2,67.5000025749207
256,288,113047,5,0,0:0:0:0:
134,69,113344,1,0,0:0:0:0:
219,48,113493,1,0,0:0:0:0:
306,50,113641,1,0,0:0:0:0:
425,136,113939,2,0,P|443:212|441:230,2,67.5000025749207
256,173,114533,5,0,0:0:0:0:
134,315,114830,1,0,0:0:0:0:
219,336,114979,1,0,0:0:0:0:
306,334,115127,1,0,0:0:0:0:
421,193,115424,6,0,P|395:148|360:125,1,67.5000025749207
328,105,115721,1,0,0:0:0:0:
269,91,115869,1,0,0:0:0:0:
208,90,116018,1,0,0:0:0:0:
151,111,116166,1,0,0:0:0:0:
103,150,116315,1,0,0:0:0:0:
76,205,116463,1,0,0:0:0:0:
67,266,116612,1,0,0:0:0:0:
82,325,116760,1,0,0:0:0:0:
123,370,116909,1,0,0:0:0:0:
182,384,117057,1,0,0:0:0:0:
254,296,117206,5,0,0:0:0:0:
313,305,117354,1,0,0:0:0:0:
371,290,117503,1,0,0:0:0:0:
414,249,117651,1,0,0:0:0:0:
438,193,117800,1,0,0:0:0:0:
448,134,117948,1,0,0:0:0:0:
420,80,118097,1,0,0:0:0:0:
367,49,118245,2,0,B|282:38|232:49|232:49|289:107|289:107|271:147|179:142,1,337.500012874604
75,229,120176,6,0,B|136:246|136:246|116:286|173:326|173:326|204:296|260:279,1,202.500007724762
423,216,120770,2,0,P|408:135|335:101,1,135.000005149841
147,131,121364,1,0,0:0:0:0:
228,229,121513,1,0,0:0:0:0:
228,101,121661,1,0,0:0:0:0:
129,204,121810,1,0,0:0:0:0:
351,174,121958,5,0,0:0:0:0:
171,272,122255,1,0,0:0:0:0:
90,106,122552,6,0,P|141:66|163:66,1,67.5000025749207
257,133,122849,2,0,P|337:126|356:133,1,67.5000025749208
427,239,123146,6,0,P|382:261|358:265,1,67.5000025749207
190,125,123443,2,0,P|255:132|270:140,1,67.5000025749207
483,261,123741,1,0,0:0:0:0:
228,293,124038,2,0,P|228:202|236:188,1,82.5000031471254
409,92,124335,2,0,P|416:166|405:191,1,67.5000025749207
336,341,124632,2,0,P|269:306|266:295,1,67.5000025749207
193,118,124929,2,0,P|281:127|291:135,1,67.5000025749207
131,262,125226,2,0,P|76:258|42:244,1,67.5000025749207
204,87,125523,5,0,0:0:0:0:
113,306,125820,1,0,0:0:0:0:
393,94,126117,6,0,L|476:128,1,67.5000025749207
286,187,126414,2,0,L|203:219,1,67.5000025749207
398,248,126711,6,0,L|476:279,1,67.5000025749207
302,346,127008,1,0,0:0:0:0:
285,53,127305,5,0,0:0:0:0:
299,217,127453,1,0,0:0:0:0:
381,47,127602,2,0,P|456:38|470:46,1,82.5000031471254
292,124,127899,5,0,0:0:0:0:
417,193,128047,1,0,0:0:0:0:
247,175,128196,1,0,0:0:0:0:
416,260,128344,1,0,0:0:0:0:
103,290,128641,5,0,0:0:0:0:
136,128,128790,1,0,0:0:0:0:
163,310,128939,1,0,0:0:0:0:
313,204,129087,5,0,0:0:0:0:
131,192,129236,1,0,0:0:0:0:
333,272,129384,1,0,0:0:0:0:
109,248,129533,1,0,0:0:0:0:
245,97,129681,5,0,0:0:0:0:
234,274,129830,1,0,0:0:0:0:
185,85,129978,1,0,0:0:0:0:
359,204,130275,5,0,0:0:0:0:
117,66,130572,1,0,0:0:0:0:
117,66,130869,6,0,P|191:49|214:52,1,67.5000025749207
265,115,131166,2,0,P|328:138|352:158,1,67.5000025749207
425,261,131463,6,0,P|351:282|338:278,1,67.5000025749207
159,196,131760,2,0,P|232:157|246:157,1,67.5000025749207
454,237,132057,2,0,P|385:266|359:260,1,67.5000025749207
165,114,132354,2,0,P|239:97|258:104,1,67.5000025749207
388,179,132651,5,0,0:0:0:0:
93,93,132948,1,0,0:0:0:0:
255,298,133245,1,0,0:0:0:0:
323,85,133542,1,0,0:0:0:0:
98,265,133840,1,0,0:0:0:0:
359,171,134137,1,0,0:0:0:0:
68,158,134434,1,0,0:0:0:0:
339,299,134731,1,0,0:0:0:0:
339,299,135028,5,0,0:0:0:0:
140,69,135325,1,0,0:0:0:0:
358,239,135622,6,0,P|363:161|350:136,1,67.5000025749207
157,203,135919,2,0,P|139:269|154:301,1,67.5000025749207
328,117,136216,6,0,P|251:100|234:112,1,67.5000025749207
335,300,136513,2,0,P|406:285|422:263,1,67.5000025749207
191,129,136810,2,0,P|161:184|158:230,1,67.5000025749207
234,38,137107,2,0,P|264:92|269:134,1,67.5000025749207
234,270,139186,5,0,0:0:0:0:
256,276,139780,2,0,P|333:280|366:267,1,67.5000025749207
259,132,140077,2,0,P|206:123|166:142,1,67.5000025749207
79,251,140374,1,0,0:0:0:0:
42,316,140968,6,0,P|94:321|146:306,1,67.5000025749207
292,187,141265,2,0,P|221:146|205:143,1,67.5000025749207
79,251,141562,1,0,0:0:0:0:
158,119,141711,1,0,0:0:0:0:
79,251,141859,2,0,B|123:319|123:319|208:333,1,165.000006294251
428,243,142453,5,0,0:0:0:0:
150,121,142750,1,0,0:0:0:0:
295,331,143047,1,0,0:0:0:0:
327,92,143344,1,0,0:0:0:0:
166,251,143641,1,0,0:0:0:0:
392,188,143939,1,0,0:0:0:0:
188,85,144236,1,0,0:0:0:0:
283,295,144533,6,0,P|360:283|375:275,1,67.5000025749207
246,141,144830,2,0,P|197:141|163:167,1,67.5000025749207
72,293,145127,1,0,0:0:0:0:
288,248,145721,6,0,P|343:180|341:162,1,67.5000025749207
104,87,146018,2,0,P|63:130|64:177,1,67.5000025749207
55,347,146315,5,0,0:0:0:0:
178,213,146463,1,0,0:0:0:0:
91,384,146612,1,0,0:0:0:0:
372,239,146909,5,0,0:0:0:0:
202,216,147057,1,0,0:0:0:0:
388,309,147206,1,0,0:0:0:0:
166,273,147354,2,0,L|210:201,1,67.5000025749207
298,54,147800,5,0,0:0:0:0:
272,196,147948,1,0,0:0:0:0:
239,32,148097,1,0,0:0:0:0:
204,203,148245,1,0,0:0:0:0:
175,7,148394,1,0,0:0:0:0:
140,211,148542,1,0,0:0:0:0:
352,87,148691,5,0,0:0:0:0:
201,227,148840,1,0,0:0:0:0:
403,131,148988,1,0,0:0:0:0:
140,239,149285,5,0,0:0:0:0:
403,131,149582,1,0,0:0:0:0:
35,192,149879,5,0,0:0:0:0:
180,233,150028,1,0,0:0:0:0:
38,128,150176,1,0,0:0:0:0:
295,314,150473,6,0,P|316:240|311:214,1,67.5000025749207
221,106,150770,2,0,P|190:143|190:197,1,67.5000025749207
372,124,151067,2,0,P|354:59|339:40,1,67.5000025749207
128,187,151364,2,0,P|166:234|194:238,1,67.5000025749207
317,49,151661,2,0,P|236:57|221:65,1,67.5000025749207
128,187,151958,5,0,0:0:0:0:
300,131,152107,1,0,0:0:0:0:
134,251,152255,2,0,P|110:301|107:328,1,67.5000025749207
107,344,152552,5,0,0:0:0:0:
300,131,152849,1,0,0:0:0:0:
239,359,153146,1,0,0:0:0:0:
133,114,153443,1,0,0:0:0:0:
365,276,153741,1,0,0:0:0:0:
217,108,154038,6,0,P|264:34|283:26,1,67.5000025749207
322,171,154335,2,0,P|307:205|278:233,1,67.5000025749207
116,33,154632,2,0,B|191:16|191:16|227:45|223:102|223:102|260:98|309:129,1,247.500009441376
460,226,155226,2,0,P|418:287|387:303,1,67.5000025749207
409,84,155523,2,0,P|370:156|371:175,1,67.5000025749207
275,306,155820,2,0,P|212:299|193:290,1,67.5000025749207
317,166,156117,2,0,P|369:182|404:220,1,67.5000025749207
482,342,156414,5,0,0:0:0:0:
229,91,156711,1,0,0:0:0:0:
340,197,156859,1,0,0:0:0:0:
71,80,157156,2,0,P|83:179|96:191,1,67.5000025749207
327,145,157602,6,0,L|394:97,1,67.5000025749207
246,226,157899,2,0,L|312:275,1,67.5000025749207
138,133,158196,2,0,L|202:83,1,67.5000025749207
62,252,158493,2,0,L|128:303,2,67.5000025749207
130,73,159978,6,0,P|234:50|256:52,1,90
383,277,160869,2,0,P|312:301|276:301,1,90
70,151,162057,2,0,P|111:94|144:71,1,90
453,161,163245,2,0,P|386:233|370:236,1,90
199,300,163840,5,0,0:0:0:0:
320,168,164137,1,0,0:0:0:0:
442,37,164434,1,0,0:0:0:0:
230,62,165028,6,0,P|177:100|169:114,1,45
201,202,165325,2,0,P|175:250|176:267,1,45
292,271,165622,2,0,P|324:307|339:311,2,45
310,79,168295,6,0,P|210:113|197:128,1,90
121,311,169483,2,0,P|192:307|231:283,1,90
400,43,170671,6,0,P|295:71|286:80,1,90
137,232,171562,2,0,P|198:240|247:226,1,90
441,301,172750,6,0,P|369:327|336:320,1,90
91,144,173939,2,0,P|153:102|192:100,1,90
406,216,175127,2,0,P|356:254|345:255,1,45
286,193,175424,2,0,P|221:207|173:206,1,90
