osu file format v14

[General]
AudioFilename: audio.mp3
AudioLeadIn: 0
PreviewTime: 72122
Countdown: 0
SampleSet: Normal
StackLeniency: 0.7
Mode: 0
LetterboxInBreaks: 0
WidescreenStoryboard: 1

[Editor]
Bookmarks: 28486,93954,115772
DistanceSpacing: 1.2
BeatDivisor: 4
GridSize: 4
TimelineZoom: 1

[Metadata]
Title:Sing Me To Sleep
TitleUnicode:Sing Me To Sleep
Artist:Alan Walker
ArtistUnicode:Alan Walker
Creator:Lilyanna
Version:Normal
Source:
Tags:add Iselin Solheim Electro house synthpop chillstep
BeatmapID:1252529
BeatmapSetID:591671

[Difficulty]
HPDrainRate:5
CircleSize:4
OverallDifficulty:5
ApproachRate:5
SliderMultiplier:1.6
SliderTickRate:1

[Events]
//Background and Video events
0,0,"kms.jpg",0,0
//Break Periods
2,47577,48984
//Storyboard Layer 0 (Background)
//Storyboard Layer 1 (Fail)
//Storyboard Layer 2 (Pass)
//Storyboard Layer 3 (Foreground)
//Storyboard Sound Samples

[TimingPoints]
6668,681.818181818182,4,1,1,45,1,0
28486,-100,4,2,1,20,0,0
61213,-100,4,1,1,20,0,0
72122,-100,4,1,1,50,0,1
92918,-100,4,1,1,25,0,1
93940,-100,4,2,1,40,0,0
126668,-100,4,1,1,40,0,0
137577,-100,4,1,1,50,0,1
159395,-100,4,1,1,50,0,0
160758,-100,4,1,1,50,0,1
179508,-100,4,1,1,25,0,1
181213,-100,4,1,1,100,0,0
182577,-100,4,1,1,20,0,0
183940,-100,4,1,1,15,0,0
185304,-100,4,1,1,5,0,0

[Colours]
Combo1 : 255,162,117
Combo2 : 170,255,170
Combo3 : 140,192,255
Combo4 : 180,180,180

[HitObjects]
446,51,28486,6,0,P|463:120|414:197,1,160,4|0,0:0|0:0,0:0:0:0:
373,108,29508,1,2,0:0:0:0:
320,188,29849,2,0,L|160:200,1,160,0|0,0:0|0:0,0:0:0:0:
83,141,30872,1,2,0:0:0:0:
147,69,31213,6,0,L|307:57,1,160,0|0,0:0|0:0,0:0:0:0:
383,115,32236,1,2,0:0:0:0:
428,199,32577,2,0,P|445:268|396:345,1,160,0|0,0:0|0:0,0:0:0:0:
355,256,33599,1,0,0:0:0:0:
259,265,33940,2,0,B|218:213|250:107|250:107|237:39|125:19,1,320,0|0,0:0|0:0,0:0:0:0:
420,274,36668,6,0,L|327:277,1,80,0|2,0:0|0:0,0:0:0:0:
373,186,37349,2,0,L|280:189,1,80,0|2,0:0|0:0,0:0:0:0:
196,188,38031,1,0,0:0:0:0:
50,23,39395,6,0,B|44:92|44:92|59:188,1,160,4|8,0:0|0:0,0:0:0:0:
143,225,40418,1,2,0:0:0:0:
228,181,40758,2,0,B|242:91|242:91|236:22,1,160,8|8,0:0|0:0,0:0:0:0:
332,21,41781,1,2,0:0:0:0:
365,111,42122,6,0,P|350:165|373:271,1,160,8|8,0:0|0:0,0:0:0:0:
292,323,43145,1,2,0:0:0:0:
215,265,43486,2,0,P|230:211|207:105,1,160,8|0,0:0|0:0,0:0:0:0:
151,34,44508,1,0,0:0:0:0:
82,101,44849,6,0,P|38:196|155:374,1,320,8|8,0:3|0:3,0:3:0:0:
234,201,46895,2,0,L|329:193,1,80
92,89,50304,6,0,L|186:82,1,80,4|0,0:0|0:0,0:0:0:0:
219,166,50986,2,0,L|139:171,1,80,8|0,0:0|0:0,0:0:0:0:
63,231,51668,2,0,P|63:310|68:319,1,80,8|0,0:0|0:0,0:0:0:0:
146,355,52349,1,8,0:0:0:0:
334,318,53031,6,0,L|328:238,1,80,8|0,0:0|0:0,0:0:0:0:
423,252,53713,2,0,L|417:172,1,80,8|0,0:0|0:0,0:0:0:0:
453,82,54395,2,0,P|409:77|370:89,1,80,8|0,0:0|0:0,0:0:0:0:
294,138,55077,1,8,0:0:0:0:
102,137,55758,6,0,P|99:193|115:226,1,80,8|0,0:0|0:0,0:0:0:0:
192,259,56440,2,0,P|195:203|179:170,1,80,8|0,0:0|0:0,0:0:0:0:
205,87,57122,2,0,L|300:83,1,80,8|0,0:0|0:0,0:0:0:0:
378,108,57804,1,8,0:0:0:0:
368,299,58486,6,0,L|288:302,1,80,8|0,0:0|0:0,0:0:0:0:
314,209,59168,2,0,L|234:212,1,80,8|0,0:0|0:0,0:0:0:0:
150,258,59849,2,0,P|140:202|146:172,1,80,8|0,0:0|0:0,0:0:0:0:
221,122,60531,1,8,0:0:0:0:
174,37,60872,1,0,0:0:0:0:
271,43,61213,6,0,P|312:31|355:46,1,80,4|0,0:0|0:0,0:0:0:0:
397,123,61895,2,0,P|355:134|312:119,1,80,8|0,0:0|0:0,0:0:0:0:
241,179,62577,2,0,L|239:273,1,80,8|0,0:0|0:0,0:0:0:0:
148,291,63258,2,0,L|149:211,1,80,8|0,0:0|0:0,0:0:0:0:
82,142,63940,6,0,P|117:117|165:113,1,80,8|0,0:0|0:0,0:0:0:0:
196,25,64622,2,0,P|238:23|281:45,1,80,8|0,0:0|0:0,0:0:0:0:
350,94,65304,2,0,P|315:119|267:123,1,80,8|0,0:0|0:0,0:0:0:0:
236,211,65986,2,0,P|193:212|150:190,1,80,8|0,0:0|0:0,0:0:0:0:
63,197,66668,6,0,L|67:295,1,80,8|8,0:0|0:0,0:0:0:0:
163,277,67349,2,0,L|159:197,1,80,8|8,0:0|0:0,0:0:0:0:
248,160,68031,2,0,L|252:258,1,80,8|8,0:0|0:0,0:0:0:0:
348,240,68713,2,0,L|344:160,1,80,8|8,0:0|0:0,0:0:0:0:
256,192,69395,12,8,70758,0:0:0:0:
370,32,72122,6,0,B|387:126,1,80,4|0,0:0|0:0,0:0:0:0:
471,152,72804,2,0,P|430:193|350:195,1,120,8|0,0:0|0:0,0:0:0:0:
322,203,73486,2,0,L|334:326,1,120,8|0,0:0|0:0,0:0:0:0:
286,331,74168,2,0,L|185:344,1,80,8|0,0:0|0:0,0:0:0:0:
128,286,74849,6,0,B|113:207,2,80,8|0|8,0:0|0:0|0:0,0:0:0:0:
206,341,75872,1,0,0:0:0:0:
285,287,76213,2,0,B|299:208,2,80,8|0|8,0:0|0:0|0:0,0:0:0:0:
207,342,77236,1,0,0:0:0:0:
128,286,77577,6,0,B|49:300,1,80,8|0,0:0|0:0,0:0:0:0:
33,205,78258,2,0,P|53:136|44:73,1,120,8|0,0:0|0:0,0:0:0:0:
67,44,78940,2,0,L|194:52,1,120,8|0,0:0|0:0,0:0:0:0:
232,66,79622,2,0,L|245:155,1,80,8|0,0:0|0:0,0:0:0:0:
322,201,80304,6,0,B|336:279,2,80,8|0|8,0:0|0:0|0:0,0:0:0:0:
243,145,81327,1,0,0:0:0:0:
164,199,81668,2,0,B|149:277,2,80,8|0|8,0:0|0:0|0:0,0:0:0:0:
243,145,82691,1,0,0:0:0:0:
322,201,83031,6,0,B|336:279,1,80,8|0,0:0|0:0,0:0:0:0:
432,276,83713,2,0,L|406:140,1,120,8|0,0:0|0:0,0:0:0:0:
395,111,84395,2,0,P|325:69|259:76,1,120,8|0,0:0|0:0,0:0:0:0:
240,69,85077,2,0,L|157:53,1,80,8|0,0:0|0:0,0:0:0:0:
106,132,85758,6,0,B|27:117,2,80,8|0|8,0:0|0:0|0:0,0:0:0:0:
161,210,86781,1,0,0:0:0:0:
107,289,87122,2,0,B|28:303,2,80,8|0|8,0:0|0:0|0:0,0:0:0:0:
161,210,88145,1,0,0:0:0:0:
218,286,88486,6,0,B|296:300,1,80,8|0,0:0|0:0,0:0:0:0:
379,349,89168,2,0,P|392:291|349:218,1,120,8|0,0:0|0:0,0:0:0:0:
342,197,89849,2,0,L|374:68,1,120,8|0,0:0|0:0,0:0:0:0:
374,32,90531,2,0,L|276:64,1,80,8|0,0:0|0:0,0:0:0:0:
202,67,91213,6,0,B|124:53,2,80,8|0|8,0:0|0:0|0:0,0:0:0:0:
258,146,92236,1,0,0:0:0:0:
204,225,92577,2,0,B|126:240,2,80
258,146,93599,1,0,0:0:0:0:
328,80,93940,6,0,P|353:154|300:232,1,160,4|8,0:0|0:0,0:0:0:0:
123,223,95304,2,0,P|85:154|110:81,1,160,8|8,0:0|0:0,0:0:0:0:
300,47,96668,6,0,B|398:59|398:59|454:121,1,160,8|8,0:0|0:0,0:0:0:0:
352,275,98031,2,0,B|254:263|254:263|198:201,1,160,8|8,0:0|0:0,0:0:0:0:
150,145,99054,1,0,0:0:0:0:
160,49,99395,6,0,P|87:74|59:170,1,160,8|8,0:0|0:0,0:0:0:0:
194,278,100758,2,0,P|267:253|295:157,1,160,8|8,0:0|0:0,0:0:0:0:
425,37,102122,6,0,L|446:217,1,160,8|8,0:0|0:0,0:0:0:0:
316,340,103486,2,0,L|295:160,1,160,8|8,0:0|0:0,0:0:0:0:
272,88,104508,1,0,0:0:0:0:
198,150,104849,6,0,B|111:160|111:160|39:140,1,160,8|8,0:0|0:0,0:0:0:0:
136,307,106213,2,0,B|223:297|223:297|295:317,1,160,8|8,0:0|0:0,0:0:0:0:
406,161,107577,6,0,P|443:229|418:302,1,160,8|8,0:0|0:0,0:0:0:0:
260,192,108941,2,0,P|235:118|288:40,1,160,8|8,0:0|0:0,0:0:0:0:
329,126,109963,1,0,0:0:0:0:
346,220,110304,6,0,P|294:276|189:254,1,160,8|8,0:0|0:0,0:0:0:0:
39,195,111668,2,0,P|91:139|196:161,1,160,8|8,0:0|0:0,0:0:0:0:
349,71,113031,6,0,B|405:128|405:128|410:219,1,160,0|0,0:0|0:0,0:0:0:0:
260,330,114395,2,0,B|204:273|204:273|199:182,1,160,0|0,0:0|0:0,0:0:0:0:
204,96,115418,1,0,0:0:0:0:
297,116,115758,6,0,L|391:109,1,80,4|0,0:0|0:0,0:0:0:0:
424,193,116440,2,0,L|344:198,1,80,8|0,0:0|0:0,0:0:0:0:
258,241,117122,2,0,L|263:329,1,80,8|0,0:0|0:0,0:0:0:0:
171,350,117803,1,8,0:0:0:0:
59,193,118486,6,0,L|53:113,1,80,8|0,0:0|0:0,0:0:0:0:
143,146,119167,2,0,L|137:66,1,80,8|0,0:0|0:0,0:0:0:0:
231,46,119849,2,0,L|310:39,1,80,8|0,0:0|0:0,0:0:0:0:
401,71,120531,1,8,0:0:0:0:
466,251,121213,6,0,P|469:307|453:340,1,80,8|0,0:0|0:0,0:0:0:0:
364,319,121895,2,0,P|361:263|377:230,1,80,8|0,0:0|0:0,0:0:0:0:
392,148,122577,2,0,L|297:144,1,80,8|0,0:0|0:0,0:0:0:0:
216,133,123258,1,8,0:0:0:0:
88,276,123940,6,0,L|85:196,1,80,8|0,0:0|0:0,0:0:0:0:
178,222,124622,2,0,L|175:142,1,80,8|0,0:0|0:0,0:0:0:0:
249,81,125304,2,0,P|294:73|335:82,1,80,8|0,0:0|0:0,0:0:0:0:
392,149,125985,1,8,0:0:0:0:
323,215,126326,1,0,0:0:0:0:
391,282,126667,6,0,P|403:323|388:366,1,80,4|0,0:0|0:0,0:0:0:0:
307,314,127349,2,0,P|265:325|222:310,1,80,8|0,0:0|0:0,0:0:0:0:
267,226,128031,2,0,L|265:132,1,80,8|0,0:0|0:0,0:0:0:0:
174,114,128713,2,0,L|175:194,1,80,8|0,0:0|0:0,0:0:0:0:
96,249,129395,6,0,L|-16:239,1,80,8|0,0:0|0:0,0:0:0:0:
2,146,130077,2,0,L|81:153,1,80,8|0,0:0|0:0,0:0:0:0:
161,100,130758,2,0,L|175:19,1,80,8|0,0:0|0:0,0:0:0:0:
265,54,131440,2,0,L|251:132,1,80,8|0,0:0|0:0,0:0:0:0:
313,206,132122,6,0,L|317:304,1,80,8|8,0:0|0:0,0:0:0:0:
413,286,132804,2,0,L|409:206,1,80,8|8,0:0|0:0,0:0:0:0:
413,109,133486,2,0,L|409:11,1,80,8|8,0:0|0:0,0:0:0:0:
313,29,134167,2,0,L|317:109,1,80,8|8,0:0|0:0,0:0:0:0:
256,192,134849,12,8,136212,0:0:0:0:
35,49,137577,6,0,L|40:136,1,80,4|0,0:0|0:0,0:0:0:0:
100,203,138258,2,0,L|236:191,1,120,8|0,0:0|0:0,0:0:0:0:
265,178,138940,2,0,P|278:245|272:297,1,120,8|0,0:0|0:0,0:0:0:0:
259,342,139622,2,0,L|362:335,1,80,8|0,0:0|0:0,0:0:0:0:
410,271,140304,6,0,P|417:219|405:180,2,80,8|0|8,0:0|0:0|0:0,0:0:0:0:
321,230,141327,1,0,0:0:0:0:
234,270,141668,2,0,P|223:224|232:191,2,80,8|0|8,0:0|0:0|0:0,0:0:0:0:
321,230,142690,1,0,0:0:0:0:
315,134,143031,6,0,P|276:100|242:94,1,80,8|0,0:0|0:0,0:0:0:0:
159,129,143713,2,0,P|111:147|35:130,1,120,8|0,0:0|0:0,0:0:0:0:
35,88,144395,2,0,L|19:224,1,120,8|0,0:0|0:0,0:0:0:0:
43,249,145077,2,0,L|38:338,1,80,8|0,0:0|0:0,0:0:0:0:
133,341,145758,6,0,P|185:348|224:336,2,80,8|0|8,0:0|0:0|0:0,0:0:0:0:
174,252,146781,1,0,0:0:0:0:
134,165,147122,2,0,P|180:154|213:163,2,80,8|0|8,0:0|0:0|0:0,0:0:0:0:
174,252,148144,1,0,0:0:0:0:
267,229,148486,6,0,P|297:182|294:140,1,80,8|0,0:0|0:0,0:0:0:0:
308,63,149168,2,0,L|434:84,1,120,8|0,0:0|0:0,0:0:0:0:
458,118,149849,2,0,P|447:171|456:251,1,120,8|0,0:0|0:0,0:0:0:0:
469,281,150531,2,0,L|382:297,1,80,8|0,0:0|0:0,0:0:0:0:
295,279,151213,6,0,P|302:227|290:188,2,80,8|0|8,0:0|0:0|0:0,0:0:0:0:
206,238,152236,1,0,0:0:0:0:
119,278,152577,2,0,P|108:232|117:199,2,80,8|0|8,0:0|0:0|0:0,0:0:0:0:
206,238,153599,1,0,0:0:0:0:
295,200,153940,6,0,L|399:184,1,80,8|0,0:0|0:0,0:0:0:0:
459,231,154622,2,0,P|468:179|432:113,1,120,8|0,0:0|0:0,0:0:0:0:
404,87,155304,2,0,L|274:105,1,120,8|0,0:0|0:0,0:0:0:0:
239,89,155986,2,0,L|141:103,1,80,8|0,0:0|0:0,0:0:0:0:
76,149,156668,6,0,P|69:201|81:240,2,80,8|0|8,0:0|0:0|0:0,0:0:0:0:
165,190,157691,1,0,0:0:0:0:
252,150,158032,2,0,P|263:196|254:229,2,80
165,190,159054,1,0,0:0:0:0:
437,282,160077,6,0,L|433:143,1,120,8|0,0:0|0:0,0:0:0:0:
406,122,160758,2,0,P|354:139|276:122,1,120,8|0,0:0|0:0,0:0:0:0:
252,99,161440,2,0,L|241:217,1,80,8|0,0:0|0:0,0:0:0:0:
150,200,162122,6,0,P|95:168|-7:219,1,160,8|8,0:0|0:0,0:0:0:0:
77,264,163145,1,0,0:0:0:0:
170,287,163486,2,0,L|337:300,1,160,8|8,0:0|0:0,0:0:0:0:
425,300,164508,1,0,0:0:0:0:
445,206,164849,6,0,P|426:147|438:83,1,120,8|0,0:0|0:0,0:0:0:0:
445,43,165531,2,0,L|299:57,1,120,8|0,0:0|0:0,0:0:0:0:
278,63,166213,2,0,L|286:146,1,80,8|0,0:0|0:0,0:0:0:0:
209,201,166895,2,0,L|201:121,1,80,8|0,0:0|0:0,0:0:0:0:
106,104,167577,6,0,L|124:273,1,160,8|8,0:0|0:0,0:0:0:0:
139,358,168599,1,0,0:0:0:0:
222,309,168940,2,0,P|296:291|390:318,1,160,8|8,0:0|0:0,0:0:0:0:
462,351,169963,1,0,0:0:0:0:
445,256,170304,2,0,L|448:162,1,80,8|0,0:0|0:0,0:0:0:0:
379,108,170986,6,0,P|315:122|239:90,1,120,8|0,0:0|0:0,0:0:0:0:
227,75,171668,2,0,P|169:60|111:74,1,120,8|0,0:0|0:0,0:0:0:0:
97,120,172349,2,0,L|102:224,1,80,8|0,0:0|0:0,0:0:0:0:
191,233,173031,6,0,P|122:294|41:275,1,160,8|8,0:0|0:0,0:0:0:0:
100,199,174054,1,0,0:0:0:0:
177,142,174395,2,0,L|345:130,1,160,8|8,0:0|0:0,0:0:0:0:
430,110,175418,1,0,0:0:0:0:
408,203,175758,6,0,L|415:309,1,80,8|0,0:0|0:0,0:0:0:0:
329,330,176440,2,0,P|250:313|191:329,1,120,8|0,0:0|0:0,0:0:0:0:
164,325,177122,2,0,L|112:210,1,120,8|0,0:0|0:0,0:0:0:0:
104,168,177804,2,0,L|189:162,1,80,8|0,0:0|0:0,0:0:0:0:
249,91,178486,6,0,P|279:157|239:240,1,160,8|8,0:0|0:0,0:0:0:0:
183,162,179508,1,0,0:0:0:0:
246,233,179849,2,0,L|432:251,1,160,0|0,0:0|0:0,0:0:0:0:
496,217,180872,1,0,0:0:0:0:
256,192,181213,12,0,185304,0:0:0:0:
