osu file format v14

[General]
AudioFilename: audio.mp3
AudioLeadIn: 0
PreviewTime: 72122
Countdown: 0
SampleSet: Normal
StackLeniency: 0.7
Mode: 0
LetterboxInBreaks: 0
WidescreenStoryboard: 0

[Editor]
Bookmarks: 93954,115772
DistanceSpacing: 1.3
BeatDivisor: 6
GridSize: 4
TimelineZoom: 1

[Metadata]
Title:Sing Me To Sleep
TitleUnicode:Sing Me To Sleep
Artist:Alan Walker
ArtistUnicode:Alan Walker
Creator:Lilyanna
Version:Melody
Source:
Tags:add Iselin Solheim Electro house synthpop chillstep
BeatmapID:1252019
BeatmapSetID:591671

[Difficulty]
HPDrainRate:7
CircleSize:4
OverallDifficulty:7
ApproachRate:9
SliderMultiplier:3.2
SliderTickRate:1

[Events]
//Background and Video events
0,0,"kms.jpg",0,0
//Break Periods
2,47577,49704
//Storyboard Layer 0 (Background)
//Storyboard Layer 1 (Fail)
//Storyboard Layer 2 (Pass)
//Storyboard Layer 3 (Foreground)
//Storyboard Sound Samples

[TimingPoints]
6668,681.818181818182,4,1,1,45,1,0
28486,-100,4,2,1,20,0,0
61213,-100,4,1,1,20,0,0
72122,-100,4,1,1,50,0,1
92918,-100,4,1,1,25,0,1
93940,-125,4,2,1,40,0,0
115758,-100,4,2,1,40,0,0
126668,-100,4,1,1,40,0,0
137577,-100,4,1,1,50,0,1
159395,-125,4,1,1,50,0,0
160758,-100,4,1,1,50,0,1
179508,-100,4,1,1,25,0,1
181213,-100,4,1,1,100,0,0
182577,-100,4,1,1,20,0,0
183940,-100,4,1,1,15,0,0
185304,-100,4,1,1,5,0,0

[Colours]
Combo1 : 255,162,117
Combo2 : 170,255,170
Combo3 : 140,192,255
Combo4 : 180,180,180

[HitObjects]
369,43,28486,6,0,B|400:139|400:139|379:204,1,160,4|2,0:0|0:0,0:0:0:0:
224,225,29168,2,0,B|301:255|301:255|374:214,1,160,0|2,0:0|0:0,0:0:0:0:
274,87,29849,2,0,B|197:57|197:57|124:98,1,160,0|2,0:0|0:0,0:0:0:0:
41,229,30531,2,0,B|79:141|10:141|48:48,1,160,0|2,0:0|0:0,0:0:0:0:
126,208,31213,6,0,P|114:268|18:308,1,160,0|2,0:0|0:0,0:0:0:0:
189,341,31895,2,0,B|249:329|249:329|361:349,1,160,0|2,0:0|0:0,0:0:0:0:
408,198,32577,2,0,B|388:272|388:272|440:315|421:367,1,160,0|2,0:0|0:0,0:0:0:0:
286,304,33145,1,0,0:0:0:0:
296,274,33258,2,0,L|329:167,1,106.666666666667,0|0,0:0|0:0,0:0:0:0:
262,116,33599,2,0,L|230:217,1,106.666666666667,0|0,0:0|0:0,0:0:0:0:
157,240,33940,6,0,P|83:194|3:246,1,160,0|2,0:0|0:0,0:0:0:0:
81,275,34452,1,0,0:0:0:0:
21,219,34622,2,0,L|13:52,1,160,0|2,0:0|0:0,0:0:0:0:
88,30,35133,1,0,0:0:0:0:
159,65,35304,2,0,B|221:96|221:96|321:63,1,160,0|2,0:0|0:0,0:0:0:0:
425,176,35986,2,0,B|363:145|363:145|263:178,1,160,0|2,0:0|0:0,0:0:0:0:
211,319,36668,6,0,B|235:246|235:246|190:216|195:149,1,160,0|2,0:0|0:0,0:0:0:0:
276,173,37179,1,0,0:0:0:0:
234,104,37349,2,0,P|183:98|114:188,1,160,0|2,0:0|0:0,0:0:0:0:
195,176,37861,1,0,0:0:0:0:
146,239,38031,2,0,P|83:240|41:148,1,160,0|2,0:0|0:0,0:0:0:0:
96,36,38599,1,0,0:0:0:0:
127,39,38712,2,0,L|238:47,1,106.666666666667,0|0,0:0|0:0,0:0:0:0:
381,82,39053,2,0,L|274:111,1,106.666666666667,0|0,0:0|0:0,0:0:0:0:
262,208,39395,6,0,B|353:184|353:184|426:210,1,160,4|2,0:0|0:0,0:0:0:0:
281,295,40077,2,0,B|190:319|190:319|117:293,1,160,8|2,0:0|0:0,0:0:0:0:
52,155,40758,2,0,B|78:239|26:238|46:320,1,160,8|2,0:0|0:0,0:0:0:0:
143,182,41440,2,0,B|168:98|116:99|136:17,1,160,8|2,0:0|0:0,0:0:0:0:
253,133,42122,6,0,B|292:121|292:121|372:144|372:144|427:129,1,160,8|2,0:0|0:0,0:0:0:0:
483,275,42804,2,0,B|501:226|475:183|475:183|501:137|473:86,1,160,8|2,0:0|0:0,0:0:0:0:
380,242,43486,2,0,B|341:254|341:254|261:231|261:231|206:246,1,160,8|2,0:0|0:0,0:0:0:0:
119,230,44054,1,0,0:0:0:0:
116,198,44167,2,0,L|104:86,1,106.666666666667,0|0,0:0|0:0,0:0:0:0:
23,66,44508,2,0,L|33:172,1,106.666666666667,0|0,0:0|0:0,0:0:0:0:
75,298,44849,6,0,P|126:343|219:311,1,160,8|2,0:0|0:0,0:0:0:0:
269,269,45361,1,0,0:0:0:0:
329,321,45531,2,0,P|402:343|463:296,1,160,8|2,0:0|0:0,0:0:0:0:
469,215,46043,1,0,0:0:0:0:
412,158,46213,2,0,L|248:181,1,160,8|2,0:0|0:0,0:0:0:0:
105,119,46895,2,0,L|269:96,1,160,8|2,0:0|0:0,0:0:0:0:
49,62,50304,6,0,B|39:105|39:105|54:185|54:185|37:246,1,160,4|0,0:0|0:0,0:0:0:0:
160,108,50986,2,0,B|215:122|215:122|255:78,1,106.666666666667,8|0,0:0|0:0,0:0:0:0:
281,21,51327,2,0,L|303:133,1,106.666666666667,0|0,0:0|0:0,0:0:0:0:
300,205,51668,2,0,B|365:201|383:135|383:135|464:148,1,160,8|0,0:0|0:0,0:0:0:0:
256,312,52349,2,0,B|201:326|201:326|115:260,1,160,8|0,0:0|0:0,0:0:0:0:
5,296,52861,1,0,0:0:0:0:
5,296,53031,6,0,L|37:133,1,160,8|0,0:0|0:0,0:0:0:0:
265,210,53713,2,0,B|279:154|279:154|235:114,1,106.666666666667,8|0,0:0|0:0,0:0:0:0:
173,79,54054,2,0,L|285:57,1,106.666666666667,0|0,0:0|0:0,0:0:0:0:
354,80,54395,2,0,B|399:119|399:119|496:75,1,160,8|0,0:0|0:0,0:0:0:0:
355,277,55077,2,0,B|308:245|308:245|255:272,1,106.666666666667,8|0,0:0|0:0,0:0:0:0:
200,319,55418,2,0,L|217:206,1,106.666666666667,0|0,0:0|0:0,0:0:0:0:
146,176,55758,6,0,L|117:349,1,160,8|0,0:0|0:0,0:0:0:0:
171,98,56440,2,0,B|217:129|217:129|270:102,1,106.666666666667,8|0,0:0|0:0,0:0:0:0:
326,56,56781,2,0,L|308:168,1,106.666666666667,0|0,0:0|0:0,0:0:0:0:
241,203,57122,2,0,P|299:241|384:195,1,160,8|0,0:0|0:0,0:0:0:0:
143,270,57804,2,0,B|48:255|48:255|-28:291,1,160,8|0,0:0|0:0,0:0:0:0:
19,165,58315,1,0,0:0:0:0:
19,165,58486,6,0,L|186:193,1,160,8|0,0:0|0:0,0:0:0:0:
393,85,59168,2,0,L|226:113,1,160,8|0,0:0|0:0,0:0:0:0:
397,287,59849,2,0,L|230:259,1,160,8|0,0:0|0:0,0:0:0:0:
78,147,60418,1,0,0:0:0:0:
59,117,60531,2,0,L|50:33,1,80,8|0,0:0|0:0,0:0:0:0:
60,253,60872,2,0,L|51:337,1,80
147,185,61213,6,0,B|216:169|216:169|312:195,1,160,4|0,0:0|0:0,0:0:0:0:
512,92,61895,2,0,B|465:124|465:124|412:97,1,106.666666666667,8|0,0:0|0:0,0:0:0:0:
357,50,62236,2,0,L|374:163,1,106.666666666667,0|0,0:0|0:0,0:0:0:0:
303,193,62577,2,0,L|276:20,1,160,8|0,0:0|0:0,0:0:0:0:
90,188,63258,2,0,L|61:361,1,160,8|0,0:0|0:0,0:0:0:0:
196,345,63770,1,0,0:0:0:0:
196,345,63940,6,0,L|167:172,1,160,8|0,0:0|0:0,0:0:0:0:
405,130,64622,2,0,B|358:98|358:98|305:125,1,106.666666666667,8|0,0:0|0:0,0:0:0:0:
250,172,64963,2,0,L|267:59,1,106.666666666667
196,29,65304,2,0,L|167:202,1,160,8|0,0:0|0:0,0:0:0:0:
353,348,65986,2,0,L|324:175,1,160,8|0,0:0|0:0,0:0:0:0:
110,84,66668,6,0,B|123:166,1,80,8|8,0:0|0:0,0:0:0:0:
24,304,67008,2,0,B|11:224,1,80,8|8,0:0|0:0,0:0:0:0:
349,246,67349,2,0,B|302:278|302:278|249:251,1,106.666666666667,8|0,0:0|0:0,0:0:0:0:
194,204,67690,2,0,L|211:317,1,106.666666666667,8|0,0:0|0:0,0:0:0:0:
106,345,68031,6,0,L|93:258,1,80,8|8,0:0|0:0,0:0:0:0:
119,60,68372,2,0,L|130:139,1,80,8|8,0:0|0:0,0:0:0:0:
244,277,68713,2,0,L|232:197,1,80,8|8,0:0|0:0,0:0:0:0:
282,20,69054,2,0,L|296:119,1,80,8|8,0:0|0:0,0:0:0:0:
413,218,69395,6,0,L|501:211,1,80,8|0,0:0|0:0,0:0:0:0:
418,95,69736,2,0,L|506:88,1,80,8|0,0:0|0:0,0:0:0:0:
294,193,70077,2,0,L|206:186,1,80,8|0,0:0|0:0,0:0:0:0:
315,86,70418,2,0,L|227:79,1,80,8|0,0:0|0:0,0:0:0:0:
188,88,70673,1,0,0:0:0:0:
143,106,70758,2,0,L|63:99,1,80,8|0,0:0|0:0,0:0:0:0:
5,222,71099,2,0,L|93:229,1,80,8|0,0:0|0:0,0:0:0:0:
177,366,71440,5,8,0:0:0:0:
192,214,71611,1,8,0:0:0:0:
88,322,71781,1,8,0:0:0:0:
241,296,71952,1,8,0:0:0:0:
84,228,72122,6,0,L|76:136,1,80,4|0,0:0|0:0,0:0:0:0:
123,54,72463,1,0,0:0:0:0:
20,67,72633,1,0,0:0:0:0:
188,123,72804,2,0,B|270:94|270:94|298:131|360:130,1,160,8|0,0:0|0:0,0:0:0:0:
348,23,73315,1,0,0:0:0:0:
421,118,73486,2,0,P|409:178|312:214,1,160,8|0,0:0|0:0,0:0:0:0:
207,255,73997,1,0,0:0:0:0:
332,128,74168,1,8,0:0:0:0:
168,178,74338,2,0,P|133:218|155:321,1,160,0|0,0:0|0:0,0:0:0:0:
168,178,74849,6,0,B|186:135|186:135|164:75,1,80,8|0,0:0|0:0,0:0:0:0:
85,49,75190,1,0,0:0:0:0:
187,28,75361,1,0,0:0:0:0:
72,145,75531,2,0,B|46:221|46:221|73:305,1,160,8|0,0:0|0:0,0:0:0:0:
168,178,76043,2,0,L|150:230,1,40,0|0,0:0|0:0,0:0:0:0:
168,178,76213,2,0,B|211:196|211:196|271:174,1,80,8|0,0:0|0:0,0:0:0:0:
318,107,76554,1,0,0:0:0:0:
203,80,76724,1,0,0:0:0:0:
352,209,76895,1,8,0:0:0:0:
302,26,77065,2,0,P|368:44|396:138,1,160
203,80,77577,6,0,L|113:89,1,80,8|0,0:0|0:0,0:0:0:0:
20,104,77918,1,0,0:0:0:0:
69,12,78088,1,0,0:0:0:0:
74,177,78258,2,0,B|89:191|80:239|80:239|133:190|194:218,1,160,8|0,0:0|0:0,0:0:0:0:
266,287,78770,1,0,0:0:0:0:
344,355,78940,2,0,P|367:308|332:210,1,160,8|0,0:0|0:0,0:0:0:0:
281,90,79452,1,0,0:0:0:0:
266,287,79622,1,8,0:0:0:0:
228,156,79793,2,0,P|198:83|256:7,1,160,0|0,0:0|0:0,0:0:0:0:
140,193,80304,6,0,B|158:236|158:236|136:296,1,80,8|0,0:0|0:0,0:0:0:0:
57,322,80645,1,0,0:0:0:0:
159,343,80816,1,0,0:0:0:0:
44,226,80986,2,0,B|18:150|18:150|45:66,1,160,8|0,0:0|0:0,0:0:0:0:
140,193,81498,2,0,L|122:141,1,40,0|0,0:0|0:0,0:0:0:0:
140,193,81668,2,0,B|183:175|183:175|243:197,1,80,8|0,0:0|0:0,0:0:0:0:
290,264,82009,1,0,0:0:0:0:
175,291,82179,1,0,0:0:0:0:
316,153,82350,1,8,0:0:0:0:
249,334,82520,2,0,P|326:335|371:272,1,160,0|0,0:0|0:0,0:0:0:0:
457,62,83031,6,0,L|463:141,1,80,8|0,0:0|0:0,0:0:0:0:
469,245,83372,1,0,0:0:0:0:
383,186,83542,1,0,0:0:0:0:
231,266,83713,2,0,B|281:271|308:238|308:238|336:275|370:272,1,160,8|0,0:0|0:0,0:0:0:0:
245,180,84224,1,0,0:0:0:0:
242,349,84395,2,0,P|169:323|153:248,1,160,8|0,0:0|0:0,0:0:0:0:
156,145,84906,1,0,0:0:0:0:
231,266,85077,1,8,0:0:0:0:
233,103,85247,2,0,P|193:68|90:90,1,160
233,103,85758,6,0,B|276:121|276:121|336:99,1,80,8|0,0:0|0:0,0:0:0:0:
394,51,86099,1,0,0:0:0:0:
293,23,86270,1,0,0:0:0:0:
398,150,86440,2,0,B|372:226|372:226|399:310,1,160,8|0,0:0|0:0,0:0:0:0:
281,306,86952,2,0,L|299:358,1,40,0|0,0:0|0:0,0:0:0:0:
281,306,87122,2,0,B|238:324|238:324|178:302,1,80,8|0,0:0|0:0,0:0:0:0:
131,235,87463,1,0,0:0:0:0:
246,208,87633,1,0,0:0:0:0:
97,337,87804,1,8,0:0:0:0:
149,158,87974,2,0,P|95:164|63:275,1,160
244,121,88486,6,0,L|323:113,1,80,8|0,0:0|0:0,0:0:0:0:
424,86,88827,1,0,0:0:0:0:
347,16,88997,1,0,0:0:0:0:
389,169,89168,2,0,B|405:209|405:209|372:257|387:320,1,160,8|0,0:0|0:0,0:0:0:0:
246,270,89679,1,0,0:0:0:0:
168,338,89849,2,0,P|145:291|180:193,1,160,8|0,0:0|0:0,0:0:0:0:
233,104,90361,1,0,0:0:0:0:
246,270,90531,1,8,0:0:0:0:
286,170,90702,2,0,P|316:97|258:21,1,160,0|0,0:0|0:0,0:0:0:0:
159,122,91213,6,0,B|116:140|116:140|56:118,1,80,8|0,0:0|0:0,0:0:0:0:
26,42,91554,1,0,0:0:0:0:
0,146,91725,1,0,0:0:0:0:
123,45,91895,2,0,B|191:20|191:20|282:31,1,160,8|0,0:0|0:0,0:0:0:0:
282,195,92407,2,0,L|264:247,1,40,0|0,0:0|0:0,0:0:0:0:
282,195,92577,2,0,B|325:213|325:213|385:191,1,80
432,124,92918,1,0,0:0:0:0:
317,97,93088,1,0,0:0:0:0:
466,226,93259,1,0,0:0:0:0:
391,54,93429,2,0,P|468:53|513:116,1,160,0|0,0:0|0:0,0:0:0:0:
317,97,93940,6,0,L|161:84,1,128,4|0,0:0|0:0,0:0:0:0:
112,120,94452,1,0,0:0:0:0:
162,186,94622,2,0,L|318:199,1,128,8|0,0:0|0:0,0:0:0:0:
386,332,95304,2,0,B|403:259|403:259|381:201,1,128,8|0,0:0|0:0,0:0:0:0:
287,74,95986,2,0,B|270:147|270:147|292:205,1,128,8|0,0:0|0:0,0:0:0:0:
317,274,96497,1,0,0:0:0:0:
288,196,96668,6,0,P|215:188|145:204,1,128,8|0,0:0|0:0,0:0:0:0:
30,300,97349,2,0,P|103:308|173:292,1,128,8|0,0:0|0:0,0:0:0:0:
267,173,98031,2,0,B|249:109|249:109|274:35,1,128,8|0,0:0|0:0,0:0:0:0:
374,16,98599,1,0,0:0:0:0:
389,38,98713,2,0,L|403:132,1,85.3333333333333,8|0,0:0|0:0,0:0:0:0:
489,199,99054,2,0,L|476:114,1,85.3333333333333,0|0,0:0|0:0,0:0:0:0:
311,152,99395,6,0,B|244:132|244:132|165:151,1,128,8|0,0:0|0:0,0:0:0:0:
45,233,100077,2,0,B|112:253|112:253|191:234,1,128,8|0,0:0|0:0,0:0:0:0:
248,216,100588,1,0,0:0:0:0:
279,292,100758,2,0,P|315:259|317:173,1,128,8|0,0:0|0:0,0:0:0:0:
269,24,101440,2,0,P|233:57|231:143,1,128,8|0,0:0|0:0,0:0:0:0:
80,213,102122,6,0,L|219:222,1,128,8|0,0:0|0:0,0:0:0:0:
345,315,102804,2,0,L|206:306,1,128,8|0,0:0|0:0,0:0:0:0:
80,213,103486,2,0,L|89:73,1,128,8|0,0:0|0:0,0:0:0:0:
178,19,104054,1,0,0:0:0:0:
193,41,104168,2,0,L|207:135,1,85.3333333333333,8|0,0:0|0:0,0:0:0:0:
293,202,104508,2,0,L|280:117,1,85.3333333333333,0|0,0:0|0:0,0:0:0:0:
293,305,104849,6,0,B|352:324|352:324|440:295,1,128,8|0,0:0|0:0,0:0:0:0:
480,251,105361,1,0,0:0:0:0:
414,200,105531,2,0,B|355:181|355:181|267:210,1,128,8|0,0:0|0:0,0:0:0:0:
127,230,106213,2,0,P|43:243|-7:223,1,128,8|0,0:0|0:0,0:0:0:0:
119,96,106895,2,0,P|203:83|253:103,1,128,8|0,0:0|0:0,0:0:0:0:
290,164,107406,1,0,0:0:0:0:
352,214,107577,6,0,P|370:155|340:98,1,128,8|0,0:0|0:0,0:0:0:0:
225,218,108258,2,0,P|207:277|237:334,1,128,8|0,0:0|0:0,0:0:0:0:
402,328,108940,2,0,P|430:272|413:212,1,128,8|0,0:0|0:0,0:0:0:0:
313,260,109508,1,0,0:0:0:0:
298,238,109622,2,0,L|284:144,1,85.3333333333333,8|0,0:0|0:0,0:0:0:0:
340,33,109963,2,0,L|352:117,1,85.3333333333333,0|0,0:0|0:0,0:0:0:0:
225,92,110304,6,0,B|163:79|163:79|77:104,1,128,8|0,0:0|0:0,0:0:0:0:
39,153,110815,1,0,0:0:0:0:
105,203,110986,2,0,B|167:216|167:216|253:191,1,128,8|0,0:0|0:0,0:0:0:0:
395,206,111668,2,0,L|410:336,1,128,8|0,0:0|0:0,0:0:0:0:
243,325,112349,2,0,L|228:195,1,128,8|0,0:0|0:0,0:0:0:0:
217,114,112861,1,0,0:0:0:0:
256,192,113031,12,0,115418,0:0:0:0:
466,167,115758,6,0,B|458:199|458:199|490:263|463:322,1,160,4|0,0:0|0:0,0:0:0:0:
274,172,116440,2,0,L|277:65,1,106.666666666667
201,40,116781,2,0,L|197:158,1,106.666666666667
199,226,117122,2,0,B|148:230|124:183|124:183|70:201|35:169,1,160,8|0,0:0|0:0,0:0:0:0:
273,292,117804,2,0,B|285:309|339:291|339:291|363:338|414:334,1,160,8|0,0:0|0:0,0:0:0:0:
451,220,118315,1,0,0:0:0:0:
451,220,118486,6,0,L|464:53,1,160,8|0,0:0|0:0,0:0:0:0:
243,157,119168,2,0,L|246:50,1,106.666666666667
170,25,119509,2,0,L|166:143,1,106.666666666667
93,163,119849,2,0,B|95:186|117:203|117:203|80:244|110:319,1,160,8|0,0:0|0:0,0:0:0:0:
352,222,120531,2,0,L|336:327,1,106.666666666667
256,322,120872,2,0,L|273:209,1,106.666666666667
202,179,121213,6,0,L|173:352,1,160,8|0,0:0|0:0,0:0:0:0:
279,119,121895,2,0,L|295:13,1,106.666666666667
368,48,122236,2,0,L|350:160,1,106.666666666667
283,195,122577,2,0,P|341:233|426:187,1,160,8|0,0:0|0:0,0:0:0:0:
207,84,123258,2,0,B|169:61|169:61|111:93|53:72,1,160,8|0,0:0|0:0,0:0:0:0:
18,187,123769,1,0,0:0:0:0:
18,187,123940,6,0,B|56:210|56:210|114:178|172:199,1,160,8|0,0:0|0:0,0:0:0:0:
405,149,124622,2,0,P|329:141|238:177,1,160,8|0,0:0|0:0,0:0:0:0:
48,297,125304,2,0,P|124:305|215:269,1,160,8|0,0:0|0:0,0:0:0:0:
223,58,125872,1,0,0:0:0:0:
242,88,125985,2,0,L|251:172,1,80,8|0,0:0|0:0,0:0:0:0:
298,316,126326,2,0,L|307:232,1,80
104,154,126667,6,0,B|134:150|150:135|150:135|190:177|269:164,1,160,4|0,0:0|0:0,0:0:0:0:
484,109,127349,2,0,B|437:77|437:77|384:104,1,106.666666666667,8|0,0:0|0:0,0:0:0:0:
329,151,127690,2,0,L|346:38,1,106.666666666667,0|0,0:0|0:0,0:0:0:0:
275,8,128031,2,0,L|248:181,1,160,8|0,0:0|0:0,0:0:0:0:
64,304,128713,2,0,B|72:283|88:273|88:273|47:202|93:131,1,160,8|0,0:0|0:0,0:0:0:0:
185,215,129224,1,0,0:0:0:0:
185,215,129395,6,0,B|232:253|267:243|267:243|285:314,1,160,8|0,0:0|0:0,0:0:0:0:
493,209,130076,2,0,B|446:241|446:241|393:214,1,106.666666666667,8|0,0:0|0:0,0:0:0:0:
338,167,130417,2,0,L|355:280,1,106.666666666667,0|0,0:0|0:0,0:0:0:0:
284,310,130758,2,0,L|255:137,1,160,8|0,0:0|0:0,0:0:0:0:
29,57,131440,2,0,P|96:75|103:178,1,160,8|0,0:0|0:0,0:0:0:0:
262,303,132122,6,0,L|172:307,1,80,8|0,0:0|0:0,0:0:0:0:
33,255,132463,2,0,L|123:259,1,80,8|0,0:0|0:0,0:0:0:0:
248,120,132803,2,0,B|295:152|295:152|348:125,1,106.666666666667,8|0,0:0|0:0,0:0:0:0:
403,78,133144,2,0,L|386:191,1,106.666666666667,8|0,0:0|0:0,0:0:0:0:
458,222,133486,6,0,L|483:58,1,160,8|8,0:0|0:0,0:0:0:0:
448,306,134168,2,0,P|385:260|386:183,1,160,8|8,0:0|0:0,0:0:0:0:
410,65,134678,1,0,0:0:0:0:
303,150,134849,6,0,L|215:143,1,80,8|0,0:0|0:0,0:0:0:0:
317,42,135190,2,0,L|229:35,1,80,8|0,0:0|0:0,0:0:0:0:
120,169,135531,1,0,0:0:0:0:
164,74,135702,1,0,0:0:0:0:
83,264,135872,1,0,0:0:0:0:
241,288,136043,1,0,0:0:0:0:
241,288,136127,1,0,0:0:0:0:
241,288,136213,2,0,L|329:295,1,80,8|0,0:0|0:0,0:0:0:0:
261,170,136554,2,0,L|341:177,1,80,8|0,0:0|0:0,0:0:0:0:
458,341,136894,5,8,0:0:0:0:
479,169,137065,1,8,0:0:0:0:
431,312,137235,1,8,0:0:0:0:
405,132,137406,1,8,0:0:0:0:
339,318,137576,6,0,L|247:310,1,80,4|0,0:0|0:0,0:0:0:0:
172,352,137917,1,0,0:0:0:0:
185,249,138087,1,0,0:0:0:0:
37,177,138258,2,0,B|119:206|119:206|147:169|209:170,1,160,8|0,0:0|0:0,0:0:0:0:
278,133,138769,1,0,0:0:0:0:
172,26,138940,2,0,B|181:57|199:68|199:68|159:117|191:206,1,160,8|0,0:0|0:0,0:0:0:0:
220,248,139451,1,0,0:0:0:0:
358,161,139622,1,8,0:0:0:0:
181,171,139792,2,0,P|146:211|168:314,1,160,0|0,0:0|0:0,0:0:0:0:
260,160,140304,6,0,B|278:117|278:117|256:57,2,80,8|0|0,0:0|0:0|0:0,0:0:0:0:
328,40,140815,1,0,0:0:0:0:
404,152,140986,2,0,B|378:228|378:228|405:312,1,160,8|0,0:0|0:0,0:0:0:0:
239,335,141497,1,0,0:0:0:0:
239,335,141582,1,0,0:0:0:0:
239,335,141667,2,0,B|257:292|235:232,1,80,8|0,0:0|0:0,0:0:0:0:
168,185,142008,1,0,0:0:0:0:
141,299,142178,1,0,0:0:0:0:
270,151,142349,1,8,0:0:0:0:
98,226,142520,2,0,P|97:149|160:104,1,160
349,143,143031,6,0,L|259:152,1,80,8|0,0:0|0:0,0:0:0:0:
168,185,143372,1,0,0:0:0:0:
234,71,143542,1,0,0:0:0:0:
243,230,143713,2,0,B|263:243|278:265|278:265|338:232|399:276,1,160,8|0,0:0|0:0,0:0:0:0:
333,357,144224,1,0,0:0:0:0:
393,122,144395,2,0,P|416:169|381:267,1,160,8|0,0:0|0:0,0:0:0:0:
333,357,144906,1,0,0:0:0:0:
315,190,145076,1,8,0:0:0:0:
241,120,145247,2,0,P|212:192|257:275,1,160,0|0,0:0|0:0,0:0:0:0:
159,326,145758,6,0,B|116:344|116:344|56:322,1,80,8|0,0:0|0:0,0:0:0:0:
30,243,146099,1,0,0:0:0:0:
10,345,146270,1,0,0:0:0:0:
118,244,146440,2,0,B|152:220|152:220|185:264|259:252,1,160,8|0,0:0|0:0,0:0:0:0:
224,154,146952,2,0,L|206:102,1,40,0|0,0:0|0:0,0:0:0:0:
224,154,147122,2,0,B|267:136|267:136|327:158,1,80,8|0,0:0|0:0,0:0:0:0:
374,225,147463,1,0,0:0:0:0:
259,252,147633,1,0,0:0:0:0:
400,114,147804,1,8,0:0:0:0:
333,295,147974,2,0,P|410:296|455:233,1,160,0|0,0:0|0:0,0:0:0:0:
259,252,148485,6,0,P|249:293|260:336,1,80,8|0,0:0|0:0,0:0:0:0:
158,362,148826,1,0,0:0:0:0:
60,327,148996,1,0,0:0:0:0:
136,256,149167,2,0,B|131:206|164:179|164:179|127:151|129:117,1,160,8|0,0:0|0:0,0:0:0:0:
74,28,149678,1,0,0:0:0:0:
209,110,149850,2,0,P|275:70|343:106,1,160,8|0,0:0|0:0,0:0:0:0:
437,178,150361,1,0,0:0:0:0:
279,154,150531,1,8,0:0:0:0:
367,220,150702,2,0,P|441:260|514:198,1,160,0|0,0:0|0:0,0:0:0:0:
279,154,151213,6,0,B|236:136|236:136|176:158,2,80,8|0|0,0:0|0:0|0:0,0:0:0:0:
219,234,151724,1,0,0:0:0:0:
129,130,151895,2,0,B|97:62|97:62|134:80|188:75,1,160,8|0,0:0|0:0,0:0:0:0:
228,243,152406,1,0,0:0:0:0:
228,243,152491,1,0,0:0:0:0:
228,243,152576,2,0,B|271:261|331:239,1,80,8|0,0:0|0:0,0:0:0:0:
408,222,152917,1,0,0:0:0:0:
342,123,153087,1,0,0:0:0:0:
363,319,153258,1,8,0:0:0:0:
426,142,153429,2,0,P|482:193|472:270,1,160,0|0,0:0|0:0,0:0:0:0:
342,123,153940,6,0,P|363:84|417:62,1,80,8|0,0:0|0:0,0:0:0:0:
497,66,154281,1,0,0:0:0:0:
426,142,154452,1,0,0:0:0:0:
274,219,154622,2,0,B|343:259|343:259|427:214,1,160,8|0,0:0|0:0,0:0:0:0:
254,136,155133,1,0,0:0:0:0:
176,68,155304,2,0,P|153:115|188:213,1,160,8|0,0:0|0:0,0:0:0:0:
252,289,155815,1,0,0:0:0:0:
254,136,155985,1,8,0:0:0:0:
297,361,156156,2,0,P|334:293|304:222,1,160
186,211,156667,6,0,B|143:229|143:229|83:207,1,80,8|0,0:0|0:0,0:0:0:0:
57,128,157008,1,0,0:0:0:0:
27,228,157179,1,0,0:0:0:0:
150,127,157349,2,0,B|218:102|218:102|309:113,1,160,8|0,0:0|0:0,0:0:0:0:
269,210,157861,2,0,L|251:262,1,40,0|0,0:0|0:0,0:0:0:0:
269,210,158031,2,0,B|312:228|312:228|372:206,1,80,0|0,0:0|0:0,0:0:0:0:
419,139,158372,1,0,0:0:0:0:
304,112,158542,1,0,0:0:0:0:
453,241,158713,1,0,0:0:0:0:
378,69,158883,2,0,P|455:68|500:131,1,160
304,112,159395,6,0,P|248:124|184:75,1,128
191,87,160077,2,0,P|203:143|154:207,1,128,8|0,0:0|0:0,0:0:0:0:
120,130,160588,1,0,0:0:0:0:
67,222,160758,2,0,P|116:292|199:297,1,160,8|0,0:0|0:0,0:0:0:0:
166,199,161270,1,0,0:0:0:0:
270,328,161440,1,8,0:0:0:0:
465,254,161611,2,0,B|380:239|380:239|276:259,1,160
254,163,162122,6,0,L|359:140,1,80,8|0,0:0|0:0,0:0:0:0:
383,240,162463,1,0,0:0:0:0:
433,330,162633,1,0,0:0:0:0:
467,220,162804,2,0,L|486:137,1,80,8|0,0:0|0:0,0:0:0:0:
454,42,163145,1,0,0:0:0:0:
334,55,163315,1,0,0:0:0:0:
334,55,163400,1,0,0:0:0:0:
334,55,163486,2,0,B|267:60|267:60|217:46,1,120,8|0,0:0|0:0,0:0:0:0:
169,22,163827,2,0,L|151:147,1,120,0|0,0:0|0:0,0:0:0:0:
130,188,164168,2,0,P|85:172|26:188,1,80,8|0,0:0|0:0,0:0:0:0:
76,276,164508,1,0,0:0:0:0:
195,286,164679,1,0,0:0:0:0:
195,286,164849,6,0,L|364:295,1,160,8|0,0:0|0:0,0:0:0:0:
417,218,165361,1,0,0:0:0:0:
493,148,165531,2,0,P|518:194|489:292,1,160,8|0,0:0|0:0,0:0:0:0:
417,218,166043,1,0,0:0:0:0:
265,212,166213,2,0,B|251:166|251:166|315:137|295:56,1,160,8|0,0:0|0:0,0:0:0:0:
392,29,166724,1,0,0:0:0:0:
225,92,166895,1,8,0:0:0:0:
166,212,167065,2,0,B|191:290|191:290|150:356,1,160,0|0,0:0|0:0,0:0:0:0:
50,355,167577,6,0,L|97:284,1,80,8|0,0:0|0:0,0:0:0:0:
166,212,167918,1,0,0:0:0:0:
74,164,168088,1,0,0:0:0:0:
261,153,168258,2,0,P|343:139|428:166,1,160,8|0,0:0|0:0,0:0:0:0:
506,212,168770,1,0,0:0:0:0:
506,212,168855,1,0,0:0:0:0:
506,212,168940,2,0,P|516:158|507:121,1,80,8|0,0:0|0:0,0:0:0:0:
441,57,169281,1,0,0:0:0:0:
415,159,169452,1,0,0:0:0:0:
351,13,169622,1,8,0:0:0:0:
313,110,169793,2,0,B|272:103|240:119|240:119|208:101|139:111,1,160,0|0,0:0|0:0,0:0:0:0:
165,293,170304,6,0,L|179:204,1,80,8|0,0:0|0:0,0:0:0:0:
157,109,170645,1,0,0:0:0:0:
88,186,170815,1,0,0:0:0:0:
257,183,170986,2,0,B|333:202|333:202|421:185,1,160,8|0,0:0|0:0,0:0:0:0:
496,124,171497,1,0,0:0:0:0:
413,186,171668,2,0,P|395:244|453:332,1,160,8|0,0:0|0:0,0:0:0:0:
501,240,172179,1,0,0:0:0:0:
428,82,172349,1,8,0:0:0:0:
413,186,172520,2,0,L|249:196,1,160,0|0,0:0|0:0,0:0:0:0:
165,252,173031,6,0,L|153:166,1,80,8|0,0:0|0:0,0:0:0:0:
221,96,173372,1,0,0:0:0:0:
253,195,173543,1,0,0:0:0:0:
132,87,173713,2,0,P|91:114|77:217,1,160,8|0,0:0|0:0,0:0:0:0:
83,321,174224,1,0,0:0:0:0:
83,321,174310,1,0,0:0:0:0:
83,321,174395,2,0,L|212:338,1,120,8|0,0:0|0:0,0:0:0:0:
253,345,174736,2,0,B|264:277|264:277|303:232,1,120,0|0,0:0|0:0,0:0:0:0:
333,200,175077,2,0,P|382:210|435:193,1,80,8|0,0:0|0:0,0:0:0:0:
502,155,175418,1,0,0:0:0:0:
454,62,175588,1,0,0:0:0:0:
454,62,175758,6,0,P|358:36|297:77,1,160,8|0,0:0|0:0,0:0:0:0:
218,10,176270,1,0,0:0:0:0:
202,113,176440,2,0,L|190:304,1,160,8|0,0:0|0:0,0:0:0:0:
114,343,176952,1,0,0:0:0:0:
56,256,177122,2,0,L|66:96,1,160,8|0,0:0|0:0,0:0:0:0:
142,25,177633,1,0,0:0:0:0:
133,190,177804,1,8,0:0:0:0:
202,113,177974,2,0,P|259:96|366:119,1,160,0|0,0:0|0:0,0:0:0:0:
434,43,178486,6,0,L|437:137,1,80,8|0,0:0|0:0,0:0:0:0:
387,214,178827,1,0,0:0:0:0:
356,113,178997,1,0,0:0:0:0:
464,266,179168,2,0,P|395:303|318:274,1,160,8|0,0:0|0:0,0:0:0:0:
263,191,179679,1,0,0:0:0:0:
263,191,179764,1,0,0:0:0:0:
263,191,179849,2,0,L|234:282,1,80,0|0,0:0|0:0,0:0:0:0:
183,355,180190,1,0,0:0:0:0:
148,256,180361,1,0,0:0:0:0:
73,328,180531,5,0,0:0:0:0:
118,165,180702,1,0,0:0:0:0:
256,192,180872,12,0,185304,0:0:0:0:
