osu file format v14

[General]
AudioFilename: audio.mp3
AudioLeadIn: 0
PreviewTime: 72128
Countdown: 0
SampleSet: Drum
StackLeniency: 0.7
Mode: 0
LetterboxInBreaks: 0
EpilepsyWarning: 1
WidescreenStoryboard: 1

[Editor]
DistanceSpacing: 1.2
BeatDivisor: 8
GridSize: 32
TimelineZoom: 1.5

[Metadata]
Title:Sing Me To Sleep
TitleUnicode:Sing Me To Sleep
Artist:Alan Walker
ArtistUnicode:Alan Walker
Creator:HootOwlStar
Version:Starset's Sleepwalker
Source:
Tags:Single SMTS Electro House Iselin Solheim Different World Starset HB24 microism Xayler Astarte RyoKazuka jinhang_ang j_a Rirakusu Zerss English EDM Electronic Dance Music
BeatmapID:1282843
BeatmapSetID:482464

[Difficulty]
HPDrainRate:7
CircleSize:4.5
OverallDifficulty:7.5
ApproachRate:8.7
SliderMultiplier:2
SliderTickRate:1

[Events]
//Background and Video events
0,0,"bg.jpg",0,0
Video,0,"video.avi"
//Break Periods
//Storyboard Layer 0 (Background)
//Storyboard Layer 1 (Fail)
//Storyboard Layer 2 (Pass)
//Storyboard Layer 3 (Foreground)
//Storyboard Layer 4 (Overlay)
//Storyboard Sound Samples

[TimingPoints]
6660,681.818181818182,4,3,2,20,1,0
9387,-125,4,3,2,20,0,0
11773,-100,4,3,2,20,0,0
14841,-125,4,3,2,20,0,0
17228,-100,4,3,2,20,0,0
20296,-125,4,3,2,20,0,0
23023,-100,4,3,2,20,0,0
25750,-125,4,3,2,20,0,0
28478,-100,4,2,2,50,0,0
47569,-125,4,2,2,20,0,0
48250,-181.818181818182,4,2,2,20,0,0
48932,-333.333333333333,4,2,2,20,0,0
50296,-100,4,2,2,50,0,0
61205,-100,4,2,2,65,0,0
69557,-83.3333333333333,4,3,2,65,0,0
71432,-83.3333333333333,4,3,0,65,0,0
72114,-76.9230769230769,4,1,2,80,0,1
73222,-76.9230769230769,4,1,2,5,0,1
73307,-76.9230769230769,4,1,2,80,0,1
75097,-76.9230769230769,4,1,2,5,0,1
75182,-76.9230769230769,4,1,2,80,0,1
76461,-76.9230769230769,4,1,2,5,0,1
76546,-76.9230769230769,4,1,2,80,0,1
78677,-76.9230769230769,4,1,2,5,0,1
78762,-76.9230769230769,4,1,2,80,0,1
80552,-76.9230769230769,4,1,2,5,0,1
80637,-76.9230769230769,4,1,2,80,0,1
81915,-76.9230769230769,4,1,2,5,0,1
82000,-76.9230769230769,4,1,2,80,0,1
84131,-76.9230769230769,4,1,2,5,0,1
84216,-76.9230769230769,4,1,2,80,0,1
86006,-76.9230769230769,4,1,2,5,0,1
86091,-76.9230769230769,4,1,2,80,0,1
87370,-76.9230769230769,4,1,2,5,0,1
87455,-76.9230769230769,4,1,2,80,0,1
89586,-76.9230769230769,4,1,2,5,0,1
89671,-76.9230769230769,4,1,2,80,0,1
91461,-76.9230769230769,4,1,2,5,0,1
91546,-76.9230769230769,4,1,2,80,0,1
92824,-76.9230769230769,4,1,2,5,0,1
92909,-76.9230769230769,4,1,2,80,0,1
93932,-100,4,2,2,50,0,0
126660,-100,4,2,2,65,0,0
135012,-83.3333333333333,4,3,2,65,0,0
136887,-83.3333333333333,4,3,0,65,0,0
137569,-76.9230769230769,4,1,2,80,0,1
138677,-76.9230769230769,4,1,2,5,0,1
138762,-76.9230769230769,4,1,2,80,0,1
140552,-76.9230769230769,4,1,2,5,0,1
140637,-76.9230769230769,4,1,2,80,0,1
141915,-76.9230769230769,4,1,2,5,0,1
142000,-76.9230769230769,4,1,2,80,0,1
144131,-76.9230769230769,4,1,2,5,0,1
144216,-76.9230769230769,4,1,2,80,0,1
146006,-76.9230769230769,4,1,2,5,0,1
146091,-76.9230769230769,4,1,2,80,0,1
147370,-76.9230769230769,4,1,2,5,0,1
147455,-76.9230769230769,4,1,2,80,0,1
149586,-76.9230769230769,4,1,2,5,0,1
149671,-76.9230769230769,4,1,2,80,0,1
151461,-76.9230769230769,4,1,2,5,0,1
151546,-76.9230769230769,4,1,2,80,0,1
152824,-76.9230769230769,4,1,2,5,0,1
152909,-76.9230769230769,4,1,2,80,0,1
155040,-76.9230769230769,4,1,2,5,0,1
155125,-76.9230769230769,4,1,2,80,0,1
156915,-76.9230769230769,4,1,2,5,0,1
157000,-76.9230769230769,4,1,2,80,0,1
158279,-76.9230769230769,4,1,2,5,0,1
158364,-76.9230769230769,4,1,2,80,0,1
159387,-76.9230769230769,4,1,2,80,0,0
160069,-76.9230769230769,4,1,2,80,0,1
164586,-76.9230769230769,4,1,2,5,0,1
164671,-76.9230769230769,4,1,2,80,0,1
164756,-76.9230769230769,4,1,2,5,0,1
164841,-76.9230769230769,4,1,2,80,0,1
175495,-76.9230769230769,4,1,2,5,0,1
175580,-76.9230769230769,4,1,2,80,0,1
175665,-76.9230769230769,4,1,2,5,0,1
175750,-76.9230769230769,4,1,2,80,0,1
179500,-76.9230769230769,4,1,2,5,0,1
179585,-76.9230769230769,4,1,2,80,0,1
180012,-76.9230769230769,4,1,2,5,0,1
180097,-76.9230769230769,4,1,2,80,0,1
180523,-76.9230769230769,4,1,2,5,0,1
180694,-100,4,1,2,80,0,1
181205,-76.9230769230769,4,2,2,20,0,0

[Colours]
Combo1 : 191,97,85
Combo2 : 126,109,85
Combo3 : 216,163,117
Combo4 : 142,142,123

[HitObjects]
117,187,6660,6,0,P|168:182|238:166,1,100,4|0,0:0|0:0,0:0:0:0:
365,289,7341,2,0,P|316:279|266:274,1,100
420,161,8023,1,0,0:0:0:0:
442,349,8364,1,0,0:0:0:0:
266,274,8705,1,0,0:0:0:0:
91,348,9046,1,0,0:0:0:0:
132,169,9387,6,0,B|140:125|119:53|119:53|170:79,1,160
238,121,10410,1,0,0:0:0:0:
309,67,10750,2,0,P|361:52|408:53,2,80
238,121,11773,1,0,0:0:0:0:
311,286,12114,6,0,L|300:183,1,100,4|0,0:0|0:0,0:0:0:0:
101,250,12796,2,0,L|111:349,1,100
92,159,13478,1,0,0:0:0:0:
283,193,13819,1,0,0:0:0:0:
194,24,14160,1,0,0:0:0:0:
385,58,14500,1,0,0:0:0:0:
218,149,14841,6,0,B|192:202|224:244|224:244|210:275|220:307,1,160
291,357,15864,1,0,0:0:0:0:
320,269,16205,2,0,L|405:280,2,80
229,256,17228,1,0,0:0:0:0:
398,73,17569,6,0,P|404:133|395:178,1,100,4|0,0:0|0:0,0:0:0:0:
229,256,18250,2,0,P|221:206|227:157,1,100
114,3,18932,1,0,0:0:0:0:
298,48,19273,1,0,0:0:0:0:
129,136,19614,1,0,0:0:0:0:
313,181,19955,1,0,0:0:0:0:
206,26,20296,6,0,L|224:191,1,160
222,275,21319,1,0,0:0:0:0:
136,250,21660,2,0,B|103:241|103:241|53:253,2,80
222,275,22682,1,0,0:0:0:0:
389,185,23023,6,0,P|446:208|482:246,1,100,4|0,0:0|0:0,0:0:0:0:
222,275,23705,2,0,P|165:298|129:336,1,100
324,361,24387,1,0,0:0:0:0:
265,189,24728,1,0,0:0:0:0:
137,324,25069,1,0,0:0:0:0:
340,263,25410,1,0,0:0:0:0:
178,224,25750,6,0,B|131:236|131:236|60:223|60:223|16:233,2,160
265,189,27455,1,0,0:0:0:0:
364,220,27796,1,0,0:0:0:0:
335,120,28137,1,0,0:0:0:0:
408,352,28478,6,0,L|307:340,1,100,4|0,0:0|0:0,0:0:0:0:
165,177,29160,2,0,L|264:188,1,100
42,324,29841,2,0,B|28:283|28:283|39:222,1,100
260,91,30523,2,0,B|274:132|274:132|263:193,1,100
233,342,31205,5,0,0:0:0:0:
164,175,31546,1,0,0:0:0:0:
351,206,31887,2,0,P|405:193|454:164,1,100
278,73,32569,1,0,0:0:0:0:
248,260,32910,1,0,0:0:0:0:
161,168,33137,1,0,0:0:0:0:
149,199,33250,1,0,0:0:0:0:
52,277,33478,1,0,0:0:0:0:
64,308,33591,1,0,0:0:0:0:
216,362,33819,1,0,0:0:0:0:
238,337,33932,6,0,P|285:320|348:321,1,100
416,334,34444,1,0,0:0:0:0:
469,213,34614,2,0,P|419:211|372:194,1,100
299,148,35125,1,0,0:0:0:0:
325,26,35296,2,0,P|361:59|386:102,1,100
239,225,35978,2,0,P|263:181|300:148,1,100
488,372,36660,6,0,L|366:365,1,100
308,357,37171,1,0,0:0:0:0:
239,225,37341,2,0,L|139:230,1,100
58,236,37853,1,0,0:0:0:0:
143,330,38023,1,0,0:0:0:0:
187,142,38364,1,0,0:0:0:0:
316,198,38591,1,0,0:0:0:0:
328,167,38705,1,0,0:0:0:0:
425,89,38932,1,0,0:0:0:0:
413,58,39046,1,0,0:0:0:0:
261,6,39273,1,0,0:0:0:0:
244,34,39387,6,0,B|229:75|229:75|245:140,1,100,6|0,0:0|0:0,0:0:0:0:
451,265,40069,2,0,B|466:224|466:224|450:159,1,100,2|0,0:0|0:0,0:0:0:0:
281,324,40750,2,0,L|181:311,1,100,2|0,0:0|0:0,0:0:0:0:
10,146,41432,2,0,L|110:133,1,100,2|0,0:0|0:0,0:0:0:0:
312,162,42114,5,2,0:0:0:0:
181,311,42455,1,0,0:0:0:0:
377,363,42796,2,0,P|363:310|339:267,1,100,2|0,0:0|0:0,0:0:0:0:
220,174,43478,1,2,0:0:0:0:
396,97,43819,1,0,0:0:0:0:
292,19,44046,1,0,0:0:0:0:
261,32,44160,1,2,0:0:0:0:
163,116,44387,1,0,0:0:0:0:
132,103,44500,1,0,0:0:0:0:
29,30,44728,1,0,0:0:0:0:
4,51,44841,6,0,L|13:163,1,100,2|0,0:0|0:0,0:0:0:0:
19,224,45353,1,0,0:0:0:0:
203,225,45523,2,0,P|161:207|108:199,1,100,2|0,0:0|0:0,0:0:0:0:
19,224,46035,1,0,0:0:0:0:
130,303,46205,2,0,P|80:309|34:329,1,100,2|0,0:0|0:0,0:0:0:0:
324,346,46887,2,0,P|274:338|228:320,1,100,2|0,0:0|0:0,0:0:0:0:
107,198,47569,6,0,L|97:72,1,120
127,206,48250,6,0,L|120:120,1,82.5000025177003
150,214,48932,6,0,L|144:155,1,59.9999981689454
399,35,50296,6,0,L|410:143,1,100,6|0,0:0|0:0,0:0:0:0:
320,305,50978,1,2,0:0:0:0:
234,214,51205,1,0,0:0:0:0:
234,214,51319,1,0,0:0:0:0:
159,318,51546,1,0,0:0:0:0:
159,318,51660,2,0,B|120:303|120:303|58:318,1,100,2|0,0:0|0:0,0:0:0:0:
234,214,52341,2,0,B|273:199|273:199|335:214,1,100,2|0,0:0|0:0,0:0:0:0:
505,272,53023,6,0,L|494:164,1,100,2|0,0:0|0:0,0:0:0:0:
397,32,53705,1,2,0:0:0:0:
308,125,53932,1,0,0:0:0:0:
308,125,54046,1,0,0:0:0:0:
219,29,54273,1,0,0:0:0:0:
219,29,54387,2,0,P|164:41|119:40,1,100,2|0,0:0|0:0,0:0:0:0:
10,196,55069,2,0,P|59:195|108:207,1,100,2|0,0:0|0:0,0:0:0:0:
290,282,55750,6,0,L|279:381,1,100,2|0,0:0|0:0,0:0:0:0:
307,138,56432,1,2,0:0:0:0:
409,212,56660,1,0,0:0:0:0:
409,212,56773,1,0,0:0:0:0:
456,94,57000,1,0,0:0:0:0:
456,94,57114,2,0,P|392:88|347:69,1,100,2|0,0:0|0:0,0:0:0:0:
173,30,57796,2,0,P|109:36|64:55,1,100,2|0,0:0|0:0,0:0:0:0:
227,224,58478,6,0,B|244:186|244:186|232:122,1,100,2|0,0:0|0:0,0:0:0:0:
33,232,59160,2,0,B|16:270|16:270|28:334,1,100,2|0,0:0|0:0,0:0:0:0:
220,358,59841,1,2,0:0:0:0:
122,189,60182,1,0,0:0:0:0:
233,128,60410,1,0,0:0:0:0:
265,133,60523,1,2,0:0:0:0:
340,195,60750,1,0,0:0:0:0:
372,187,60864,1,0,0:0:0:0:
457,107,61091,1,0,0:0:0:0:
489,114,61205,6,0,L|478:12,1,100,14|0,0:0|0:0,0:0:0:0:
340,195,61887,1,8,0:0:0:0:
430,283,62114,1,0,0:0:0:0:
430,283,62228,1,0,0:0:0:0:
324,352,62455,1,0,0:0:0:0:
324,352,62569,2,0,P|273:358|216:348,1,100,10|0,0:0|0:0,0:0:0:0:
51,186,63250,2,0,P|100:178|149:184,1,100,8|0,0:0|0:0,0:0:0:0:
316,15,63932,6,0,L|326:114,1,100,10|0,0:0|0:0,0:0:0:0:
209,299,64614,1,8,0:0:0:0:
149,184,64841,1,0,0:0:0:0:
149,184,64955,1,0,0:0:0:0:
275,195,65182,1,0,0:0:0:0:
275,195,65296,2,0,B|319:208|319:208|381:190,1,100,10|0,0:0|0:0,0:0:0:0:
172,55,65978,2,0,B|128:42|128:42|66:60,1,100,8|0,0:0|0:0,0:0:0:0:
72,260,66660,5,10,0:0:0:0:
275,195,67000,1,8,0:0:0:0:
433,346,67341,1,10,0:0:0:0:
230,281,67569,1,0,0:0:0:0:
230,281,67682,1,8,0:0:0:0:
359,167,67910,1,0,0:0:0:0:
359,167,68023,1,10,0:0:0:0:
316,372,68364,1,8,0:0:0:0:
132,195,68705,1,10,0:0:0:0:
308,92,69046,1,8,0:0:0:0:
145,290,69387,5,10,0:0:0:0:
122,113,69557,1,2,0:0:0:0:
235,236,69728,2,0,L|247:177,1,59.9999981689454
316,355,70069,5,2,0:0:0:0:
145,290,70239,1,2,0:0:0:0:
319,265,70410,1,0,0:0:0:0:
184,376,70580,1,2,0:0:0:0:
184,376,70665,1,2,0:0:0:0:
184,376,70750,5,2,0:0:0:0:
206,172,70921,1,2,0:0:0:0:
316,355,71091,2,0,P|259:327|249:309,1,59.9999981689454
453,234,71432,5,8,0:0:0:0:
319,265,71603,1,4,0:0:0:0:
300,139,71774,1,0,0:0:0:0:
372,191,71944,1,0,0:0:0:0:
32,101,72114,6,0,P|85:82|111:82,1,64.9999970245363,6|0,0:0|0:0,0:0:0:0:
192,110,72455,1,0,0:0:0:0:
122,250,72625,2,0,L|111:169,1,64.9999970245363,0|8,0:0|0:0,0:0:0:0:
254,352,72966,2,0,P|312:349|367:320,1,97.4999955368044
381,312,73307,1,0,0:0:0:0:
481,128,73478,2,0,P|415:87|337:100,1,129.999994049073,2|0,0:0|0:0,0:0:0:0:
260,139,73989,2,0,L|251:65,1,64.9999970245363,0|8,0:0|0:0,0:0:0:0:
381,312,74330,2,0,L|400:153,1,129.999994049073
254,352,74841,6,0,B|213:338|213:338|157:351,1,97.4999955368044,2|0,0:0|0:0,0:0:0:0:
122,362,75182,1,0,0:0:0:0:
100,183,75353,2,0,L|107:247,1,64.9999970245363,2|8,3:0|0:0,0:0:0:0:
149,50,75694,2,0,P|108:54|38:105,1,129.999994049073,2|0,3:0|0:0,0:0:0:0:
312,233,76205,2,0,P|300:172|279:123,1,97.4999955368044,2|0,0:0|0:0,0:0:0:0:
266,105,76546,1,0,0:0:0:0:
220,326,76716,2,0,L|304:333,1,64.9999970245363,6|8,3:0|0:0,0:0:0:0:
441,222,77057,2,0,L|288:234,1,129.999994049073,6|0,3:0|0:0,0:0:0:0:
212,238,77569,6,0,P|211:195|199:167,1,64.9999970245363,2|0,0:0|0:0,0:0:0:0:
145,95,77910,1,0,0:0:0:0:
85,225,78080,2,0,P|86:268|98:296,1,64.9999970245363,0|8,0:0|0:0,0:0:0:0:
260,359,78421,2,0,B|300:342|300:342|376:358,1,97.4999955368044
391,362,78762,1,0,0:0:0:0:
441,222,78932,2,0,L|425:80,1,129.999994049073,2|0,0:0|0:0,0:0:0:0:
415,1,79444,2,0,P|364:15|337:34,1,64.9999970245363,0|8,0:0|0:0,0:0:0:0:
226,127,79785,2,0,P|312:145|359:183,1,129.999994049073
137,281,80296,6,0,L|122:160,1,97.4999955368044,2|0,0:0|0:0,0:0:0:0:
120,144,80637,1,0,0:0:0:0:
248,304,80807,2,0,L|240:368,1,64.9999970245363,2|8,3:0|0:0,0:0:0:0:
17,322,81148,2,0,P|72:288|136:280,1,129.999994049073,2|0,3:0|0:0,0:0:0:0:
403,359,81660,2,0,B|385:319|385:319|396:244,1,97.4999955368044,2|0,0:0|0:0,0:0:0:0:
400,227,82000,1,0,0:0:0:0:
290,119,82171,2,0,L|219:127,1,64.9999970245363,6|8,3:0|0:0,0:0:0:0:
72,31,82512,2,0,L|219:47,1,129.999994049073,6|0,3:0|0:0,0:0:0:0:
298,35,83023,6,0,L|362:27,1,64.9999970245363,2|0,0:0|0:0,0:0:0:0:
464,63,83364,1,0,0:0:0:0:
385,197,83535,2,0,P|370:153|366:121,1,64.9999970245363,0|8,0:0|0:0,0:0:0:0:
507,290,83875,2,0,P|459:312|385:320,1,97.4999955368044
375,320,84216,1,0,0:0:0:0:
222,201,84387,2,0,P|155:197|101:251,1,129.999994049073,2|0,0:0|0:0,0:0:0:0:
86,323,84898,2,0,B|115:328|115:328|148:315,1,64.9999970245363,0|8,0:0|0:0,0:0:0:0:
117,111,85239,2,0,B|97:147|97:147|109:238,1,129.999994049073
352,140,85750,6,0,P|284:104|237:99,1,97.4999955368044,2|0,0:0|0:0,0:0:0:0:
225,97,86091,1,0,0:0:0:0:
384,278,86262,2,0,P|406:239|412:207,1,64.9999970245363,2|8,3:0|0:0,0:0:0:0:
223,202,86603,2,0,L|241:333,1,129.999994049073,2|0,3:0|0:0,0:0:0:0:
482,126,87114,2,0,B|441:112|441:112|372:132,1,97.4999955368044,2|0,0:0|0:0,0:0:0:0:
352,140,87455,1,0,0:0:0:0:
223,202,87625,2,0,L|152:194,1,64.9999970245363,6|8,3:0|0:0,0:0:0:0:
28,301,87966,2,0,L|187:283,1,129.999994049073,6|0,3:0|0:0,0:0:0:0:
256,304,88478,6,0,P|249:335|251:377,1,64.9999970245363,2|0,0:0|0:0,0:0:0:0:
345,270,88819,1,0,0:0:0:0:
223,202,88989,2,0,P|216:171|218:129,1,64.9999970245363,0|8,0:0|0:0,0:0:0:0:
327,10,89330,2,0,P|287:36|214:25,1,97.4999955368044
204,16,89671,1,0,0:0:0:0:
413,63,89841,2,0,P|425:110|428:204,1,129.999994049073,2|0,0:0|0:0,0:0:0:0:
408,267,90353,2,0,B|374:261|374:261|337:272,1,64.9999970245363,0|8,0:0|0:0,0:0:0:0:
156,333,90694,2,0,B|175:269|175:269|147:195,1,129.999994049073
61,56,91205,6,0,L|189:65,1,97.4999955368044,2|0,0:0|0:0,0:0:0:0:
197,67,91546,1,0,0:0:0:0:
340,138,91716,2,0,P|364:102|374:68,1,64.9999970245363,2|8,3:0|0:0,0:0:0:0:
251,260,92057,2,0,P|327:257|400:225,1,129.999994049073,2|0,3:0|0:0,0:0:0:0:
109,146,92569,2,0,P|91:191|81:251,1,97.4999955368044
81,278,92910,1,0,0:0:0:0:
147,343,93080,2,0,L|220:333,1,64.9999970245363
320,354,93421,2,0,L|449:336,1,129.999994049073
503,268,93932,5,6,0:0:0:0:
330,187,94273,1,0,0:0:0:0:
482,73,94614,1,2,0:0:0:0:
395,242,94955,1,0,0:0:0:0:
268,99,95296,2,0,P|311:80|373:90,2,100,2|0|2,0:0|0:0|0:0,0:0:0:0:
121,220,96319,1,0,0:0:0:0:
5,69,96660,6,0,L|108:80,1,100,2|0,0:0|0:0,0:0:0:0:
220,230,97341,2,0,L|120:219,1,100,2|0,0:0|0:0,0:0:0:0:
268,99,98023,1,2,0:0:0:0:
401,234,98364,1,0,0:0:0:0:
299,309,98591,1,0,0:0:0:0:
267,298,98705,1,2,0:0:0:0:
155,357,98932,1,0,0:0:0:0:
123,346,99046,1,0,0:0:0:0:
48,258,99273,1,0,0:0:0:0:
16,268,99387,6,0,B|-1:229|-1:229|4:161,1,100,2|0,0:0|0:0,0:0:0:0:
157,59,100069,2,0,B|174:98|174:98|169:155,1,100,2|0,0:0|0:0,0:0:0:0:
275,313,100750,1,2,0:0:0:0:
413,182,101091,1,0,0:0:0:0:
453,367,101432,1,2,0:0:0:0:
316,235,101773,1,0,0:0:0:0:
483,144,102114,6,0,P|496:184|498:247,1,100,2|0,0:0|0:0,0:0:0:0:
272,156,102796,2,0,P|273:106|287:58,1,100,2|0,0:0|0:0,0:0:0:0:
409,204,103478,1,2,0:0:0:0:
236,283,103819,1,0,0:0:0:0:
344,348,104046,1,0,0:0:0:0:
336,315,104160,1,2,0:0:0:0:
409,204,104387,1,0,0:0:0:0:
417,171,104500,1,0,0:0:0:0:
336,73,104728,1,0,0:0:0:0:
305,85,104841,6,0,L|192:77,1,100,2|0,0:0|0:0,0:0:0:0:
36,232,105523,2,0,L|149:224,1,100,2|0,0:0|0:0,0:0:0:0:
306,309,106205,1,2,0:0:0:0:
208,144,106546,1,0,0:0:0:0:
126,316,106887,1,2,0:0:0:0:
29,152,107228,1,0,0:0:0:0:
197,239,107569,6,0,B|218:198|218:198|206:132,1,100,2|0,0:0|0:0,0:0:0:0:
361,32,108250,2,0,B|340:73|340:73|350:126,1,100,2|0,0:0|0:0,0:0:0:0:
385,313,108932,1,2,0:0:0:0:
503,164,109273,1,0,0:0:0:0:
384,217,109500,1,0,0:0:0:0:
351,208,109614,1,2,0:0:0:0:
242,273,109841,1,0,0:0:0:0:
209,282,109955,1,0,0:0:0:0:
99,218,110182,1,0,0:0:0:0:
68,231,110296,6,0,P|69:280|85:328,1,100,2|0,0:0|0:0,0:0:0:0:
191,170,110978,1,2,0:0:0:0:
298,326,111319,1,0,0:0:0:0:
396,163,111660,2,0,L|500:178,2,100,2|0|2,0:0|0:0|0:0,0:0:0:0:
285,8,112682,1,0,0:0:0:0:
191,170,113023,6,0,L|87:185,1,100,2|0,0:0|0:0,0:0:0:0:
374,243,113705,2,0,L|478:258,1,100,2|0,0:0|0:0,0:0:0:0:
209,355,114387,1,2,0:0:0:0:
312,149,114728,1,0,0:0:0:0:
167,212,114955,1,0,0:0:0:0:
143,188,115069,1,2,0:0:0:0:
314,241,115296,1,0,0:0:0:0:
286,261,115410,1,0,0:0:0:0:
402,121,115637,1,0,0:0:0:0:
416,152,115750,6,0,L|410:258,1,100,6|0,0:0|0:0,0:0:0:0:
257,365,116432,1,2,0:0:0:0:
181,263,116660,1,0,0:0:0:0:
181,263,116773,1,0,0:0:0:0:
79,338,117000,1,0,0:0:0:0:
79,338,117114,2,0,L|73:238,1,100,2|0,0:0|0:0,0:0:0:0:
178,78,117796,2,0,P|123:101|61:101,1,100,2|0,0:0|0:0,0:0:0:0:
330,183,118478,6,0,P|284:162|235:157,1,100,2|0,0:0|0:0,0:0:0:0:
392,48,119160,1,2,0:0:0:0:
466,149,119387,1,0,0:0:0:0:
466,149,119500,1,0,0:0:0:0:
393,253,119728,1,0,0:0:0:0:
393,253,119841,2,0,B|374:295|374:295|388:354,1,100,2|0,0:0|0:0,0:0:0:0:
466,149,120523,2,0,L|356:135,1,100,2|0,0:0|0:0,0:0:0:0:
213,249,121205,6,0,L|113:261,1,100,2|0,0:0|0:0,0:0:0:0:
206,94,121887,1,2,0:0:0:0:
94,34,122114,1,0,0:0:0:0:
94,34,122228,1,0,0:0:0:0:
14,132,122455,1,0,0:0:0:0:
14,132,122569,2,0,P|17:195|34:243,1,100,2|0,0:0|0:0,0:0:0:0:
199,346,123250,2,0,P|212:297|212:248,1,100,2|0,0:0|0:0,0:0:0:0:
318,90,123932,6,0,L|418:102,1,100,2|0,0:0|0:0,0:0:0:0:
311,259,124614,2,0,L|211:247,1,100,2|0,0:0|0:0,0:0:0:0:
83,106,125296,1,2,0:0:0:0:
265,54,125637,1,0,0:0:0:0:
178,145,125864,1,0,0:0:0:0:
183,177,125978,1,2,0:0:0:0:
311,259,126205,1,0,0:0:0:0:
316,227,126319,1,0,0:0:0:0:
207,329,126546,1,0,0:0:0:0:
214,361,126660,6,0,L|314:373,1,100,14|0,0:0|0:0,0:0:0:0:
481,283,127341,1,8,0:0:0:0:
413,175,127569,1,0,0:0:0:0:
413,175,127682,1,0,0:0:0:0:
494,77,127910,1,0,0:0:0:0:
494,77,128023,2,0,P|422:68|392:60,1,100,10|0,0:0|0:0,0:0:0:0:
226,207,128705,2,0,P|274:195|324:191,1,100,8|0,0:0|0:0,0:0:0:0:
137,66,129387,6,0,P|88:77|38:81,1,100,10|0,0:0|0:0,0:0:0:0:
226,207,130069,1,8,0:0:0:0:
158,313,130296,1,0,0:0:0:0:
158,313,130410,1,0,0:0:0:0:
46,253,130637,1,0,0:0:0:0:
46,253,130750,2,0,B|26:212|26:212|33:151,1,100,10|0,0:0|0:0,0:0:0:0:
226,207,131432,2,0,B|246:248|246:248|239:309,1,100,8|0,0:0|0:0,0:0:0:0:
126,148,132114,5,10,0:0:0:0:
334,178,132455,1,8,0:0:0:0:
158,313,132796,1,10,0:0:0:0:
226,207,133023,1,0,0:0:0:0:
226,207,133137,1,8,0:0:0:0:
331,340,133364,1,0,0:0:0:0:
331,340,133478,1,10,0:0:0:0:
121,225,133819,1,8,0:0:0:0:
266,100,134160,1,10,0:0:0:0:
242,326,134500,1,8,0:0:0:0:
172,61,134841,5,10,0:0:0:0:
347,125,135012,1,2,0:0:0:0:
220,170,135182,2,0,L|140:154,1,59.9999981689454
329,229,135523,5,2,0:0:0:0:
351,45,135694,1,2,0:0:0:0:
220,170,135864,1,0,0:0:0:0:
403,185,136035,1,2,0:0:0:0:
403,185,136120,1,2,0:0:0:0:
403,185,136205,5,2,0:0:0:0:
291,120,136375,1,2,0:0:0:0:
407,275,136546,2,0,L|465:286,1,59.9999981689454
438,59,136887,5,8,0:0:0:0:
512,205,137057,1,4,0:0:0:0:
403,185,137228,1,0,0:0:0:0:
466,141,137398,1,0,0:0:0:0:
374,352,137569,6,0,L|308:358,1,64.9999970245363,6|0,0:0|0:0,0:0:0:0:
213,371,137910,1,0,0:0:0:0:
273,227,138080,2,0,L|339:233,1,64.9999970245363,0|8,0:0|0:0,0:0:0:0:
95,290,138421,2,0,P|70:233|65:177,1,97.4999955368044
68,159,138762,1,0,0:0:0:0:
263,38,138932,2,0,P|275:91|215:164,1,129.999994049073,2|0,0:0|0:0,0:0:0:0:
127,64,139444,2,0,P|160:67|193:85,1,64.9999970245363,0|8,0:0|0:0,0:0:0:0:
321,189,139785,2,0,P|384:183|447:148,1,129.999994049073
137,137,140296,6,0,L|152:260,1,97.4999955368044,2|0,0:0|0:0,0:0:0:0:
154,272,140637,1,0,0:0:0:0:
289,338,140807,2,0,B|321:327|321:327|377:341,1,64.9999970245363,2|8,3:0|0:0,0:0:0:0:
475,333,141148,2,0,B|420:351|420:351|350:334,1,129.999994049073,2|0,3:0|0:0,0:0:0:0:
512,117,141660,2,0,L|498:232,1,97.4999955368044,2|0,0:0|0:0,0:0:0:0:
495,252,142000,1,0,0:0:0:0:
343,83,142171,2,0,P|387:54|415:48,1,64.9999970245363,6|8,3:0|0:0,0:0:0:0:
253,218,142512,2,0,P|237:150|246:84,1,129.999994049073,6|0,3:0|0:0,0:0:0:0:
179,14,143023,6,0,L|108:20,1,64.9999970245363,2|0,0:0|0:0,0:0:0:0:
12,67,143364,1,0,0:0:0:0:
108,187,143535,2,0,P|119:142|118:117,1,64.9999970245363,0|8,0:0|0:0,0:0:0:0:
54,302,143875,2,0,B|104:318|104:318|168:293,1,97.4999955368044
182,287,144216,1,0,0:0:0:0:
363,365,144387,2,0,L|351:219,1,129.999994049073,2|0,0:0|0:0,0:0:0:0:
345,145,144898,2,0,L|412:132,1,64.9999970245363,0|8,0:0|0:0,0:0:0:0:
226,43,145239,2,0,B|214:82|214:82|232:137|232:137|220:182,1,129.999994049073
448,43,145750,6,0,L|345:62,1,97.4999955368044,2|0,0:0|0:0,0:0:0:0:
314,71,146091,1,0,0:0:0:0:
483,232,146262,2,0,L|498:153,1,64.9999970245363,2|8,3:0|0:0,0:0:0:0:
328,205,146603,2,0,L|352:332,1,129.999994049073,2|0,3:0|0:0,0:0:0:0:
101,246,147114,2,0,P|154:223|200:231,1,97.4999955368044,2|0,0:0|0:0,0:0:0:0:
227,245,147455,1,0,0:0:0:0:
70,123,147625,2,0,P|54:93|47:61,1,64.9999970245363,6|8,3:0|0:0,0:0:0:0:
256,120,147966,2,0,P|254:169|221:254,1,129.999994049073,6|0,3:0|0:0,0:0:0:0:
166,332,148478,6,0,L|243:324,1,64.9999970245363,2|0,0:0|0:0,0:0:0:0:
328,346,148819,1,0,0:0:0:0:
398,210,148989,2,0,B|407:240|407:240|400:272,1,64.9999970245363,0|8,0:0|0:0,0:0:0:0:
256,120,149330,2,0,L|373:109,1,97.4999955368044
392,107,149671,1,0,0:0:0:0:
161,191,149841,2,0,B|152:144|152:144|167:50,1,129.999994049073,2|0,0:0|0:0,0:0:0:0:
74,135,150353,2,0,L|87:63,1,64.9999970245363,0|8,0:0|0:0,0:0:0:0:
24,294,150694,2,0,L|-1:152,1,129.999994049073
159,343,151205,6,0,P|206:320|266:330,1,97.4999955368044,2|0,0:0|0:0,0:0:0:0:
286,338,151546,1,0,0:0:0:0:
389,236,151716,2,0,L|380:165,1,64.9999970245363,2|8,3:0|0:0,0:0:0:0:
508,59,152057,2,0,L|488:209,1,129.999994049073,2|0,3:0|0:0,0:0:0:0:
227,47,152569,2,0,B|265:28|265:28|336:47,1,97.4999955368044,2|0,0:0|0:0,0:0:0:0:
355,53,152910,1,0,0:0:0:0:
204,166,153080,2,0,P|159:161|123:144,1,64.9999970245363,6|8,3:0|0:0,0:0:0:0:
45,88,153421,2,0,P|116:107|140:180,1,129.999994049073,6|0,3:0|0:0,0:0:0:0:
103,241,153932,6,0,B|94:272|94:272|105:315,1,64.9999970245363,2|0,0:0|0:0,0:0:0:0:
183,358,154273,1,0,0:0:0:0:
304,289,154444,2,0,L|238:274,1,64.9999970245363,0|8,0:0|0:0,0:0:0:0:
460,329,154785,2,0,P|475:279|463:219,1,97.4999955368044
457,197,155125,1,0,0:0:0:0:
281,80,155296,2,0,L|296:213,1,129.999994049073,2|0,0:0|0:0,0:0:0:0:
425,64,155807,2,0,P|395:44|347:34,1,64.9999970245363,0|8,0:0|0:0,0:0:0:0:
168,114,156148,2,0,P|244:114|289:61,1,129.999994049073
21,36,156660,6,0,L|34:155,1,97.4999955368044,2|0,0:0|0:0,0:0:0:0:
37,171,157000,1,0,0:0:0:0:
168,276,157171,2,0,L|176:201,1,64.9999970245363,2|8,3:0|0:0,0:0:0:0:
38,355,157512,2,0,B|101:381|101:381|174:357,1,129.999994049073,2|0,3:0|0:0,0:0:0:0:
341,249,158023,2,0,P|400:255|442:294,1,97.4999955368044
449,312,158364,1,0,0:0:0:0:
262,375,158535,2,0,P|259:334|270:303,1,64.9999970245363
331,122,158875,2,0,P|347:190|338:260,1,129.999994049073
265,311,159387,5,0,0:0:0:0:
177,261,159728,1,0,0:0:0:0:
19,359,160069,2,0,L|0:213,1,129.999994049073,12|0,0:0|0:0,0:0:0:0:
39,143,160580,1,0,0:0:0:0:
165,155,160750,2,0,B|128:144|128:144|71:153|71:153|33:141,1,129.999994049073,2|0,0:0|0:0,0:0:0:0:
177,261,161262,2,0,L|249:249,1,64.9999970245363,0|8,0:0|0:0,0:0:0:0:
439,211,161603,2,0,L|291:186,1,129.999994049073
242,117,162114,6,0,P|229:79|223:43,1,64.9999970245363,2|0,0:0|0:0,0:0:0:0:
83,243,162455,2,0,P|96:205|102:169,1,64.9999970245363,6|0,3:0|0:0,0:0:0:0:
235,338,162796,2,0,P|281:306|356:314,1,129.999994049073,8|0,0:0|0:0,0:0:0:0:
433,363,163307,1,0,0:0:0:0:
490,194,163478,2,0,L|425:203,1,64.9999970245363,2|0,0:0|0:0,0:0:0:0:
242,117,163819,2,0,L|307:126,1,64.9999970245363
164,237,164160,1,8,0:0:0:0:
112,103,164330,1,0,0:0:0:0:
270,235,164500,2,0,L|261:287,1,32.4999985122681
165,333,164671,2,0,L|174:374,1,32.4999985122681
346,259,164841,6,0,L|359:195,1,64.9999970245363,2|0,0:0|0:0,0:0:0:0:
256,53,165182,2,0,L|242:116,1,64.9999970245363,6|0,3:0|0:0,0:0:0:0:
512,76,165523,2,0,P|467:35|386:41,1,129.999994049073,8|0,0:0|0:0,0:0:0:0:
330,82,166035,1,0,0:0:0:0:
125,66,166205,2,0,L|265:51,1,129.999994049073,2|0,0:0|0:0,0:0:0:0:
115,209,166716,2,0,P|76:180|59:161,1,64.9999970245363,0|8,0:0|0:0,0:0:0:0:
273,240,167057,2,0,P|224:277|141:282,1,129.999994049073
254,52,167569,6,0,L|265:126,1,64.9999970245363,2|0,0:0|0:0,0:0:0:0:
392,231,167910,2,0,L|381:305,1,64.9999970245363,6|0,3:0|0:0,0:0:0:0:
471,94,168250,2,0,B|413:59|413:59|333:83,1,129.999994049073,8|0,0:0|0:0,0:0:0:0:
263,116,168762,2,0,L|198:106,1,64.9999970245363,0|2,0:0|0:0,0:0:0:0:
102,89,169103,1,0,0:0:0:0:
255,218,169273,2,0,L|319:208,1,64.9999970245363
419,189,169614,1,8,0:0:0:0:
228,312,169785,2,0,L|70:288,1,129.999994049073
18,220,170296,6,0,B|11:191|11:191|21:146,1,64.9999970245363,2|0,0:0|0:0,0:0:0:0:
199,43,170637,2,0,B|206:72|206:72|196:117,1,64.9999970245363,6|0,3:0|0:0,0:0:0:0:
163,225,170978,1,8,0:0:0:0:
34,38,171148,2,0,P|76:27|107:27,1,64.9999970245363
199,43,171489,1,0,0:0:0:0:
329,145,171660,2,0,B|364:136|364:136|423:146|423:146|472:137,1,129.999994049073,2|0,0:0|0:0,0:0:0:0:
379,281,172171,2,0,L|363:211,1,64.9999970245363,0|8,0:0|0:0,0:0:0:0:
456,19,172512,2,0,B|480:78|480:78|453:146,1,129.999994049073
286,64,173023,6,0,P|322:49|359:45,1,64.9999970245363,2|0,0:0|0:0,0:0:0:0:
238,212,173364,2,0,P|206:206|176:193,1,64.9999970245363,6|0,3:0|0:0,0:0:0:0:
49,62,173705,2,0,P|33:102|19:202,1,129.999994049073,8|0,0:0|0:0,0:0:0:0:
33,271,174216,1,0,0:0:0:0:
198,299,174387,2,0,L|123:286,1,64.9999970245363,2|0,0:0|0:0,0:0:0:0:
370,246,174728,2,0,L|305:257,1,64.9999970245363
472,230,175069,1,8,0:0:0:0:
394,346,175239,1,0,0:0:0:0:
331,168,175410,2,0,L|336:133,1,32.4999985122681
425,61,175580,2,0,L|420:26,1,32.4999985122681
254,142,175750,6,0,L|242:219,1,64.9999970245363,2|0,0:0|0:0,0:0:0:0:
33,271,176091,2,0,L|42:206,1,64.9999970245363,6|0,3:0|0:0,0:0:0:0:
238,322,176432,2,0,B|174:337|174:337|112:311,1,129.999994049073,8|0,0:0|0:0,0:0:0:0:
33,271,176944,1,0,0:0:0:0:
149,123,177114,2,0,P|177:191|177:265,1,129.999994049073,2|0,0:0|0:0,0:0:0:0:
21,126,177625,2,0,P|24:93|37:64,1,64.9999970245363,0|8,0:0|0:0,0:0:0:0:
278,108,177966,2,0,L|144:123,1,129.999994049073
315,18,178478,6,0,L|409:28,1,64.9999970245363,2|0,0:0|0:0,0:0:0:0:
272,188,178819,2,0,L|177:198,1,64.9999970245363,6|0,3:0|0:0,0:0:0:0:
412,173,179160,6,0,P|429:230|360:234,1,129.999994049073,8|0,0:0|0:0,0:0:0:0:
383,355,179671,2,0,P|349:302|373:245,1,129.999994049073
272,188,180182,2,0,P|306:135|282:78,1,129.999994049073
186,235,180694,6,0,P|110:218|80:145,1,150
