osu file format v14

[General]
AudioFilename: audio.mp3
AudioLeadIn: 0
PreviewTime: -1
Countdown: 1
SampleSet: None
StackLeniency: 0.7
Mode: 0
LetterboxInBreaks: 0
WidescreenStoryboard: 0

[Editor]
DistanceSpacing: 1
BeatDivisor: 4
GridSize: 4
TimelineZoom: 1

[Metadata]
Title:Faded(original)
TitleUnicode:Faded(original)
Artist:Alan Walker
ArtistUnicode:Alan Walker
Creator:FalconYT
Version:Easy
Source:Youtube Vevo
Tags:I dunno brah
BeatmapID:1252934
BeatmapSetID:592142

[Difficulty]
HPDrainRate:5
CircleSize:5
OverallDifficulty:5
ApproachRate:5
SliderMultiplier:1.4
SliderTickRate:1

[Events]
//Background and Video events
//Break Periods
2,32615,41976
2,97343,107356
//Storyboard Layer 0 (Background)
//Storyboard Layer 1 (Fail)
//Storyboard Layer 2 (Pass)
//Storyboard Layer 3 (Foreground)
//Storyboard Sound Samples

[TimingPoints]
-30.3478260869565,652.173913043478,4,1,0,100,1,0

[HitObjects]
148,236,784,5,0,0:0:0:0:
220,144,1274,1,0,0:0:0:0:
344,192,1926,1,0,0:0:0:0:
208,212,2578,1,0,0:0:0:0:
208,84,3230,1,0,0:0:0:0:
316,184,3882,1,0,0:0:0:0:
348,60,4534,1,0,0:0:0:0:
272,152,5024,1,0,0:0:0:0:
108,112,5839,1,0,0:0:0:0:
216,212,6491,1,0,0:0:0:0:
360,180,7143,1,0,0:0:0:0:
284,64,7795,1,0,0:0:0:0:
268,208,8447,1,0,0:0:0:0:
124,136,9263,1,0,0:0:0:0:
260,136,9915,1,0,0:0:0:0:
388,148,10567,1,0,0:0:0:0:
268,96,11219,1,0,0:0:0:0:
192,196,11871,1,0,0:0:0:0:
324,192,12524,1,0,0:0:0:0:
260,76,13176,1,0,0:0:0:0:
300,220,13828,1,0,0:0:0:0:
172,128,14643,1,0,0:0:0:0:
292,136,15132,1,0,0:0:0:0:
308,100,15784,1,0,0:0:0:0:
248,248,16600,1,0,0:0:0:0:
220,136,17089,1,0,0:0:0:0:
368,200,17904,1,0,0:0:0:0:
232,212,18556,1,0,0:0:0:0:
172,92,19208,1,0,0:0:0:0:
284,140,19860,1,0,0:0:0:0:
308,252,20350,1,0,0:0:0:0:
144,204,21165,1,0,0:0:0:0:
232,104,21817,1,0,0:0:0:0:
304,220,22469,1,0,0:0:0:0:
156,228,23121,1,0,0:0:0:0:
188,80,23774,1,0,0:0:0:0:
308,184,24589,1,0,0:0:0:0:
268,300,25241,1,0,0:0:0:0:
156,244,25893,1,0,0:0:0:0:
192,124,26545,1,0,0:0:0:0:
256,16,27197,1,0,0:0:0:0:
304,120,27687,1,0,0:0:0:0:
284,264,28339,1,0,0:0:0:0:
168,172,28991,1,0,0:0:0:0:
312,212,29643,1,0,0:0:0:0:
160,180,30295,1,0,0:0:0:0:
312,112,31110,1,0,0:0:0:0:
416,196,31763,1,0,0:0:0:0:
340,328,32415,1,0,0:0:0:0:
256,192,43176,12,0,54589,0:0:0:0:
264,148,55078,5,0,0:0:0:0:
100,168,55893,1,0,0:0:0:0:
232,176,56545,1,0,0:0:0:0:
340,100,57197,1,0,0:0:0:0:
352,244,57850,1,0,0:0:0:0:
212,220,58502,1,0,0:0:0:0:
144,84,59154,1,0,0:0:0:0:
296,100,59806,1,0,0:0:0:0:
252,252,60621,1,0,0:0:0:0:
324,168,61110,1,0,0:0:0:0:
248,28,61926,1,0,0:0:0:0:
196,136,62578,1,0,0:0:0:0:
68,128,63230,1,0,0:0:0:0:
172,216,63882,1,0,0:0:0:0:
316,204,64534,1,0,0:0:0:0:
380,76,65187,1,0,0:0:0:0:
236,96,65839,1,0,0:0:0:0:
280,244,66491,1,0,0:0:0:0:
300,100,67143,1,0,0:0:0:0:
156,116,67795,1,0,0:0:0:0:
260,232,68447,1,0,0:0:0:0:
348,96,69263,1,0,0:0:0:0:
216,96,69915,1,0,0:0:0:0:
204,228,70567,1,0,0:0:0:0:
320,164,71219,1,0,0:0:0:0:
348,40,71871,1,0,0:0:0:0:
256,136,72524,1,0,0:0:0:0:
144,80,73176,1,0,0:0:0:0:
184,216,73828,1,0,0:0:0:0:
324,252,74480,1,0,0:0:0:0:
316,100,75132,1,0,0:0:0:0:
172,124,75784,1,0,0:0:0:0:
276,236,76437,1,0,0:0:0:0:
416,308,77252,1,0,0:0:0:0:
360,204,77741,1,0,0:0:0:0:
332,56,78393,1,0,0:0:0:0:
184,136,79208,1,0,0:0:0:0:
316,136,79860,1,0,0:0:0:0:
184,140,80513,1,0,0:0:0:0:
324,140,81165,1,0,0:0:0:0:
268,276,81817,1,0,0:0:0:0:
176,148,82632,1,0,0:0:0:0:
296,136,83121,1,0,0:0:0:0:
336,292,83937,1,0,0:0:0:0:
220,256,84426,1,0,0:0:0:0:
200,96,85241,1,0,0:0:0:0:
308,168,85893,1,0,0:0:0:0:
268,284,86545,1,0,0:0:0:0:
144,232,87197,1,0,0:0:0:0:
128,104,87850,1,0,0:0:0:0:
148,48,88339,1,0,0:0:0:0:
224,200,89154,1,0,0:0:0:0:
312,328,89806,1,0,0:0:0:0:
372,180,90621,1,0,0:0:0:0:
384,60,91110,1,0,0:0:0:0:
228,80,91763,1,0,0:0:0:0:
132,216,92578,1,0,0:0:0:0:
236,296,93230,1,0,0:0:0:0:
360,264,93882,1,0,0:0:0:0:
284,164,94534,1,0,0:0:0:0:
272,40,95187,1,0,0:0:0:0:
168,128,95839,1,0,0:0:0:0:
300,180,96491,1,0,0:0:0:0:
416,84,97143,1,0,0:0:0:0:
256,160,108556,5,0,0:0:0:0:
116,140,109208,1,0,0:0:0:0:
236,228,109860,1,0,0:0:0:0:
352,140,110513,1,0,0:0:0:0:
212,92,111165,1,0,0:0:0:0:
188,232,111817,1,0,0:0:0:0:
336,208,112469,1,0,0:0:0:0:
312,56,113121,1,0,0:0:0:0:
168,128,113937,1,0,0:0:0:0:
224,240,114589,1,0,0:0:0:0:
336,184,115241,1,0,0:0:0:0:
348,68,115730,1,0,0:0:0:0:
192,136,116545,1,0,0:0:0:0:
228,268,117197,1,0,0:0:0:0:
348,184,117850,1,0,0:0:0:0:
212,136,118502,1,0,0:0:0:0:
256,192,119154,12,0,150458,0:0:0:0:
200,120,152415,5,0,0:0:0:0:
328,232,153230,1,0,0:0:0:0:
380,112,153882,1,0,0:0:0:0:
252,168,154534,1,0,0:0:0:0:
348,284,155187,1,0,0:0:0:0:
312,144,155839,1,0,0:0:0:0:
252,0,156491,1,0,0:0:0:0:
172,132,157143,1,0,0:0:0:0:
188,288,157795,1,0,0:0:0:0:
288,176,158447,1,0,0:0:0:0:
280,344,159263,1,0,0:0:0:0:
328,232,159915,1,0,0:0:0:0:
224,276,160404,1,0,0:0:0:0:
192,128,161056,1,0,0:0:0:0:
364,128,161871,1,0,0:0:0:0:
304,264,162524,1,0,0:0:0:0:
224,136,163176,1,0,0:0:0:0:
372,120,163828,1,0,0:0:0:0:
296,220,164480,1,0,0:0:0:0:
156,252,165132,1,0,0:0:0:0:
116,116,165784,1,0,0:0:0:0:
108,76,166437,1,0,0:0:0:0:
184,212,167252,1,0,0:0:0:0:
288,268,167741,1,0,0:0:0:0:
436,204,168556,1,0,0:0:0:0:
372,100,169208,1,0,0:0:0:0:
340,224,169860,1,0,0:0:0:0:
316,344,170513,1,0,0:0:0:0:
176,340,171165,1,0,0:0:0:0:
236,216,171817,1,0,0:0:0:0:
324,96,172469,1,0,0:0:0:0:
172,124,173121,1,0,0:0:0:0:
184,288,173937,1,0,0:0:0:0:
292,236,174589,1,0,0:0:0:0:
344,124,175241,1,0,0:0:0:0:
224,128,175730,1,0,0:0:0:0:
216,296,176545,1,0,0:0:0:0:
112,204,177197,1,0,0:0:0:0:
148,76,177850,1,0,0:0:0:0:
268,128,178502,1,0,0:0:0:0:
344,244,179154,1,0,0:0:0:0:
392,112,179806,1,0,0:0:0:0:
248,60,180458,1,0,0:0:0:0:
204,224,181274,1,0,0:0:0:0:
328,252,181926,1,0,0:0:0:0:
360,132,182578,1,0,0:0:0:0:
264,56,183230,1,0,0:0:0:0:
240,160,183719,1,0,0:0:0:0:
292,312,184534,1,0,0:0:0:0:
264,204,185024,1,0,0:0:0:0:
260,40,185839,1,0,0:0:0:0:
128,72,186491,1,0,0:0:0:0:
84,208,187143,1,0,0:0:0:0:
236,244,187958,1,0,0:0:0:0:
336,184,188447,1,0,0:0:0:0:
340,32,189100,1,0,0:0:0:0:
184,64,189915,1,0,0:0:0:0:
132,184,190567,1,0,0:0:0:0:
200,288,191219,1,0,0:0:0:0:
304,208,191871,1,0,0:0:0:0:
284,76,192524,1,0,0:0:0:0:
376,188,193176,1,0,0:0:0:0:
252,244,193828,1,0,0:0:0:0:
152,136,194480,1,0,0:0:0:0:
296,92,195132,1,0,0:0:0:0:
