osu file format v14

[General]
AudioFilename: audio.mp3
AudioLeadIn: 0
PreviewTime: 151130
Countdown: 0
SampleSet: Soft
StackLeniency: 0.7
Mode: 3
LetterboxInBreaks: 0
SpecialStyle: 0
WidescreenStoryboard: 1

[Editor]
Bookmarks: 10796,21463,31463,32130,42796,52130,52796,54796,65462,76129,86796,97462,118796,140129,148129,152129,162795,173462,184128,194795
DistanceSpacing: 1
BeatDivisor: 4
GridSize: 8
TimelineZoom: 1.9

[Metadata]
Title:Faded
TitleUnicode:Faded
Artist:Alan Walker
ArtistUnicode:Alan Walker
Creator:x_yx
Version:CV [4K] Sxphie_'s Normal
Source:
Tags:instrumental edm pop house trance drum and bass hype vibe party ln long notes sliders dancing line cheetah mobile sxphie_ guest difficulty diff
BeatmapID:3653255
BeatmapSetID:1783850

[Difficulty]
HPDrainRate:7
CircleSize:4
OverallDifficulty:7
ApproachRate:5
SliderMultiplier:1.4
SliderTickRate:1

[Events]
//Background and Video events
0,0,"dk5;E1.jpg",0,0
Video,-520,"Alan Walker - Faded.avi"
//Break Periods
//Storyboard Layer 0 (Background)
//Storyboard Layer 1 (Fail)
//Storyboard Layer 2 (Pass)
//Storyboard Layer 3 (Foreground)
//Storyboard Layer 4 (Overlay)
//Storyboard Sound Samples

[TimingPoints]
130,666.666666666667,4,2,1,80,1,0
130,-100,4,2,1,80,0,0
54796,666.666666666667,4,2,1,80,1,1
54796,-100,4,2,1,80,0,1
75462,-100,4,2,1,80,0,0
76129,-100,4,2,1,80,0,1
97462,-100,4,2,1,80,0,0
150629,-100,4,2,1,80,0,0
150713,-111.111111111111,4,2,1,80,0,0
150796,-133.333333333333,4,2,1,80,0,0
150879,-181.818181818182,4,2,1,80,0,0
150963,-333.333333333333,4,2,1,80,0,0
151129,-100,4,2,1,80,0,0
152129,333.333333333333,4,2,1,80,1,1
152129,-200,4,2,1,80,0,1
172795,-200,4,2,1,80,0,0
173462,-200,4,2,1,80,0,1
183462,-200,4,2,1,80,0,0
184128,-200,4,2,1,80,0,1
194796,666.666666666667,4,2,1,80,1,0
194796,-100,4,2,1,80,0,0
198796,-105.263157894737,4,2,1,80,0,0
199462,-111.111111111111,4,2,1,80,0,0
200129,-117.647058823529,4,2,1,80,0,0
200796,-125,4,2,1,80,0,0
201462,789.473684210526,4,2,1,80,1,0
201462,-126.582278481013,4,2,1,80,0,0
202251,833.333333333333,4,2,1,80,1,0
202251,-129.87012987013,4,2,1,80,0,0
202667,1200,4,2,1,80,1,0
202667,-95.2380952380952,4,2,1,80,0,0
203267,1200,4,2,1,80,1,0
203267,-102.040816326531,4,2,1,80,0,0

[HitObjects]
320,192,130,5,2,2:0:0:0:
192,192,130,1,0,2:0:0:0:
469,192,130,1,4,2:0:0:55:
192,192,796,1,0,2:0:0:0:
469,192,796,1,2,2:0:0:0:
192,192,1463,1,0,2:0:0:0:
469,192,1463,1,2,2:0:0:0:
192,192,2130,1,0,2:0:0:0:
298,192,2130,1,2,2:0:0:0:
320,192,2796,1,0,2:0:0:0:
469,192,2796,1,0,2:0:0:0:
64,192,2796,1,2,2:0:0:0:
448,192,3463,1,0,2:0:0:0:
64,192,3463,1,2,2:0:0:0:
448,192,4130,1,0,2:0:0:0:
64,192,4130,1,2,2:0:0:0:
448,192,4796,1,0,2:0:0:0:
192,192,4796,1,2,2:0:0:0:
320,192,5463,1,0,2:0:0:0:
192,192,5463,1,0,2:0:0:0:
64,192,5463,1,2,2:0:0:0:
192,192,6130,1,0,2:0:0:0:
320,192,6130,1,2,2:0:0:0:
320,192,6796,1,0,2:0:0:0:
192,192,6796,1,2,2:0:0:0:
192,192,7463,1,0,2:0:0:0:
320,192,7463,1,2,2:0:0:0:
320,192,8130,1,0,2:0:0:0:
42,192,8130,1,0,2:0:0:0:
469,192,8130,1,2,2:0:0:0:
320,192,8796,1,0,2:0:0:0:
448,192,8796,1,2,2:0:0:0:
320,192,9463,1,0,2:0:0:0:
469,192,9463,1,2,2:0:0:0:
192,192,10130,1,0,2:0:0:0:
448,192,10130,1,2,2:0:0:0:
64,192,10796,1,2,2:0:0:0:
320,192,10796,1,0,2:0:0:0:
469,192,10796,1,0,2:0:0:0:
320,192,11463,1,0,2:0:0:0:
64,192,11463,1,2,2:0:0:0:
64,192,12130,1,2,2:0:0:0:
320,192,12130,1,0,2:0:0:0:
192,192,12796,1,2,2:0:0:0:
469,192,12796,1,0,2:0:0:0:
469,192,13463,1,2,2:0:0:0:
192,192,13463,1,0,2:0:0:0:
64,192,13463,1,0,2:0:0:0:
469,192,14130,1,2,2:0:0:0:
64,192,14130,1,0,2:0:0:0:
469,192,14796,1,2,2:0:0:0:
64,192,14796,1,0,2:0:0:0:
192,192,15463,1,2,2:0:0:0:
469,192,15463,1,0,2:0:0:0:
64,192,16130,1,2,2:0:0:0:
320,192,16130,1,0,2:0:0:0:
192,192,16130,1,0,2:0:0:0:
192,192,16796,1,2,2:0:0:0:
320,192,16796,1,0,2:0:0:0:
320,192,17463,1,2,2:0:0:0:
192,192,17463,1,0,2:0:0:0:
320,192,18130,1,2,2:0:0:0:
192,192,18130,1,0,2:0:0:0:
320,192,18796,1,2,2:0:0:0:
42,192,18796,1,0,2:0:0:0:
469,192,18796,1,0,2:0:0:0:
320,192,19463,1,2,2:0:0:0:
42,192,19463,1,0,2:0:0:0:
320,192,20130,1,2,2:0:0:0:
42,192,20130,1,0,2:0:0:0:
64,192,20796,1,2,2:0:0:0:
448,192,20796,1,0,2:0:0:0:
192,192,21463,1,0,2:0:0:0:
320,192,21463,1,0,2:0:0:0:
64,192,21463,1,6,2:0:0:0:
64,192,22130,1,0,2:0:0:0:
320,192,22130,1,2,2:0:0:0:
320,192,22796,1,0,0:0:0:20:steel.wav
64,192,22796,1,2,2:0:0:0:
448,192,23463,1,0,2:0:0:0:
64,192,23463,1,2,2:0:0:0:
192,192,24130,1,0,0:0:0:25:steel.wav
448,192,24130,1,2,2:0:0:0:
320,192,24130,1,0,2:0:0:0:
192,192,24796,1,0,2:0:0:0:
448,192,24796,1,2,2:0:0:0:
192,192,25463,1,0,0:0:0:30:steel.wav
448,192,25463,1,2,2:0:0:0:
320,192,26130,1,0,2:0:0:0:
64,192,26130,1,2,2:0:0:0:
448,192,26796,1,0,2:0:0:0:
64,192,26796,1,0,0:0:0:35:steel.wav
192,192,26796,1,2,2:0:0:0:
64,192,27463,1,0,2:0:0:0:
448,192,27463,1,2,2:0:0:0:
42,192,28130,1,0,0:0:0:40:steel.wav
469,192,28130,1,2,2:0:0:0:
42,192,28796,1,0,2:0:0:0:
448,192,28796,1,2,2:0:0:0:
320,192,29463,1,0,2:0:0:0:
448,192,29463,1,0,0:0:0:45:steel.wav
192,192,29463,1,2,2:0:0:0:
213,192,30130,1,0,2:0:0:0:
320,192,30130,1,2,2:0:0:0:
192,192,30796,1,0,0:0:0:50:steel.wav
320,192,30796,1,2,2:0:0:0:
64,192,31463,1,0,2:0:0:0:
192,192,31463,1,2,2:0:0:0:
64,192,32130,1,0,3:0:0:0:
448,192,32130,1,10,2:0:0:0:
192,192,32130,1,0,2:0:0:0:
320,192,32130,1,0,2:0:0:0:
192,192,32796,1,0,0:0:0:50:steel.wav
320,192,33463,1,0,2:0:0:0:
64,192,33463,1,0,3:0:0:0:
448,192,33463,1,10,2:0:0:0:
213,192,33463,1,0,2:0:0:0:
320,192,34130,1,0,0:0:0:50:steel.wav
213,192,34796,1,0,2:0:0:0:
448,192,34796,1,0,3:0:0:0:
320,192,34796,1,0,2:0:0:0:
64,192,34796,1,10,2:0:0:0:
64,192,35463,1,0,0:0:0:50:steel.wav
448,192,36130,1,0,2:0:0:0:
320,192,36130,1,0,3:0:0:0:
64,192,36130,1,10,2:0:0:0:
192,192,36130,1,0,2:0:0:0:
448,192,36796,1,0,0:0:0:50:steel.wav
448,192,37463,1,0,3:0:0:0:
42,192,37463,1,0,2:0:0:0:
320,192,37463,1,10,2:0:0:0:
192,192,37463,1,0,2:0:0:0:
192,192,38130,1,0,0:0:0:50:steel.wav
192,192,38796,1,0,2:0:0:0:
64,192,38796,1,0,3:0:0:0:
320,192,38796,1,10,2:0:0:0:
448,192,38796,1,0,2:0:0:0:
320,192,39463,1,0,0:0:0:50:steel.wav
320,192,40130,1,0,2:0:0:0:
448,192,40130,1,0,3:0:0:0:
64,192,40130,1,10,2:0:0:0:
192,192,40130,1,0,2:0:0:0:
64,192,40796,1,0,0:0:0:50:steel.wav
192,192,41463,1,0,2:0:0:0:
448,192,41463,1,0,3:0:0:0:
64,192,41463,1,10,2:0:0:0:
320,192,41463,1,0,2:0:0:0:
448,192,42130,1,0,0:0:0:50:steel.wav
64,192,42796,1,0,3:0:0:0:
448,192,42796,1,10,2:0:0:0:
192,192,42796,1,0,2:0:0:0:
320,192,42796,1,0,2:0:0:0:
192,192,43463,1,0,0:0:0:50:steel.wav
320,192,44130,1,0,2:0:0:0:
64,192,44130,1,0,3:0:0:0:
448,192,44130,1,10,2:0:0:0:
213,192,44130,1,0,2:0:0:0:
320,192,44796,1,0,0:0:0:50:steel.wav
213,192,45463,1,0,2:0:0:0:
448,192,45463,1,0,3:0:0:0:
320,192,45463,1,0,2:0:0:0:
64,192,45463,1,10,2:0:0:0:
64,192,46130,1,0,0:0:0:50:steel.wav
448,192,46796,1,0,2:0:0:0:
320,192,46796,1,0,3:0:0:0:
64,192,46796,1,10,2:0:0:0:
192,192,46796,1,0,2:0:0:0:
448,192,47463,1,0,0:0:0:50:steel.wav
448,192,48130,1,0,3:0:0:0:
42,192,48130,1,0,2:0:0:0:
320,192,48130,1,10,2:0:0:0:
192,192,48130,1,0,2:0:0:0:
192,192,48796,1,0,0:0:0:50:steel.wav
192,192,49463,1,0,2:0:0:0:
64,192,49463,1,0,3:0:0:0:
320,192,49463,1,10,2:0:0:0:
448,192,49463,1,0,2:0:0:0:
320,192,50130,1,0,0:0:0:50:steel.wav
320,192,50796,1,0,2:0:0:0:
448,192,50796,1,0,3:0:0:0:
64,192,50796,1,10,2:0:0:0:
192,192,50796,1,0,2:0:0:0:
64,192,51463,1,0,0:0:0:50:steel.wav
192,192,53796,5,0,3:0:0:0:
448,192,53796,1,8,1:0:0:0:
64,192,53796,1,2,2:0:0:0:
320,192,53963,1,8,1:0:0:0:
64,192,54130,1,8,1:0:0:0:
448,192,54130,1,2,2:0:0:0:
192,192,54296,1,8,1:0:0:0:
320,192,54296,1,0,3:0:0:0:
448,192,54463,1,8,1:0:0:0:
64,192,54463,1,2,2:0:0:0:
192,192,54630,1,8,1:0:0:0:
64,192,54796,1,12,1:0:0:0:
320,192,54796,1,14,3:0:0:0:
448,192,54796,128,14,57129:2:0:0:0:
213,192,55462,1,8,1:0:0:0:
64,192,55462,1,0,3:0:0:0:
64,192,56129,1,8,1:0:0:0:
192,192,56129,1,0,3:0:0:0:
64,192,56796,1,0,3:0:0:0:
192,192,56796,1,8,1:0:0:0:
192,192,57129,128,2,57462:2:0:0:0:
448,192,57462,1,0,3:0:0:0:
320,192,57462,128,2,57796:2:0:0:0:
64,192,57462,1,8,1:0:0:0:
192,192,57796,128,2,59129:2:0:0:0:
42,192,58129,1,0,3:0:0:0:
448,192,58129,1,8,1:0:0:0:
42,192,58796,1,0,3:0:0:0:
448,192,58796,1,8,1:0:0:0:
320,192,59129,128,2,59462:2:0:0:0:
448,192,59462,1,0,3:0:0:0:
192,192,59462,1,8,1:0:0:0:
64,192,59462,128,2,59796:2:0:0:0:
448,192,59796,128,2,59962:2:0:0:0:
320,192,59962,128,2,61462:2:0:0:0:
64,192,60129,1,0,3:0:0:0:
192,192,60129,1,8,1:0:0:0:
64,192,60796,1,0,3:0:0:0:
192,192,60796,1,8,1:0:0:0:
64,192,61462,1,0,3:0:0:0:
192,192,61462,1,8,1:0:0:0:
64,192,61796,128,2,62129:3:0:0:0:
320,192,62129,1,0,3:0:0:0:
448,192,62129,128,2,62462:2:0:0:0:
192,192,62129,1,8,1:0:0:0:
192,192,62462,128,2,62629:2:0:0:0:
320,192,62629,128,2,63796:2:0:0:0:
448,192,62796,1,0,3:0:0:0:
64,192,62796,1,8,1:0:0:0:
42,192,63462,1,0,3:0:0:0:
448,192,63462,1,8,1:0:0:0:
192,192,63796,128,2,64129:2:0:0:0:
448,192,64129,1,0,3:0:0:0:
64,192,64129,1,8,1:0:0:0:
64,192,64462,128,2,64796:2:0:0:0:
448,192,64796,1,0,3:0:0:0:
192,192,64796,128,2,65129:2:0:0:0:
320,192,64796,1,8,1:0:0:0:
448,192,65129,128,2,65462:2:0:0:0:
192,192,65462,1,0,3:0:0:0:
42,192,65462,128,2,67129:2:0:0:0:
320,192,65462,1,8,1:0:0:0:
213,192,66129,1,0,3:0:0:0:
320,192,66129,1,8,1:0:0:0:
192,192,66796,1,0,3:0:0:0:
320,192,66796,1,8,1:0:0:0:
448,192,67129,128,2,67462:2:0:0:0:
192,192,67462,1,0,3:0:0:0:
64,192,67462,128,2,67796:2:0:0:0:
320,192,67462,1,8,1:0:0:0:
320,192,67796,128,2,67962:2:0:0:0:
192,192,67962,128,2,70462:2:0:0:0:
64,192,68129,1,0,3:0:0:0:
448,192,68129,1,8,1:0:0:0:
469,192,68796,1,0,3:0:0:0:
64,192,68796,1,8,1:0:0:0:
448,192,69462,1,0,3:0:0:0:
64,192,69462,1,8,1:0:0:0:
448,192,70129,1,0,3:0:0:0:
64,192,70129,1,8,1:0:0:0:
320,192,70462,128,2,70796:2:0:0:0:
448,192,70796,1,0,3:0:0:0:
42,192,70796,128,2,71129:2:0:0:0:
192,192,70796,1,8,1:0:0:0:
448,192,71129,128,2,71462:2:0:0:0:
192,192,71462,1,0,3:0:0:0:
320,192,71462,128,2,71796:2:0:0:0:
64,192,71462,1,8,1:0:0:0:
64,192,71796,128,2,72129:2:0:0:0:
320,192,72129,1,0,3:0:0:0:
448,192,72129,128,2,72462:2:0:0:0:
192,192,72129,1,8,1:0:0:0:
192,192,72462,128,2,72796:2:0:0:0:
64,192,72796,1,0,3:0:0:0:
320,192,72796,128,2,73129:2:0:0:0:
448,192,72796,1,8,1:0:0:0:
64,192,73129,128,2,73296:2:0:0:0:
192,192,73296,128,2,74462:2:0:0:0:
448,192,73462,1,0,3:0:0:0:
320,192,73462,1,8,1:0:0:0:
320,192,74129,1,0,3:0:0:0:
448,192,74129,1,8,1:0:0:0:
320,192,74462,128,2,74796:2:0:0:0:
192,192,74796,1,0,3:0:0:0:
64,192,74796,128,2,75462:2:0:0:0:
448,192,74796,1,8,1:0:0:0:
320,192,75462,1,0,3:0:0:0:
448,192,75462,128,2,76129:2:0:0:0:
192,192,75462,1,8,1:0:0:0:
192,192,76129,1,14,2:0:0:0:
320,192,76129,1,12,1:0:0:0:
64,192,76129,128,14,76462:3:0:0:0:
192,192,76462,128,2,76796:3:0:0:0:
448,192,76796,1,8,1:0:0:0:
64,192,76796,128,0,77129:3:0:0:0:
192,192,77129,128,2,77462:3:0:0:0:
448,192,77462,1,8,1:0:0:0:
64,192,77462,128,0,77796:3:0:0:0:
320,192,77796,128,2,78129:3:0:0:0:
448,192,78129,1,8,1:0:0:0:
192,192,78129,128,0,78462:3:0:0:0:
320,192,78462,128,2,78796:3:0:0:0:
64,192,78796,1,8,1:0:0:0:
469,192,78796,128,0,79129:2:0:0:0:
320,192,79129,128,2,79462:3:0:0:0:
64,192,79462,1,8,1:0:0:0:
448,192,79462,128,0,79796:3:0:0:0:
320,192,79796,128,2,80129:3:0:0:0:
192,192,79796,128,2,80129:2:0:0:0:
448,192,80129,128,2,80796:2:0:0:0:
64,192,80129,128,8,80796:1:0:0:0:
192,192,80462,1,2,3:0:0:0:
320,192,80796,128,2,81462:2:0:0:0:
192,192,80796,128,8,81462:1:0:0:0:
448,192,81129,1,2,3:0:0:0:
448,192,81462,1,8,1:0:0:0:
42,192,81462,128,0,81796:2:0:0:0:
320,192,81796,128,2,82129:3:0:0:0:
213,192,82129,1,8,1:0:0:0:
64,192,82129,128,0,82462:3:0:0:0:
320,192,82462,128,2,82796:3:0:0:0:
213,192,82796,1,8,1:0:0:0:
64,192,82796,128,0,83129:3:0:0:0:
448,192,83129,128,2,83462:3:0:0:0:
320,192,83462,1,8,1:0:0:0:
192,192,83462,128,0,83796:3:0:0:0:
448,192,83796,128,2,84129:3:0:0:0:
320,192,83796,128,2,84129:2:0:0:0:
64,192,84129,128,2,85129:2:0:0:0:
192,192,84129,1,8,1:0:0:0:
448,192,84462,1,2,3:0:0:0:
298,192,84796,1,8,1:0:0:0:
448,192,84796,1,0,3:0:0:0:
448,192,85129,128,2,85462:2:0:0:0:
192,192,85129,1,2,3:0:0:0:
64,192,85462,1,8,1:0:0:0:
320,192,85462,128,2,86129:2:0:0:0:
192,192,85796,1,2,3:0:0:0:
448,192,86129,1,8,1:0:0:0:
64,192,86129,128,2,86796:2:0:0:0:
320,192,86462,1,2,3:0:0:0:
192,192,86796,1,8,1:0:0:0:
448,192,86796,128,0,87129:3:0:0:0:
64,192,87129,128,2,87462:3:0:0:0:
213,192,87462,1,8,1:0:0:0:
448,192,87462,128,0,87796:3:0:0:0:
64,192,87796,128,2,88129:3:0:0:0:
192,192,88129,1,8,1:0:0:0:
320,192,88129,128,0,88462:3:0:0:0:
448,192,88462,128,2,88796:3:0:0:0:
298,192,88796,1,8,1:0:0:0:
213,192,88796,128,0,89129:3:0:0:0:
469,192,89129,128,2,89462:3:0:0:0:
192,192,89462,1,8,1:0:0:0:
42,192,89462,128,0,89796:2:0:0:0:
320,192,89796,128,2,90129:3:0:0:0:
192,192,90129,1,8,1:0:0:0:
64,192,90129,128,0,90462:3:0:0:0:
448,192,90462,128,2,90796:3:0:0:0:
320,192,90462,128,2,90796:2:0:0:0:
192,192,90796,1,8,1:0:0:0:
64,192,90796,128,2,91462:2:0:0:0:
320,192,91129,1,2,3:0:0:0:
213,192,91462,1,8,1:0:0:0:
448,192,91462,128,2,93462:2:0:0:0:
320,192,91796,1,2,3:0:0:0:
213,192,92129,1,8,1:0:0:0:
42,192,92129,1,0,3:0:0:0:
320,192,92462,1,2,3:0:0:0:
213,192,92796,1,8,1:0:0:0:
42,192,92796,1,0,3:0:0:0:
320,192,93129,1,2,3:0:0:0:
192,192,93462,1,8,1:0:0:0:
64,192,93462,128,2,93796:2:0:0:0:
192,192,93796,128,2,94129:2:0:0:0:
448,192,93796,1,2,3:0:0:0:
448,192,94129,1,8,1:0:0:0:
320,192,94129,1,2,2:0:0:0:
192,192,94351,1,2,2:0:0:0:
64,192,94462,1,2,2:0:0:0:
320,192,94684,1,2,2:0:0:0:
448,192,94796,128,2,95796:2:0:0:0:
64,192,94796,1,8,1:0:0:0:
192,192,95129,1,2,3:0:0:0:
298,192,95462,1,8,1:0:0:0:
64,192,95462,1,0,3:0:0:0:
192,192,95796,128,2,96129:2:0:0:0:
320,192,95796,1,2,3:0:0:0:
64,192,96129,1,8,1:0:0:0:
320,192,96129,128,2,96796:2:0:0:0:
448,192,96462,1,2,3:0:0:0:
213,192,96796,1,8,1:0:0:0:
64,192,96796,128,2,97462:2:0:0:0:
448,192,97129,1,2,3:0:0:0:
192,192,97462,1,2,2:0:0:0:
298,192,97462,1,14,2:0:0:0:
448,192,97462,1,14,3:0:0:0:
448,192,97796,128,2,98129:2:0:0:0:
64,192,97796,1,0,1:0:0:65:
192,192,98129,128,2,98462:2:0:0:0:
320,192,98129,1,0,1:0:0:65:
448,192,98462,128,2,98796:2:0:0:0:
64,192,98462,1,0,1:0:0:65:
64,192,98796,128,2,99129:2:0:0:0:
320,192,98796,1,0,1:0:0:65:
320,192,99129,128,2,99462:2:0:0:0:
192,192,99129,1,0,1:0:0:65:
192,192,99462,128,2,99796:2:0:0:0:
448,192,99462,1,0,1:0:0:65:
448,192,99796,128,2,100129:2:0:0:0:
64,192,99796,1,0,1:0:0:65:
320,192,100129,128,2,100796:2:0:0:0:
42,192,100129,1,8,1:0:0:0:
213,192,100129,1,0,1:0:0:65:
64,192,100462,1,0,1:0:0:65:
192,192,100796,128,2,101129:2:0:0:0:
448,192,100796,1,0,1:0:0:65:
448,192,101129,128,2,101462:2:0:0:0:
64,192,101129,1,0,1:0:0:65:
64,192,101462,128,2,101796:2:0:0:0:
192,192,101462,1,0,1:0:0:65:
448,192,101796,128,2,102796:2:0:0:0:
320,192,101796,1,0,1:0:0:65:
192,192,102129,1,0,1:0:0:65:
64,192,102462,1,0,1:0:0:65:
192,192,102796,1,0,1:0:0:65:
320,192,103129,1,0,1:0:0:65:
448,192,103462,1,0,1:0:0:65:
320,192,103796,1,0,1:0:0:65:
192,192,104129,1,0,1:0:0:65:
448,192,104462,128,2,104796:2:0:0:0:
64,192,104462,1,0,1:0:0:65:
192,192,104796,128,2,105129:2:0:0:0:
320,192,104796,1,0,1:0:0:65:
64,192,105129,128,2,105462:2:0:0:0:
448,192,105129,1,0,1:0:0:65:
320,192,105462,128,2,106129:2:0:0:0:
192,192,105462,1,0,1:0:0:65:
64,192,105796,1,0,1:0:0:65:
448,192,106129,1,0,1:0:0:65:
64,192,106462,128,2,106796:2:0:0:0:
320,192,106462,1,0,1:0:0:65:
469,192,106796,128,2,107129:2:0:0:0:
192,192,106796,1,0,1:0:0:65:
320,192,107129,128,2,107462:2:0:0:0:
64,192,107129,1,0,1:0:0:65:
192,192,107462,128,2,107796:2:0:0:0:
448,192,107462,1,0,1:0:0:65:
320,192,107796,1,0,1:0:0:65:
192,192,108129,1,0,1:0:0:65:
320,192,108462,128,2,108796:2:0:0:0:
64,192,108462,1,0,1:0:0:65:
192,192,108796,128,2,109129:2:0:0:0:
448,192,108796,1,0,1:0:0:65:
42,192,109129,128,2,109462:2:0:0:0:
320,192,109129,1,0,1:0:0:65:
448,192,109462,128,2,109796:2:0:0:0:
192,192,109462,1,0,1:0:0:65:
64,192,109796,128,2,110129:2:0:0:0:
320,192,109796,1,0,1:0:0:65:
320,192,110129,128,2,110462:2:0:0:0:
192,192,110129,1,0,1:0:0:65:
42,192,110462,128,2,110796:2:0:0:0:
448,192,110462,1,0,1:0:0:65:
448,192,110796,128,2,111462:2:0:0:0:
320,192,110796,1,0,1:0:0:65:
64,192,111129,1,0,1:0:0:65:
192,192,111462,1,0,1:0:0:65:
64,192,111796,128,2,112129:2:0:0:0:
448,192,111796,1,0,1:0:0:65:
192,192,112129,128,2,112462:2:0:0:0:
320,192,112129,1,0,1:0:0:65:
448,192,112462,128,2,112796:2:0:0:0:
64,192,112462,1,0,1:0:0:65:
320,192,112796,128,2,114462:2:0:0:0:
192,192,112796,1,0,1:0:0:65:
64,192,113129,1,0,1:0:0:65:
192,192,113462,1,0,1:0:0:65:
448,192,113796,1,0,1:0:0:65:
192,192,114129,1,0,1:0:0:65:
64,192,114462,1,0,1:0:0:65:
213,192,114796,1,0,1:0:0:65:
448,192,115129,128,2,115462:2:0:0:0:
320,192,115129,1,0,1:0:0:65:
192,192,115462,128,2,115796:2:0:0:0:
64,192,115462,1,0,1:0:0:65:
64,192,115796,128,2,117462:2:0:0:0:
469,192,115796,1,0,1:0:0:65:
320,192,116129,1,0,1:0:0:65:
192,192,116462,1,0,1:0:0:65:
320,192,116796,1,0,1:0:0:65:
448,192,117129,1,0,1:0:0:65:
320,192,117462,1,0,1:0:0:65:
192,192,117684,1,2,2:0:0:0:
320,192,117796,1,2,2:0:0:0:
320,192,118129,1,0,1:0:0:65:
192,192,118129,1,2,2:0:0:0:
64,192,118462,1,0,1:0:0:65:
448,192,118462,1,2,2:0:0:0:
64,192,118796,1,8,1:0:0:0:
298,192,118796,1,14,2:0:0:0:
469,192,118796,1,2,2:0:0:0:
192,192,119129,1,0,1:0:0:65:
298,192,119462,1,0,1:0:0:65:
448,192,119796,1,0,1:0:0:65:
192,192,120129,1,0,0:0:0:100:snare.wav
320,192,120129,1,0,1:0:0:65:
64,192,120462,1,0,1:0:0:65:
448,192,120796,1,0,1:0:0:65:
192,192,121129,1,0,1:0:0:65:
320,192,121462,1,0,1:0:0:65:
64,192,121796,1,0,1:0:0:65:
448,192,122129,1,0,1:0:0:65:
320,192,122462,1,0,1:0:0:65:
64,192,122796,1,0,0:0:0:100:snare.wav
448,192,122796,1,0,1:0:0:65:
320,192,123018,1,2,2:0:0:0:
192,192,123129,1,2,2:0:0:0:
298,192,123462,1,0,1:0:0:65:
469,192,123462,1,2,2:0:0:0:
192,192,123796,1,2,2:0:0:0:
42,192,123796,1,0,1:0:0:65:
298,192,124129,1,8,1:0:0:0:
42,192,124129,1,2,2:0:0:0:
448,192,124129,1,0,1:0:0:65:
192,192,124462,1,0,1:0:0:65:
469,192,124796,1,0,1:0:0:65:
64,192,125129,1,0,1:0:0:65:
320,192,125462,1,0,0:0:0:100:snare.wav
448,192,125462,1,0,1:0:0:65:
192,192,125796,1,0,1:0:0:65:
64,192,126129,1,0,1:0:0:65:
448,192,126462,1,0,1:0:0:65:
192,192,126796,1,0,1:0:0:65:
320,192,127129,1,0,1:0:0:65:
192,192,127462,1,0,1:0:0:65:
64,192,127796,1,0,1:0:0:65:
320,192,128129,1,0,0:0:0:100:snare.wav
192,192,128129,1,0,1:0:0:65:
64,192,128462,1,0,1:0:0:65:
469,192,128462,1,2,2:0:0:0:
192,192,128796,1,0,1:0:0:65:
64,192,128796,128,2,129296:2:0:0:0:
192,192,129296,1,2,2:0:0:0:
320,192,129462,1,2,3:0:0:0:
448,192,129462,1,8,1:0:0:0:
192,192,129796,1,8,1:0:0:0:
448,192,129796,128,2,130129:2:0:0:0:
64,192,130129,128,2,130629:2:0:0:0:
320,192,130629,1,2,2:0:0:0:
192,192,130796,1,0,0:0:0:100:snare.wav
64,192,130796,1,0,2:0:0:0:
448,192,131129,128,2,131462:2:0:0:0:
64,192,131462,128,2,131962:2:0:0:0:
448,192,131962,1,2,2:0:0:0:
192,192,132129,1,2,3:0:0:0:
320,192,132129,1,8,1:0:0:0:
192,192,132462,1,8,1:0:0:0:
64,192,132462,128,2,133129:2:0:0:0:
320,192,133462,1,0,0:0:0:100:snare.wav
448,192,133462,1,0,1:0:0:65:
64,192,133796,128,2,134129:2:0:0:0:
320,192,134129,128,2,134629:2:0:0:0:
64,192,134629,1,2,2:0:0:0:
192,192,134796,1,2,3:0:0:0:
448,192,134796,1,8,1:0:0:0:
192,192,135129,1,8,1:0:0:0:
448,192,135129,1,0,1:0:0:65:
320,192,135462,1,0,1:0:0:65:
192,192,135796,1,0,1:0:0:65:
64,192,136129,1,0,1:0:0:65:
448,192,136129,1,0,0:0:0:100:snare.wav
192,192,136462,128,2,136796:2:0:0:0:
469,192,136796,128,2,137296:2:0:0:0:
192,192,137296,1,2,2:0:0:0:
64,192,137462,1,2,3:0:0:0:
320,192,137462,1,8,1:0:0:0:
192,192,137629,1,2,2:0:0:0:
320,192,137796,1,8,1:0:0:0:
448,192,137796,1,0,1:0:0:65:
64,192,138129,1,0,1:0:0:65:
192,192,138462,1,0,1:0:0:65:
42,192,138796,1,0,0:0:0:100:snare.wav
298,192,138796,1,0,2:0:0:0:
448,192,138796,1,0,1:0:0:65:
192,192,139129,1,0,1:0:0:65:
448,192,139462,1,0,1:0:0:65:
298,192,139796,1,0,1:0:0:65:
42,192,140129,1,14,2:0:0:0:
213,192,140129,1,8,1:0:0:0:
448,192,140129,1,0,0:0:0:100:snare.wav
64,192,140462,1,8,1:0:0:0:
448,192,140462,1,2,2:0:0:0:
320,192,140629,1,2,2:0:0:0:
448,192,140796,1,0,0:0:0:100:snare.wav
64,192,140796,1,0,3:0:0:0:
192,192,140796,1,2,2:0:0:0:
64,192,141129,1,2,2:0:0:0:
192,192,141296,1,2,2:0:0:0:
320,192,141462,1,8,1:0:0:0:
469,192,141462,1,0,0:0:0:100:snare.wav
64,192,141462,1,2,2:0:0:0:
192,192,141796,1,8,1:0:0:0:
64,192,141796,1,2,2:0:0:0:
320,192,141962,1,2,2:0:0:0:
448,192,142129,1,0,0:0:0:100:snare.wav
64,192,142129,1,2,2:0:0:0:
192,192,142296,1,2,2:0:0:0:
448,192,142462,1,0,0:0:0:100:snare.wav
320,192,142462,1,0,2:0:0:0:
213,192,142796,1,8,1:0:0:0:
320,192,142796,1,0,0:0:0:100:snare.wav
42,192,142796,1,2,2:0:0:0:
448,192,143129,1,8,1:0:0:0:
320,192,143129,1,2,2:0:0:0:
192,192,143296,1,2,2:0:0:0:
298,192,143462,1,0,0:0:0:100:snare.wav
64,192,143462,1,0,3:0:0:0:
469,192,143462,1,2,2:0:0:0:
64,192,143796,1,2,2:0:0:0:
213,192,143962,1,2,2:0:0:0:
64,192,144129,1,8,1:0:0:0:
469,192,144129,1,0,0:0:0:100:snare.wav
320,192,144129,1,2,2:0:0:0:
64,192,144462,1,8,1:0:0:0:
192,192,144462,1,2,2:0:0:0:
298,192,144629,1,2,2:0:0:0:
469,192,144796,1,0,0:0:0:100:snare.wav
64,192,144796,1,2,2:0:0:0:
192,192,144962,1,2,2:0:0:0:
320,192,145129,1,2,2:0:0:0:
448,192,145296,1,2,2:0:0:0:
64,192,145462,1,8,1:0:0:0:
213,192,145462,1,0,0:0:0:100:snare.wav
448,192,145796,1,0,0:0:0:100:snare.wav
320,192,145796,1,8,1:0:0:0:
213,192,145962,1,2,2:0:0:0:
448,192,146129,1,0,0:0:0:100:snare.wav
64,192,146129,1,2,2:0:0:0:
213,192,146462,1,0,0:0:0:100:snare.wav
64,192,146462,1,2,2:0:0:0:
320,192,146629,1,2,2:0:0:0:
469,192,146796,1,0,0:0:0:100:snare.wav
64,192,146796,1,8,1:0:0:0:
448,192,147129,1,8,1:0:0:0:
192,192,147129,1,0,0:0:0:100:snare.wav
320,192,147296,1,2,2:0:0:0:
64,192,147462,1,0,0:0:0:100:snare.wav
448,192,147462,1,2,2:0:0:0:
192,192,147629,1,2,2:0:0:0:
448,192,147796,1,0,0:0:0:100:snare.wav
320,192,147796,1,0,3:0:0:0:
42,192,148129,1,8,1:0:0:0:
448,192,148129,1,0,0:0:0:100:snare.wav
320,192,148296,1,0,0:0:0:100:snare.wav
64,192,148462,1,8,1:0:0:0:
192,192,148462,1,0,0:0:0:100:snare.wav
448,192,148629,1,0,0:0:0:100:snare.wav
298,192,148629,1,0,3:0:0:0:
192,192,148796,1,0,0:0:0:100:snare.wav
64,192,148796,1,0,3:0:0:0:
320,192,148962,1,0,0:0:0:100:snare.wav
448,192,149129,1,0,0:0:0:100:snare.wav
64,192,149129,1,0,3:0:0:0:
320,192,149296,1,2,2:0:0:0:
192,192,149296,1,0,0:0:0:100:snare.wav
64,192,149462,1,8,1:0:0:0:
448,192,149462,1,0,0:0:0:100:snare.wav
192,192,149629,1,0,0:0:0:100:snare.wav
320,192,149796,1,8,1:0:0:0:
470,192,149796,1,0,0:0:0:100:snare.wav
192,192,149962,1,2,2:0:0:0:
64,192,149962,1,0,0:0:0:100:snare.wav
448,192,150129,1,0,0:0:0:100:snare.wav
320,192,150129,1,0,3:0:0:0:
64,192,150296,1,2,2:0:0:0:
192,192,150296,1,0,0:0:0:100:snare.wav
320,192,150462,1,0,0:0:0:100:snare.wav
469,192,150462,1,0,3:0:0:0:
192,192,150629,1,2,2:0:0:0:
64,192,150629,1,0,0:0:0:100:snare.wav
320,192,151129,1,0,3:0:0:0:
64,192,151129,1,8,1:0:0:0:
448,192,151129,1,2,2:0:0:0:
448,192,151462,1,8,1:0:0:0:
64,192,151462,1,2,2:0:0:0:
320,192,151629,1,8,1:0:0:0:
192,192,151629,1,0,3:0:0:0:
64,192,151796,1,8,1:0:0:0:
448,192,151796,1,2,2:0:0:0:
320,192,151962,1,8,1:0:0:0:
448,192,152129,128,14,154462:2:0:0:0:
192,192,152129,1,14,3:0:0:0:
64,192,152129,1,12,1:0:0:0:
320,192,152462,1,2,3:0:0:0:
320,192,152795,1,10,3:0:0:0:
192,192,152795,1,0,1:0:0:100:snare.wav
42,192,152795,1,8,1:0:0:0:
64,192,153129,1,2,3:0:0:0:
320,192,153462,1,8,1:0:0:0:
213,192,153462,1,0,3:0:0:0:
192,192,153795,1,2,3:0:0:0:
320,192,154129,1,0,1:0:0:100:snare.wav
64,192,154129,1,10,3:0:0:0:
213,192,154129,1,8,1:0:0:0:
64,192,154462,1,2,3:0:0:0:
320,192,154462,128,2,154795:2:0:0:0:
469,192,154795,1,8,1:0:0:0:
192,192,154795,1,0,3:0:0:0:
64,192,154795,128,2,155129:2:0:0:0:
320,192,155129,1,2,3:0:0:0:
469,192,155129,128,2,156462:2:0:0:0:
298,192,155462,1,10,3:0:0:0:
213,192,155462,1,0,1:0:0:100:snare.wav
42,192,155462,1,8,1:0:0:0:
64,192,155795,1,2,3:0:0:0:
298,192,156129,1,8,1:0:0:0:
213,192,156129,1,0,3:0:0:0:
298,192,156462,1,2,3:0:0:0:
64,192,156462,1,2,2:0:0:0:
448,192,156795,1,10,3:0:0:0:
192,192,156795,1,8,1:0:0:0:
64,192,156795,128,2,157129:2:0:0:0:
320,192,156795,1,0,1:0:0:100:snare.wav
469,192,157129,128,2,157295:2:0:0:0:
192,192,157129,1,2,3:0:0:0:
320,192,157295,128,2,159129:2:0:0:0:
192,192,157462,1,8,1:0:0:0:
42,192,157462,1,0,3:0:0:0:
448,192,157795,1,2,3:0:0:0:
469,192,158129,1,10,3:0:0:0:
213,192,158129,1,0,1:0:0:100:snare.wav
64,192,158129,1,8,1:0:0:0:
64,192,158462,1,2,3:0:0:0:
213,192,158795,1,0,3:0:0:0:
469,192,158795,1,8,1:0:0:0:
64,192,159129,1,2,3:0:0:0:
192,192,159129,1,2,2:0:0:0:
320,192,159462,1,10,3:0:0:0:
64,192,159462,128,2,159795:2:0:0:0:
213,192,159462,1,0,1:0:0:100:snare.wav
448,192,159462,1,8,1:0:0:0:
448,192,159795,128,2,159962:2:0:0:0:
320,192,159795,1,2,3:0:0:0:
192,192,159962,128,2,161129:2:0:0:0:
298,192,160129,1,8,1:0:0:0:
448,192,160129,1,0,3:0:0:0:
64,192,160462,1,2,3:0:0:0:
298,192,160795,1,10,3:0:0:0:
448,192,160795,1,8,1:0:0:0:
42,192,160795,1,0,1:0:0:100:snare.wav
320,192,161129,1,2,3:0:0:0:
448,192,161129,128,2,161462:2:0:0:0:
192,192,161462,1,8,1:0:0:0:
64,192,161462,1,0,3:0:0:0:
298,192,161795,1,2,3:0:0:0:
64,192,161795,128,2,162129:2:0:0:0:
298,192,162129,1,10,3:0:0:0:
213,192,162129,1,8,1:0:0:0:
448,192,162129,128,0,162462:1:0:0:100:snare.wav
320,192,162462,1,2,3:0:0:0:
192,192,162462,128,2,162795:2:0:0:0:
448,192,162795,1,8,1:0:0:0:
320,192,162795,128,2,164462:2:0:0:0:
64,192,162795,1,0,3:0:0:0:
213,192,163129,1,2,3:0:0:0:
213,192,163462,1,10,3:0:0:0:
64,192,163462,1,8,1:0:0:0:
469,192,163462,1,0,1:0:0:100:snare.wav
64,192,163795,1,2,3:0:0:0:
213,192,164129,1,8,1:0:0:0:
469,192,164129,1,0,3:0:0:0:
42,192,164462,1,2,3:0:0:0:
213,192,164462,1,2,2:0:0:0:
213,192,164795,1,10,3:0:0:0:
42,192,164795,128,2,165129:2:0:0:0:
298,192,164795,1,8,1:0:0:0:
469,192,164795,1,0,1:0:0:100:snare.wav
192,192,165129,128,2,165295:2:0:0:0:
448,192,165129,1,2,3:0:0:0:
320,192,165295,128,2,167795:2:0:0:0:
64,192,165462,1,8,1:0:0:0:
469,192,165462,1,0,3:0:0:0:
213,192,165795,1,2,3:0:0:0:
213,192,166129,1,10,3:0:0:0:
448,192,166129,1,8,1:0:0:0:
64,192,166129,1,0,1:0:0:100:snare.wav
64,192,166462,1,2,3:0:0:0:
213,192,166795,1,8,1:0:0:0:
469,192,166795,1,0,3:0:0:0:
448,192,167128,1,2,3:0:0:0:
213,192,167462,1,10,3:0:0:0:
64,192,167462,1,0,1:0:0:100:snare.wav
448,192,167462,1,8,1:0:0:0:
213,192,167795,1,2,3:0:0:0:
42,192,167795,128,2,168128:2:0:0:0:
192,192,168128,1,8,1:0:0:0:
448,192,168128,128,2,168462:2:0:0:0:
320,192,168128,1,0,3:0:0:0:
64,192,168462,1,2,3:0:0:0:
192,192,168462,128,2,168795:2:0:0:0:
42,192,168795,1,10,3:0:0:0:
448,192,168795,1,8,1:0:0:0:
298,192,168795,128,0,169128:1:0:0:100:snare.wav
213,192,169128,1,2,3:0:0:0:
42,192,169128,128,2,169462:2:0:0:0:
192,192,169462,1,2,2:0:0:0:
320,192,169462,128,8,169795:1:0:0:0:
448,192,169462,1,0,3:0:0:0:
64,192,169795,1,2,3:0:0:0:
192,192,169795,128,2,170128:2:0:0:0:
448,192,170128,128,10,170462:3:0:0:0:
298,192,170128,1,0,1:0:0:100:snare.wav
64,192,170128,1,8,1:0:0:0:
42,192,170462,128,2,170628:2:0:0:0:
320,192,170462,1,2,3:0:0:0:
192,192,170628,128,2,171795:2:0:0:0:
320,192,170795,1,8,1:0:0:0:
469,192,170795,1,0,3:0:0:0:
64,192,171128,1,2,3:0:0:0:
42,192,171462,1,10,3:0:0:0:
298,192,171462,1,8,1:0:0:0:
469,192,171462,1,0,1:0:0:100:snare.wav
448,192,171795,1,2,3:0:0:0:
42,192,171795,128,2,172128:2:0:0:0:
213,192,172128,1,8,1:0:0:0:
320,192,172128,128,2,172795:2:0:0:0:
448,192,172128,1,0,3:0:0:0:
213,192,172462,1,2,3:0:0:0:
192,192,172795,1,8,1:0:0:0:
469,192,172795,1,0,1:0:0:100:snare.wav
42,192,172795,128,10,173462:3:0:0:0:
320,192,173128,1,2,3:0:0:0:
192,192,173462,1,12,1:0:0:0:
298,192,173462,1,14,2:0:0:0:
469,192,173462,1,14,3:0:0:0:
298,192,173795,1,2,3:0:0:0:
213,192,173795,1,0,3:0:0:0:
448,192,173795,1,0,2:0:0:0:
64,192,174128,1,8,1:0:0:0:
192,192,174128,1,10,3:0:0:0:
320,192,174128,1,0,1:0:0:100:snare.wav
320,192,174462,1,0,2:0:0:0:
192,192,174462,1,2,3:0:0:0:
64,192,174462,1,0,3:0:0:0:
320,192,174795,1,8,1:0:0:0:
469,192,174795,1,0,2:0:0:0:
42,192,174795,1,0,3:0:0:0:
320,192,175128,1,2,3:0:0:0:
192,192,175128,1,0,3:0:0:0:
469,192,175128,1,0,2:0:0:0:
320,192,175351,1,0,2:0:0:0:
192,192,175351,1,0,3:0:0:0:
192,192,175684,1,0,2:0:0:0:
64,192,175684,1,0,3:0:0:0:
298,192,175795,1,2,3:0:0:0:
448,192,175795,1,0,3:0:0:0:
448,192,176128,1,0,2:0:0:0:
213,192,176128,1,8,1:0:0:0:
64,192,176128,1,0,3:0:0:0:
42,192,176462,1,0,2:0:0:0:
192,192,176462,1,0,3:0:0:0:
448,192,176462,1,2,3:0:0:0:
469,192,176795,1,8,1:0:0:0:
64,192,176795,1,0,1:0:0:100:snare.wav
320,192,176795,1,10,3:0:0:0:
64,192,177128,1,0,3:0:0:0:
298,192,177128,1,2,3:0:0:0:
469,192,177128,1,2,2:0:0:0:
213,192,177462,1,0,3:0:0:0:
42,192,177462,1,8,1:0:0:0:
320,192,177462,128,2,177795:2:0:0:0:
64,192,177795,1,2,3:0:0:0:
192,192,177795,1,0,3:0:0:0:
64,192,178128,1,10,3:0:0:0:
448,192,178128,1,0,1:0:0:100:snare.wav
298,192,178240,1,0,2:0:0:0:
192,192,178351,1,0,3:0:0:0:
64,192,178462,1,0,3:0:0:0:
448,192,178462,1,2,3:0:0:0:
298,192,178795,1,0,2:0:0:0:
448,192,178795,1,0,3:0:0:0:
42,192,178795,1,8,1:0:0:0:
42,192,179128,1,2,3:0:0:0:
448,192,179128,1,0,3:0:0:0:
320,192,179128,1,0,2:0:0:0:
298,192,179462,1,10,3:0:0:0:
192,192,179462,1,0,1:0:0:100:snare.wav
42,192,179462,1,8,1:0:0:0:
42,192,179795,1,2,3:0:0:0:
320,192,179795,1,0,3:0:0:0:
192,192,179795,1,0,2:0:0:0:
448,192,180128,1,8,1:0:0:0:
320,192,180128,1,0,3:0:0:0:
42,192,180128,1,0,2:0:0:0:
213,192,180462,1,0,3:0:0:0:
298,192,180462,1,2,3:0:0:0:
448,192,180462,1,0,2:0:0:0:
64,192,180795,1,10,3:0:0:0:
298,192,180795,1,8,1:0:0:0:
469,192,180795,1,0,1:0:0:100:snare.wav
192,192,181017,1,2,2:0:0:0:
64,192,181128,1,2,3:0:0:0:
448,192,181128,1,2,2:0:0:0:
320,192,181351,1,2,2:0:0:0:
64,192,181462,128,2,182128:2:0:0:0:
448,192,181462,1,8,1:0:0:0:
320,192,181795,1,0,3:0:0:0:
192,192,181795,1,2,3:0:0:0:
320,192,182128,1,8,1:0:0:0:
192,192,182128,1,10,3:0:0:0:
448,192,182128,1,0,1:0:0:100:snare.wav
42,192,182462,1,2,2:0:0:0:
320,192,182462,1,2,3:0:0:0:
448,192,182462,1,0,3:0:0:0:
469,192,182795,128,2,183462:2:0:0:0:
192,192,182795,1,0,3:0:0:0:
42,192,182795,1,8,1:0:0:0:
42,192,183128,1,2,3:0:0:0:
213,192,183128,1,0,3:0:0:0:
42,192,183462,128,8,184128:1:0:0:0:
213,192,183462,1,10,3:0:0:0:
298,192,183462,1,0,1:0:0:100:snare.wav
448,192,183795,1,0,3:0:0:0:
298,192,183795,1,2,3:0:0:0:
299,192,184128,1,4,3:0:0:0:
448,192,184128,1,8,1:0:0:0:
214,192,184128,1,6,2:0:0:0:
320,192,184462,1,0,3:0:0:0:
214,192,184462,1,2,3:0:0:0:
448,192,184462,1,0,2:0:0:0:
469,192,184795,1,10,3:0:0:0:
192,192,184795,1,8,1:0:0:0:
64,192,184795,1,0,1:0:0:100:snare.wav
43,192,185128,1,0,2:0:0:0:
192,192,185128,1,0,3:0:0:0:
469,192,185128,1,2,3:0:0:0:
320,192,185462,1,0,2:0:0:0:
213,192,185462,1,0,3:0:0:0:
64,192,185462,1,8,1:0:0:0:
64,192,185795,1,2,3:0:0:0:
320,192,185795,1,0,2:0:0:0:
448,192,185795,1,0,3:0:0:0:
448,192,186017,1,0,2:0:0:0:
192,192,186017,1,0,3:0:0:0:
64,192,186351,1,0,3:0:0:0:
448,192,186351,1,0,2:0:0:0:
213,192,186462,1,0,3:0:0:0:
298,192,186462,1,2,3:0:0:0:
448,192,186795,1,0,2:0:0:0:
192,192,186795,1,8,1:0:0:0:
64,192,186795,1,0,3:0:0:0:
42,192,187128,1,2,3:0:0:0:
213,192,187128,1,0,3:0:0:0:
448,192,187128,1,0,2:0:0:0:
192,192,187462,1,0,1:0:0:100:snare.wav
320,192,187462,1,8,1:0:0:0:
469,192,187462,1,10,3:0:0:0:
469,192,187795,1,2,3:0:0:0:
192,192,187795,1,2,2:0:0:0:
298,192,187795,1,0,3:0:0:0:
42,192,188128,128,2,188462:2:0:0:0:
320,192,188128,1,8,1:0:0:0:
448,192,188128,1,0,3:0:0:0:
320,192,188462,1,2,3:0:0:0:
448,192,188462,1,0,3:0:0:0:
448,192,188795,1,10,3:0:0:0:
64,192,188795,1,0,1:0:0:100:snare.wav
192,192,188906,1,0,2:0:0:0:
299,192,189017,1,0,3:0:0:0:
448,192,189128,1,2,3:0:0:0:
64,192,189128,1,0,3:0:0:0:
320,192,189462,1,8,1:0:0:0:
192,192,189462,1,0,3:0:0:0:
64,192,189462,1,0,2:0:0:0:
42,192,189795,1,2,3:0:0:0:
320,192,189795,1,0,2:0:0:0:
213,192,189795,1,0,3:0:0:0:
192,192,190128,1,0,1:0:0:100:snare.wav
469,192,190128,1,10,3:0:0:0:
298,192,190128,1,8,1:0:0:0:
213,192,190462,1,2,3:0:0:0:
320,192,190462,1,0,3:0:0:0:
470,192,190462,1,0,2:0:0:0:
448,192,190795,1,0,2:0:0:0:
213,192,190795,1,0,3:0:0:0:
42,192,190795,1,8,1:0:0:0:
42,192,191128,1,2,3:0:0:0:
298,192,191128,1,0,3:0:0:0:
448,192,191128,1,2,2:0:0:0:
192,192,191462,1,0,1:0:0:100:snare.wav
320,192,191462,1,10,3:0:0:0:
470,192,191462,1,8,1:0:0:0:
320,192,191684,1,2,2:0:0:0:
192,192,191795,1,2,2:0:0:0:
64,192,191795,1,2,3:0:0:0:
192,192,192017,1,2,2:0:0:0:
448,192,192128,128,2,192795:2:0:0:0:
320,192,192128,1,8,1:0:0:0:
192,192,192462,1,2,3:0:0:0:
64,192,192462,1,0,3:0:0:0:
320,192,192795,1,0,1:0:0:100:snare.wav
64,192,192795,1,8,1:0:0:0:
213,192,192795,1,10,3:0:0:0:
448,192,193128,1,2,2:0:0:0:
320,192,193128,1,0,3:0:0:0:
42,192,193128,128,2,193462:3:0:0:0:
469,192,193462,1,0,3:0:0:0:
298,192,193462,1,0,1:0:0:100:snare.wav
213,192,193462,1,8,1:0:0:0:
192,192,193795,1,0,1:0:0:100:snare.wav
448,192,193795,1,0,3:0:0:0:
42,192,193795,1,2,3:0:0:0:
469,192,194128,1,10,3:0:0:0:
320,192,194128,1,2,2:0:0:0:
213,192,194128,1,0,1:0:0:100:snare.wav
64,192,194128,1,8,1:0:0:0:
320,192,194351,1,0,3:0:0:0:
448,192,194351,1,0,1:0:0:100:snare.wav
192,192,194462,1,2,3:0:0:0:
64,192,194462,1,0,1:0:0:100:snare.wav
192,192,194684,1,0,3:0:0:0:
64,192,194684,1,0,1:0:0:100:snare.wav
448,192,194795,1,14,3:0:0:0:
298,192,194796,1,14,2:0:0:0:
192,192,196129,128,0,196796:0:0:0:20:steel.wav
320,192,196796,128,2,197462:2:0:0:0:
64,192,197462,128,2,198129:2:0:0:0:
448,192,197462,128,0,198129:0:0:0:20:steel.wav
192,192,198129,128,2,198796:2:0:0:0:
448,192,198796,128,2,199462:2:0:0:0:
42,192,198796,128,0,199462:0:0:0:20:steel.wav
320,192,199462,128,2,200129:2:0:0:0:
64,192,200129,128,2,200796:2:0:0:0:
320,192,200796,128,2,201462:2:0:0:0:
192,192,201462,128,2,202303:2:0:0:0:
448,192,202303,128,2,204767:2:0:0:0:
64,192,203117,128,2,204767:2:0:0:0:
