osu file format v14

[General]
AudioFilename: audio.mp3
AudioLeadIn: 0
PreviewTime: 151130
Countdown: 0
SampleSet: Soft
StackLeniency: 0.7
Mode: 3
LetterboxInBreaks: 0
SpecialStyle: 0
WidescreenStoryboard: 1

[Editor]
Bookmarks: 10796,21463,31463,32130,42796,52130,52796,54796,65462,76129,86796,97462,118796,140129,148129,152129,162795,173462,184128,194795
DistanceSpacing: 1
BeatDivisor: 4
GridSize: 8
TimelineZoom: 1.9

[Metadata]
Title:Faded
TitleUnicode:Faded
Artist:Alan Walker
ArtistUnicode:Alan Walker
Creator:x_yx
Version:CV [4K] Insane
Source:
Tags:instrumental edm pop house trance drum and bass hype vibe party ln long notes sliders dancing line cheetah mobile sxphie_ guest difficulty diff
BeatmapID:3653245
BeatmapSetID:1783850

[Difficulty]
HPDrainRate:7.6
CircleSize:4
OverallDifficulty:6.6
ApproachRate:5
SliderMultiplier:1.4
SliderTickRate:1

[Events]
//Background and Video events
0,0,"dk5;E1.jpg",0,0
Video,-520,"Alan Walker - Faded.avi"
//Break Periods
//Storyboard Layer 0 (Background)
//Storyboard Layer 1 (Fail)
//Storyboard Layer 2 (Pass)
//Storyboard Layer 3 (Foreground)
//Storyboard Layer 4 (Overlay)
//Storyboard Sound Samples

[TimingPoints]
130,666.666666666667,4,2,1,80,1,0
130,-100,4,2,1,80,0,0
54796,666.666666666667,4,2,1,80,1,1
54796,-100,4,2,1,80,0,1
75462,-100,4,2,1,80,0,0
76129,-100,4,2,1,80,0,1
97462,-100,4,2,1,80,0,0
150629,-100,4,2,1,80,0,0
150713,-111.111111111111,4,2,1,80,0,0
150796,-133.333333333333,4,2,1,80,0,0
150879,-181.818181818182,4,2,1,80,0,0
150963,-333.333333333333,4,2,1,80,0,0
151129,-100,4,2,1,80,0,0
152129,333.333333333333,4,2,1,80,1,1
152129,-200,4,2,1,80,0,1
172795,-200,4,2,1,80,0,0
173462,-200,4,2,1,80,0,1
183462,-200,4,2,1,80,0,0
184128,-200,4,2,1,80,0,1
194796,666.666666666667,4,2,1,80,1,0
194796,-100,4,2,1,80,0,0
198796,-105.263157894737,4,2,1,80,0,0
199462,-111.111111111111,4,2,1,80,0,0
200129,-117.647058823529,4,2,1,80,0,0
200796,-125,4,2,1,80,0,0
201462,789.473684210526,4,2,1,80,1,0
201462,-126.582278481013,4,2,1,80,0,0
202251,833.333333333333,4,2,1,80,1,0
202251,-129.87012987013,4,2,1,80,0,0
202667,1200,4,2,1,80,1,0
202667,-95.2380952380952,4,2,1,80,0,0
203267,1200,4,2,1,80,1,0
203267,-102.040816326531,4,2,1,80,0,0

[HitObjects]
213,192,130,5,2,2:0:0:0:
469,192,130,128,4,463:2:0:0:55:
64,192,130,1,0,2:0:0:0:
213,192,463,1,0,2:0:0:0:
64,192,796,1,0,2:0:0:0:
469,192,796,128,2,1130:2:0:0:0:
213,192,1130,1,0,2:0:0:0:
64,192,1463,1,0,2:0:0:0:
469,192,1463,128,2,1796:2:0:0:0:
213,192,1796,1,0,2:0:0:0:
64,192,2130,1,0,2:0:0:0:
298,192,2130,128,2,2463:2:0:0:0:
213,192,2463,1,0,2:0:0:0:
320,192,2796,1,0,2:0:0:0:
64,192,2796,128,2,3130:2:0:0:0:
469,192,2796,1,0,2:0:0:0:
192,192,3130,1,0,2:0:0:0:
448,192,3463,1,0,2:0:0:0:
64,192,3463,128,2,3796:2:0:0:0:
320,192,3796,1,0,2:0:0:0:
448,192,4130,1,0,2:0:0:0:
64,192,4130,128,2,4463:2:0:0:0:
192,192,4463,1,0,2:0:0:0:
448,192,4796,1,0,2:0:0:0:
320,192,4796,128,2,5130:2:0:0:0:
64,192,5130,1,0,2:0:0:0:
448,192,5463,1,0,2:0:0:0:
192,192,5463,128,2,5796:2:0:0:0:
320,192,5463,1,0,2:0:0:0:
448,192,5796,1,0,2:0:0:0:
64,192,6130,1,0,2:0:0:0:
192,192,6130,128,2,6463:2:0:0:0:
448,192,6463,1,0,2:0:0:0:
320,192,6796,1,0,2:0:0:0:
192,192,6796,128,2,7130:2:0:0:0:
448,192,7130,1,0,2:0:0:0:
42,192,7463,1,0,2:0:0:0:
192,192,7463,128,2,7796:2:0:0:0:
448,192,7796,1,0,2:0:0:0:
298,192,8130,1,0,2:0:0:0:
42,192,8130,1,0,2:0:0:0:
469,192,8130,128,2,8463:2:0:0:0:
213,192,8463,1,0,2:0:0:0:
42,192,8796,1,0,2:0:0:0:
469,192,8796,128,2,9130:2:0:0:0:
320,192,9130,1,0,2:0:0:0:
42,192,9463,1,0,2:0:0:0:
469,192,9463,128,2,9796:2:0:0:0:
192,192,9796,1,0,2:0:0:0:
42,192,10130,1,0,2:0:0:0:
320,192,10130,128,2,10463:2:0:0:0:
448,192,10463,1,0,2:0:0:0:
192,192,10796,1,2,2:0:0:0:
42,192,10796,1,0,2:0:0:0:
469,192,10796,1,0,2:0:0:0:
320,192,11130,1,0,2:0:0:0:
469,192,11463,1,0,2:0:0:0:
192,192,11463,1,2,2:0:0:0:
42,192,11463,1,0,2:0:0:0:
320,192,11796,1,0,2:0:0:0:
192,192,12130,1,2,2:0:0:0:
42,192,12130,1,0,2:0:0:0:
469,192,12130,1,0,2:0:0:0:
320,192,12463,1,0,2:0:0:0:
320,192,12796,1,2,2:0:0:0:
42,192,12796,1,0,2:0:0:0:
469,192,12796,1,0,2:0:0:0:
192,192,13130,1,0,2:0:0:0:
469,192,13463,1,2,2:0:0:0:
192,192,13463,1,0,2:0:0:0:
298,192,13463,1,0,2:0:0:0:
64,192,13796,1,0,2:0:0:0:
469,192,14130,1,2,2:0:0:0:
192,192,14130,1,0,2:0:0:0:
298,192,14130,1,0,2:0:0:0:
64,192,14463,1,0,2:0:0:0:
469,192,14796,1,2,2:0:0:0:
192,192,14796,1,0,2:0:0:0:
320,192,14796,1,0,2:0:0:0:
64,192,15130,1,0,2:0:0:0:
298,192,15463,1,2,2:0:0:0:
64,192,15463,1,0,2:0:0:0:
469,192,15463,1,0,2:0:0:0:
192,192,15796,1,0,2:0:0:0:
64,192,16130,1,2,2:0:0:0:
192,192,16130,1,0,2:0:0:0:
469,192,16130,1,0,2:0:0:0:
320,192,16463,1,0,2:0:0:0:
320,192,16796,1,2,2:0:0:0:
42,192,16796,1,0,2:0:0:0:
469,192,16796,1,0,2:0:0:0:
192,192,17130,1,0,2:0:0:0:
192,192,17463,1,2,2:0:0:0:
42,192,17463,1,0,2:0:0:0:
469,192,17463,1,0,2:0:0:0:
320,192,17796,1,0,2:0:0:0:
320,192,18130,1,2,2:0:0:0:
42,192,18130,1,0,2:0:0:0:
469,192,18130,1,0,2:0:0:0:
192,192,18463,1,0,2:0:0:0:
192,192,18796,1,2,2:0:0:0:
42,192,18796,1,0,2:0:0:0:
469,192,18796,1,0,2:0:0:0:
320,192,19130,1,0,2:0:0:0:
192,192,19463,1,2,2:0:0:0:
42,192,19463,1,0,2:0:0:0:
469,192,19463,1,0,2:0:0:0:
320,192,19796,1,0,2:0:0:0:
192,192,20130,1,2,2:0:0:0:
42,192,20130,1,0,2:0:0:0:
469,192,20130,1,0,2:0:0:0:
320,192,20463,1,0,2:0:0:0:
320,192,20796,1,0,2:0:0:0:
192,192,20796,1,0,2:0:0:0:
469,192,20796,128,2,21130:2:0:0:0:
64,192,21130,1,0,2:0:0:0:
192,192,21463,1,0,2:0:0:0:
64,192,21463,1,0,2:0:0:0:
469,192,21463,128,6,22130:2:0:0:0:
320,192,21463,1,0,2:0:0:0:
192,192,21796,1,0,2:0:0:0:
298,192,22130,1,0,2:0:0:0:
192,192,22130,1,0,2:0:0:0:
42,192,22130,128,2,22796:2:0:0:0:
448,192,22463,1,0,2:0:0:0:
192,192,22796,1,0,2:0:0:0:
320,192,22796,128,2,23463:2:0:0:0:
469,192,22796,1,0,0:0:0:20:steel.wav
64,192,23130,1,0,2:0:0:0:
469,192,23463,1,0,2:0:0:0:
64,192,23463,1,0,2:0:0:0:
192,192,23463,128,2,24130:2:0:0:0:
298,192,23796,1,0,2:0:0:0:
64,192,24130,1,0,2:0:0:0:
448,192,24130,128,2,24796:2:0:0:0:
298,192,24130,1,0,0:0:0:25:steel.wav
42,192,24463,1,0,2:0:0:0:
298,192,24796,1,0,2:0:0:0:
42,192,24796,1,0,2:0:0:0:
192,192,24796,128,2,25463:2:0:0:0:
448,192,25130,1,0,2:0:0:0:
448,192,25463,1,0,2:0:0:0:
320,192,25463,128,2,26130:2:0:0:0:
64,192,25463,1,0,0:0:0:30:steel.wav
192,192,25796,1,0,2:0:0:0:
469,192,26130,1,0,2:0:0:0:
213,192,26130,1,0,2:0:0:0:
64,192,26130,128,2,26796:2:0:0:0:
320,192,26463,1,0,2:0:0:0:
213,192,26796,1,0,2:0:0:0:
320,192,26796,128,2,27463:2:0:0:0:
469,192,26796,1,0,0:0:0:35:steel.wav
64,192,27130,1,0,2:0:0:0:
469,192,27463,1,0,2:0:0:0:
64,192,27463,1,0,2:0:0:0:
192,192,27463,128,2,28130:2:0:0:0:
448,192,27796,1,0,2:0:0:0:
320,192,28130,1,0,2:0:0:0:
469,192,28130,128,2,28796:2:0:0:0:
42,192,28130,1,0,0:0:0:40:steel.wav
298,192,28463,1,0,2:0:0:0:
213,192,28796,1,0,2:0:0:0:
42,192,28796,1,0,2:0:0:0:
298,192,28796,128,2,29463:2:0:0:0:
64,192,29130,1,0,2:0:0:0:
469,192,29463,1,0,2:0:0:0:
42,192,29463,128,2,30130:2:0:0:0:
213,192,29463,1,0,0:0:0:45:steel.wav
298,192,29796,1,0,2:0:0:0:
298,192,30130,1,0,2:0:0:0:
213,192,30130,1,0,2:0:0:0:
469,192,30130,128,2,30796:2:0:0:0:
64,192,30463,1,0,2:0:0:0:
192,192,30796,1,0,2:0:0:0:
320,192,30796,128,2,31463:2:0:0:0:
64,192,30796,1,0,0:0:0:50:steel.wav
192,192,31130,1,0,2:0:0:0:
192,192,31463,1,0,2:0:0:0:
64,192,31463,1,0,2:0:0:0:
448,192,31463,128,2,32130:2:0:0:0:
298,192,31796,1,0,2:0:0:0:
320,192,32130,128,10,32463:2:0:0:0:
192,192,32130,1,0,2:0:0:0:
64,192,32130,128,0,32296:3:0:0:0:
213,192,32463,128,0,32630:2:0:0:0:
64,192,32796,128,0,32963:2:0:0:0:
320,192,32796,128,2,33130:2:0:0:0:
213,192,33130,128,0,33296:2:0:0:0:
320,192,33463,128,10,33796:2:0:0:0:
64,192,33463,128,0,33630:3:0:0:0:
448,192,33463,1,0,2:0:0:0:
213,192,33796,128,0,33963:2:0:0:0:
42,192,34130,128,0,34296:2:0:0:0:
448,192,34130,128,2,34463:2:0:0:0:
213,192,34463,128,0,34630:2:0:0:0:
320,192,34796,128,0,34963:2:0:0:0:
64,192,34796,128,10,35130:2:0:0:0:
448,192,34796,1,0,3:0:0:0:
192,192,35130,128,0,35296:2:0:0:0:
448,192,35463,128,0,35630:2:0:0:0:
64,192,35463,128,2,35796:2:0:0:0:
192,192,35796,128,0,35963:2:0:0:0:
64,192,36130,128,10,36463:2:0:0:0:
320,192,36130,128,0,36296:3:0:0:0:
448,192,36130,1,0,2:0:0:0:
192,192,36463,128,0,36630:2:0:0:0:
64,192,36796,128,0,36963:2:0:0:0:
448,192,36796,128,2,37130:2:0:0:0:
320,192,37130,128,0,37296:2:0:0:0:
42,192,37463,128,0,37630:2:0:0:0:
192,192,37463,128,10,37796:2:0:0:0:
448,192,37463,1,0,3:0:0:0:
320,192,37796,128,0,37963:2:0:0:0:
64,192,38130,128,0,38296:2:0:0:0:
448,192,38130,128,2,38463:2:0:0:0:
320,192,38463,128,0,38630:2:0:0:0:
469,192,38796,128,10,39130:2:0:0:0:
64,192,38796,128,0,38963:3:0:0:0:
192,192,38796,1,0,2:0:0:0:
192,192,39130,128,0,39296:2:0:0:0:
64,192,39463,128,0,39630:2:0:0:0:
320,192,39463,128,2,39796:2:0:0:0:
192,192,39796,128,0,39963:2:0:0:0:
64,192,40130,128,10,40463:2:0:0:0:
448,192,40130,128,0,40296:3:0:0:0:
320,192,40130,1,0,2:0:0:0:
192,192,40463,128,0,40630:2:0:0:0:
448,192,40796,128,0,40963:2:0:0:0:
64,192,40796,128,2,41130:2:0:0:0:
320,192,41130,128,0,41296:2:0:0:0:
64,192,41463,128,10,41796:2:0:0:0:
448,192,41463,128,0,41630:3:0:0:0:
320,192,41463,1,0,2:0:0:0:
192,192,41796,128,0,41963:2:0:0:0:
64,192,42130,128,0,42296:2:0:0:0:
448,192,42130,128,2,42463:2:0:0:0:
320,192,42463,128,0,42630:2:0:0:0:
320,192,42796,128,10,43130:2:0:0:0:
192,192,42796,1,0,2:0:0:0:
64,192,42796,128,0,42963:3:0:0:0:
213,192,43130,128,0,43296:2:0:0:0:
64,192,43463,128,0,43630:2:0:0:0:
320,192,43463,128,2,43796:2:0:0:0:
213,192,43796,128,0,43963:2:0:0:0:
320,192,44130,128,10,44463:2:0:0:0:
64,192,44130,128,0,44296:3:0:0:0:
448,192,44130,1,0,2:0:0:0:
213,192,44463,128,0,44630:2:0:0:0:
42,192,44796,128,0,44963:2:0:0:0:
448,192,44796,128,2,45130:2:0:0:0:
213,192,45130,128,0,45296:2:0:0:0:
320,192,45463,128,0,45630:2:0:0:0:
64,192,45463,128,10,45796:2:0:0:0:
448,192,45463,1,0,3:0:0:0:
192,192,45796,128,0,45963:2:0:0:0:
448,192,46130,128,0,46296:2:0:0:0:
64,192,46130,128,2,46463:2:0:0:0:
192,192,46463,128,0,46630:2:0:0:0:
64,192,46796,128,10,47130:2:0:0:0:
320,192,46796,128,0,46963:3:0:0:0:
448,192,46796,1,0,2:0:0:0:
192,192,47130,128,0,47296:2:0:0:0:
64,192,47463,128,0,47630:2:0:0:0:
448,192,47463,128,2,47796:2:0:0:0:
320,192,47796,128,0,47963:2:0:0:0:
42,192,48130,128,0,48296:2:0:0:0:
192,192,48130,128,10,48463:2:0:0:0:
448,192,48130,1,0,3:0:0:0:
320,192,48463,128,0,48630:2:0:0:0:
64,192,48796,128,0,48963:2:0:0:0:
448,192,48796,128,2,49130:2:0:0:0:
320,192,49130,128,0,49296:2:0:0:0:
469,192,49463,128,10,49796:2:0:0:0:
64,192,49463,128,0,49630:3:0:0:0:
192,192,49463,1,0,2:0:0:0:
192,192,49796,128,0,49963:2:0:0:0:
64,192,50130,128,0,50296:2:0:0:0:
320,192,50130,128,2,50463:2:0:0:0:
192,192,50463,128,0,50630:2:0:0:0:
64,192,50796,128,10,51130:2:0:0:0:
448,192,50796,128,0,50963:3:0:0:0:
320,192,50796,1,0,2:0:0:0:
192,192,51130,128,0,51296:2:0:0:0:
448,192,51463,128,0,51630:2:0:0:0:
64,192,51463,128,2,51796:2:0:0:0:
320,192,51796,128,0,52130:2:0:0:0:
64,192,53796,128,2,54046:2:0:0:0:
192,192,53796,1,0,3:0:0:0:
470,192,53796,1,0,2:0:0:0:
299,192,53796,1,8,1:0:0:0:
192,192,53963,1,0,3:0:0:0:
470,192,53963,1,8,1:0:0:0:
299,192,53963,1,0,2:0:0:0:
192,192,54130,1,0,3:0:0:0:
64,192,54130,128,2,54380:2:0:0:0:
299,192,54130,1,0,2:0:0:0:
470,192,54130,1,8,1:0:0:0:
299,192,54296,1,8,1:0:0:0:
470,192,54296,1,0,3:0:0:0:
192,192,54463,1,8,1:0:0:0:
64,192,54463,128,2,54713:2:0:0:0:
448,192,54463,1,0,2:0:0:0:
192,192,54630,1,0,2:0:0:0:
448,192,54630,1,8,1:0:0:0:
213,192,54796,1,12,1:0:0:0:
320,192,54796,1,14,3:0:0:0:
448,192,54796,128,14,56962:2:0:0:0:
42,192,54796,1,4,3:0:0:0:
320,192,55129,128,0,55351:3:0:0:0:
213,192,55129,128,2,55351:3:0:0:0:
213,192,55462,1,8,1:0:0:0:
320,192,55462,1,0,3:0:0:0:
42,192,55462,1,0,2:0:0:0:
320,192,55796,128,0,56018:3:0:0:0:
213,192,55796,128,2,56018:3:0:0:0:
320,192,56129,1,8,1:0:0:0:
213,192,56129,1,0,2:0:0:0:
42,192,56129,1,0,3:0:0:0:
320,192,56462,128,0,56684:3:0:0:0:
213,192,56462,128,2,56684:3:0:0:0:
320,192,56796,1,0,3:0:0:0:
213,192,56796,1,0,2:0:0:0:
64,192,56796,1,8,1:0:0:0:
64,192,57018,1,0,3:0:0:0:
213,192,57129,1,0,3:0:0:0:
298,192,57129,1,2,3:0:0:0:
469,192,57129,128,2,57296:2:0:0:0:
64,192,57351,1,0,3:0:0:0:
192,192,57462,1,0,3:0:0:0:
448,192,57462,128,2,57629:2:0:0:0:
320,192,57462,1,8,1:0:0:0:
192,192,57796,128,0,58018:3:0:0:0:
42,192,57796,128,2,58018:3:0:0:0:
469,192,57796,128,2,59018:2:0:0:0:
42,192,58129,1,0,3:0:0:0:
192,192,58129,1,0,2:0:0:0:
320,192,58129,1,8,1:0:0:0:
192,192,58462,128,0,58684:3:0:0:0:
42,192,58462,128,2,58684:3:0:0:0:
192,192,58796,1,0,2:0:0:0:
42,192,58796,1,0,3:0:0:0:
320,192,58796,1,8,1:0:0:0:
192,192,59129,128,0,59351:3:0:0:0:
42,192,59129,128,2,59351:3:0:0:0:
469,192,59129,128,2,59296:2:0:0:0:
42,192,59462,1,0,2:0:0:0:
192,192,59462,1,0,3:0:0:0:
469,192,59462,128,2,59629:2:0:0:0:
320,192,59462,1,8,1:0:0:0:
320,192,59684,1,0,3:0:0:0:
42,192,59796,1,0,3:0:0:0:
192,192,59796,1,2,2:0:0:0:
448,192,59796,1,2,3:0:0:0:
469,192,59962,128,2,61462:2:0:0:0:
320,192,60018,1,0,3:0:0:0:
64,192,60129,1,0,3:0:0:0:
192,192,60129,1,8,1:0:0:0:
64,192,60462,128,2,60684:3:0:0:0:
298,192,60462,128,0,60684:3:0:0:0:
298,192,60796,1,0,3:0:0:0:
64,192,60796,1,0,2:0:0:0:
192,192,60796,1,8,1:0:0:0:
298,192,61129,128,0,61351:3:0:0:0:
64,192,61129,128,2,61351:3:0:0:0:
298,192,61462,1,0,3:0:0:0:
64,192,61462,1,0,2:0:0:0:
192,192,61462,1,8,1:0:0:0:
469,192,61796,128,0,61962:3:0:0:0:
64,192,61796,128,2,62018:3:0:0:0:
320,192,61796,128,2,62018:2:0:0:0:
298,192,62129,1,0,3:0:0:0:
213,192,62129,1,0,2:0:0:0:
469,192,62129,128,2,62296:2:0:0:0:
64,192,62129,1,8,1:0:0:0:
320,192,62351,1,0,3:0:0:0:
213,192,62462,1,0,3:0:0:0:
64,192,62462,1,2,2:0:0:0:
469,192,62462,1,2,3:0:0:0:
448,192,62629,128,2,63629:2:0:0:0:
64,192,62684,1,0,3:0:0:0:
192,192,62796,1,0,3:0:0:0:
320,192,62796,1,8,1:0:0:0:
192,192,63129,128,0,63351:3:0:0:0:
42,192,63129,128,2,63351:3:0:0:0:
42,192,63462,1,0,3:0:0:0:
192,192,63462,1,0,2:0:0:0:
320,192,63462,1,8,1:0:0:0:
192,192,63796,128,0,64018:3:0:0:0:
42,192,63796,128,2,64018:3:0:0:0:
469,192,63796,128,2,64129:2:0:0:0:
192,192,64129,1,0,3:0:0:0:
42,192,64129,1,0,2:0:0:0:
320,192,64129,1,8,1:0:0:0:
42,192,64462,128,2,64684:3:0:0:0:
469,192,64462,128,0,64629:3:0:0:0:
192,192,64462,128,2,64684:2:0:0:0:
42,192,64796,1,0,3:0:0:0:
192,192,64796,1,0,2:0:0:0:
448,192,64796,128,2,64962:2:0:0:0:
320,192,64796,1,8,1:0:0:0:
192,192,65018,1,0,3:0:0:0:
320,192,65129,1,2,3:0:0:0:
42,192,65129,1,0,3:0:0:0:
448,192,65129,128,2,65296:2:0:0:0:
192,192,65351,1,0,3:0:0:0:
320,192,65462,1,0,3:0:0:0:
42,192,65462,128,2,66962:2:0:0:0:
469,192,65462,1,8,1:0:0:0:
298,192,65796,128,0,66018:3:0:0:0:
213,192,65796,128,2,66018:3:0:0:0:
213,192,66129,1,0,3:0:0:0:
298,192,66129,1,0,2:0:0:0:
448,192,66129,1,8,1:0:0:0:
213,192,66462,128,0,66684:3:0:0:0:
298,192,66462,128,2,66684:3:0:0:0:
213,192,66796,1,0,2:0:0:0:
298,192,66796,1,0,3:0:0:0:
448,192,66796,1,8,1:0:0:0:
192,192,67129,128,0,67351:3:0:0:0:
298,192,67129,128,2,67351:3:0:0:0:
64,192,67129,128,2,67296:2:0:0:0:
320,192,67462,1,0,3:0:0:0:
64,192,67462,128,2,67629:2:0:0:0:
192,192,67462,1,0,2:0:0:0:
448,192,67462,1,8,1:0:0:0:
448,192,67684,1,0,3:0:0:0:
192,192,67796,1,0,3:0:0:0:
298,192,67796,1,2,3:0:0:0:
64,192,67796,1,2,2:0:0:0:
42,192,67962,128,2,70296:2:0:0:0:
448,192,68018,1,0,3:0:0:0:
213,192,68129,1,0,3:0:0:0:
298,192,68129,1,8,1:0:0:0:
469,192,68462,128,2,68684:3:0:0:0:
213,192,68462,128,0,68684:3:0:0:0:
213,192,68796,1,0,2:0:0:0:
469,192,68796,1,0,3:0:0:0:
298,192,68796,1,8,1:0:0:0:
213,192,69129,128,0,69351:3:0:0:0:
469,192,69129,128,2,69351:3:0:0:0:
213,192,69462,1,0,3:0:0:0:
469,192,69462,1,0,2:0:0:0:
298,192,69462,1,8,1:0:0:0:
213,192,69796,128,0,70018:3:0:0:0:
469,192,69796,128,2,70018:3:0:0:0:
213,192,70129,1,0,3:0:0:0:
469,192,70129,1,0,2:0:0:0:
298,192,70129,1,8,1:0:0:0:
213,192,70351,1,0,3:0:0:0:
320,192,70462,1,0,3:0:0:0:
469,192,70462,1,2,3:0:0:0:
42,192,70462,128,2,70629:2:0:0:0:
213,192,70684,1,0,3:0:0:0:
448,192,70796,1,0,3:0:0:0:
42,192,70796,128,2,70962:2:0:0:0:
320,192,70796,1,8,1:0:0:0:
298,192,71129,128,2,71351:3:0:0:0:
42,192,71129,128,2,71296:2:0:0:0:
448,192,71129,128,0,71351:3:0:0:0:
298,192,71462,1,0,3:0:0:0:
448,192,71462,1,0,2:0:0:0:
42,192,71462,128,2,71629:2:0:0:0:
192,192,71462,1,8,1:0:0:0:
298,192,71796,128,2,72018:3:0:0:0:
448,192,71796,128,0,72018:3:0:0:0:
42,192,71796,128,2,71962:2:0:0:0:
448,192,72129,1,0,3:0:0:0:
298,192,72129,1,0,2:0:0:0:
42,192,72129,128,2,72296:2:0:0:0:
192,192,72129,1,8,1:0:0:0:
298,192,72462,128,2,72684:3:0:0:0:
448,192,72462,128,0,72684:3:0:0:0:
42,192,72462,128,2,72629:2:0:0:0:
298,192,72796,1,0,3:0:0:0:
448,192,72796,1,0,2:0:0:0:
42,192,72796,128,2,72962:2:0:0:0:
192,192,72796,1,8,1:0:0:0:
448,192,73018,1,0,3:0:0:0:
192,192,73129,1,0,3:0:0:0:
298,192,73129,1,2,3:0:0:0:
42,192,73129,128,2,73212:2:0:0:0:
42,192,73296,128,2,74296:2:0:0:0:
192,192,73351,1,0,3:0:0:0:
320,192,73462,1,0,3:0:0:0:
448,192,73462,1,8,1:0:0:0:
213,192,73796,128,0,74018:3:0:0:0:
320,192,73796,128,2,74018:3:0:0:0:
320,192,74129,1,0,3:0:0:0:
213,192,74129,1,0,2:0:0:0:
448,192,74129,1,8,1:0:0:0:
213,192,74462,128,0,74684:3:0:0:0:
320,192,74462,128,2,74684:3:0:0:0:
42,192,74462,128,2,74629:2:0:0:0:
213,192,74796,1,0,3:0:0:0:
320,192,74796,1,0,2:0:0:0:
42,192,74796,128,2,75296:2:0:0:0:
448,192,74796,1,8,1:0:0:0:
320,192,75129,128,2,75351:3:0:0:0:
213,192,75129,128,0,75351:3:0:0:0:
320,192,75462,1,0,3:0:0:0:
213,192,75462,1,0,2:0:0:0:
42,192,75462,128,2,75962:2:0:0:0:
448,192,75462,1,8,1:0:0:0:
320,192,75684,1,0,3:0:0:0:
213,192,75796,1,0,3:0:0:0:
448,192,75796,1,2,3:0:0:0:
320,192,76018,1,0,3:0:0:0:
448,192,76129,128,14,76351:3:0:0:0:
64,192,76129,128,12,76351:1:0:0:0:
192,192,76129,1,14,2:0:0:0:
469,192,76462,128,2,76684:3:0:0:0:
320,192,76462,128,0,76684:3:0:0:0:
64,192,76462,128,0,76684:2:0:0:0:
42,192,76796,128,0,77018:2:0:0:0:
469,192,76796,128,0,77018:2:0:0:0:
298,192,76796,1,8,1:0:0:0:
213,192,76796,1,0,3:0:0:0:
192,192,77129,128,0,77351:2:0:0:0:
448,192,77129,128,2,77351:3:0:0:0:
42,192,77129,128,0,77351:3:0:0:0:
469,192,77462,128,0,77684:2:0:0:0:
213,192,77462,1,8,1:0:0:0:
42,192,77462,128,0,77684:2:0:0:0:
298,192,77462,1,0,3:0:0:0:
448,192,77796,128,2,78018:3:0:0:0:
42,192,77796,128,0,78018:2:0:0:0:
320,192,77796,128,0,78018:3:0:0:0:
42,192,78129,128,0,78351:2:0:0:0:
469,192,78129,128,0,78351:2:0:0:0:
213,192,78129,1,8,1:0:0:0:
298,192,78129,1,0,3:0:0:0:
213,192,78351,1,0,3:0:0:0:
42,192,78462,128,0,78684:2:0:0:0:
448,192,78462,128,2,78684:3:0:0:0:
320,192,78462,1,0,3:0:0:0:
213,192,78684,1,0,3:0:0:0:
320,192,78796,1,8,1:0:0:0:
469,192,78796,128,0,79018:2:0:0:0:
42,192,78796,128,0,79018:2:0:0:0:
448,192,79129,128,2,79351:3:0:0:0:
213,192,79129,128,0,79351:3:0:0:0:
42,192,79129,128,0,79351:2:0:0:0:
42,192,79462,128,0,79684:2:0:0:0:
469,192,79462,128,0,79684:2:0:0:0:
298,192,79462,1,8,1:0:0:0:
213,192,79462,1,0,3:0:0:0:
42,192,79796,128,0,80018:2:0:0:0:
298,192,79796,128,0,80018:3:0:0:0:
448,192,79796,128,2,80018:3:0:0:0:
213,192,79796,1,2,2:0:0:0:
469,192,80129,128,0,80351:2:0:0:0:
320,192,80129,128,2,80684:2:0:0:0:
42,192,80129,128,0,80351:3:0:0:0:
213,192,80129,1,8,1:0:0:0:
42,192,80462,128,0,80684:2:0:0:0:
213,192,80462,128,0,80684:3:0:0:0:
448,192,80462,128,2,80684:3:0:0:0:
469,192,80796,128,0,81018:3:0:0:0:
298,192,80796,1,8,1:0:0:0:
42,192,80796,128,0,81018:2:0:0:0:
213,192,80796,1,2,2:0:0:0:
298,192,81018,1,0,3:0:0:0:
42,192,81129,128,0,81351:2:0:0:0:
192,192,81129,1,0,3:0:0:0:
448,192,81129,128,2,81351:3:0:0:0:
298,192,81351,1,0,3:0:0:0:
469,192,81462,128,0,81684:2:0:0:0:
213,192,81462,1,8,1:0:0:0:
42,192,81462,128,0,81684:2:0:0:0:
42,192,81796,128,0,82018:2:0:0:0:
448,192,81796,128,2,82018:3:0:0:0:
213,192,81796,128,0,82018:3:0:0:0:
469,192,82129,128,0,82351:2:0:0:0:
213,192,82129,1,8,1:0:0:0:
42,192,82129,128,0,82351:2:0:0:0:
298,192,82129,1,0,3:0:0:0:
42,192,82462,128,0,82684:2:0:0:0:
320,192,82462,128,0,82684:3:0:0:0:
448,192,82462,128,2,82684:3:0:0:0:
213,192,82796,1,8,1:0:0:0:
42,192,82796,128,0,83018:2:0:0:0:
469,192,82796,128,0,83018:2:0:0:0:
298,192,82796,1,0,3:0:0:0:
42,192,83129,128,0,83351:2:0:0:0:
213,192,83129,128,0,83351:3:0:0:0:
448,192,83129,128,2,83351:3:0:0:0:
298,192,83462,1,8,1:0:0:0:
42,192,83462,128,0,83684:2:0:0:0:
469,192,83462,128,0,83684:2:0:0:0:
213,192,83462,1,0,3:0:0:0:
298,192,83684,1,0,3:0:0:0:
448,192,83796,128,2,84018:3:0:0:0:
192,192,83796,128,2,84018:2:0:0:0:
64,192,83796,128,0,84018:3:0:0:0:
320,192,84018,1,0,3:0:0:0:
42,192,84129,128,0,84351:3:0:0:0:
213,192,84129,128,2,85129:2:0:0:0:
448,192,84129,128,8,84351:1:0:0:0:
42,192,84462,128,0,84684:2:0:0:0:
448,192,84462,128,2,84684:3:0:0:0:
298,192,84462,128,0,84684:3:0:0:0:
298,192,84796,1,8,1:0:0:0:
42,192,84796,128,0,85018:2:0:0:0:
469,192,84796,128,0,85018:3:0:0:0:
448,192,85129,128,2,85351:3:0:0:0:
42,192,85129,128,0,85351:3:0:0:0:
320,192,85129,128,2,85351:2:0:0:0:
213,192,85462,1,8,1:0:0:0:
42,192,85462,128,0,85684:2:0:0:0:
469,192,85462,128,0,85684:3:0:0:0:
320,192,85462,128,2,86018:2:0:0:0:
42,192,85796,128,0,86018:2:0:0:0:
448,192,85796,128,2,86018:3:0:0:0:
213,192,85796,128,0,86018:3:0:0:0:
298,192,86129,1,8,1:0:0:0:
42,192,86129,128,0,86351:2:0:0:0:
469,192,86129,128,0,86351:3:0:0:0:
213,192,86129,1,2,2:0:0:0:
298,192,86351,1,0,3:0:0:0:
192,192,86462,1,0,3:0:0:0:
42,192,86462,128,0,86684:2:0:0:0:
448,192,86462,128,2,86684:3:0:0:0:
192,192,86684,1,0,3:0:0:0:
298,192,86796,1,8,1:0:0:0:
42,192,86796,128,0,87018:2:0:0:0:
469,192,86796,128,0,87018:2:0:0:0:
42,192,87129,128,0,87351:2:0:0:0:
448,192,87129,128,2,87351:3:0:0:0:
213,192,87129,128,0,87351:3:0:0:0:
213,192,87462,1,8,1:0:0:0:
42,192,87462,128,0,87684:2:0:0:0:
469,192,87462,128,0,87684:2:0:0:0:
298,192,87462,1,0,3:0:0:0:
42,192,87796,128,0,88018:2:0:0:0:
448,192,87796,128,2,88018:3:0:0:0:
320,192,87796,128,0,88018:3:0:0:0:
298,192,88129,1,8,1:0:0:0:
42,192,88129,128,0,88351:2:0:0:0:
469,192,88129,128,0,88351:2:0:0:0:
213,192,88129,1,0,3:0:0:0:
42,192,88462,128,0,88684:2:0:0:0:
213,192,88462,128,0,88684:3:0:0:0:
448,192,88462,128,2,88684:3:0:0:0:
298,192,88796,1,8,1:0:0:0:
42,192,88796,128,0,89018:2:0:0:0:
469,192,88796,128,0,89018:2:0:0:0:
213,192,88796,1,0,3:0:0:0:
192,192,89018,1,0,3:0:0:0:
42,192,89129,128,0,89351:2:0:0:0:
469,192,89129,128,2,89351:3:0:0:0:
320,192,89129,1,0,3:0:0:0:
320,192,89351,1,0,3:0:0:0:
192,192,89462,1,8,1:0:0:0:
42,192,89462,128,0,89684:2:0:0:0:
469,192,89462,128,0,89684:2:0:0:0:
42,192,89796,128,0,90018:2:0:0:0:
448,192,89796,128,2,90018:3:0:0:0:
320,192,89796,128,0,90018:3:0:0:0:
213,192,90129,1,8,1:0:0:0:
42,192,90129,128,0,90351:2:0:0:0:
469,192,90129,128,0,90351:2:0:0:0:
298,192,90129,1,0,3:0:0:0:
64,192,90462,128,0,90684:3:0:0:0:
448,192,90462,128,2,90684:3:0:0:0:
192,192,90462,128,2,90684:2:0:0:0:
469,192,90796,128,0,91018:2:0:0:0:
42,192,90796,128,0,91018:3:0:0:0:
298,192,90796,1,8,1:0:0:0:
213,192,90796,128,2,91351:2:0:0:0:
42,192,91129,128,0,91351:2:0:0:0:
298,192,91129,128,0,91351:3:0:0:0:
448,192,91129,128,2,91351:3:0:0:0:
213,192,91462,1,8,1:0:0:0:
469,192,91462,128,0,91684:2:0:0:0:
42,192,91462,128,0,91684:3:0:0:0:
320,192,91462,1,2,2:0:0:0:
320,192,91684,1,0,3:0:0:0:
213,192,91796,1,0,3:0:0:0:
42,192,91796,128,0,92018:2:0:0:0:
448,192,91796,128,2,92018:3:0:0:0:
320,192,92018,1,0,3:0:0:0:
213,192,92129,1,8,1:0:0:0:
469,192,92129,128,0,92351:2:0:0:0:
42,192,92129,128,0,92351:3:0:0:0:
42,192,92462,128,0,92684:2:0:0:0:
448,192,92462,128,2,92684:3:0:0:0:
213,192,92462,128,0,92684:3:0:0:0:
213,192,92796,1,8,1:0:0:0:
469,192,92796,128,0,93018:2:0:0:0:
42,192,92796,128,0,93018:3:0:0:0:
320,192,92796,1,0,2:0:0:0:
42,192,93129,128,0,93351:2:0:0:0:
320,192,93129,128,0,93351:3:0:0:0:
448,192,93129,128,2,93351:3:0:0:0:
213,192,93462,1,8,1:0:0:0:
469,192,93462,128,0,93684:2:0:0:0:
42,192,93462,128,0,93684:3:0:0:0:
320,192,93462,1,0,2:0:0:0:
64,192,93796,128,0,94018:3:0:0:0:
448,192,93796,128,2,94018:3:0:0:0:
192,192,93796,128,2,94018:2:0:0:0:
298,192,93796,128,0,94018:2:0:0:0:
213,192,94129,1,8,1:0:0:0:
469,192,94129,128,0,94351:2:0:0:0:
42,192,94129,128,0,94351:3:0:0:0:
320,192,94129,1,2,2:0:0:0:
192,192,94351,1,2,2:0:0:0:
320,192,94462,1,2,2:0:0:0:
448,192,94462,128,2,94684:3:0:0:0:
42,192,94462,128,0,94684:2:0:0:0:
320,192,94684,1,2,2:0:0:0:
42,192,94796,128,0,95018:3:0:0:0:
213,192,94796,128,2,95796:2:0:0:0:
448,192,94796,128,8,95018:1:0:0:0:
448,192,95129,128,2,95351:3:0:0:0:
42,192,95129,128,0,95351:3:0:0:0:
298,192,95129,128,0,95351:2:0:0:0:
298,192,95462,1,8,1:0:0:0:
469,192,95462,128,0,95684:2:0:0:0:
42,192,95462,128,0,95684:3:0:0:0:
448,192,95796,128,2,96018:3:0:0:0:
42,192,95796,128,0,96018:3:0:0:0:
320,192,95796,128,2,96018:2:0:0:0:
469,192,96129,128,0,96351:2:0:0:0:
42,192,96129,128,0,96351:3:0:0:0:
298,192,96129,1,8,1:0:0:0:
213,192,96129,128,2,96684:2:0:0:0:
298,192,96462,128,0,96684:2:0:0:0:
448,192,96462,128,2,96684:3:0:0:0:
42,192,96462,128,0,96684:3:0:0:0:
213,192,96796,1,8,1:0:0:0:
469,192,96796,128,0,97018:2:0:0:0:
42,192,96796,128,0,97018:3:0:0:0:
320,192,96796,1,2,2:0:0:0:
213,192,97018,1,0,3:0:0:0:
42,192,97129,128,0,97351:2:0:0:0:
320,192,97129,1,0,3:0:0:0:
448,192,97129,128,2,97351:3:0:0:0:
213,192,97351,1,0,3:0:0:0:
448,192,97462,128,14,97796:3:0:0:0:
64,192,97462,1,2,2:0:0:0:
298,192,97462,128,14,97796:2:0:0:0:
42,192,97796,128,2,98129:2:0:0:0:
192,192,97796,128,0,97962:1:0:0:65:
192,192,98129,128,0,98296:1:0:0:65:
469,192,98129,128,2,98462:2:0:0:0:
298,192,98129,128,0,98296:2:0:0:0:
298,192,98462,128,2,98796:2:0:0:0:
64,192,98462,128,0,98629:1:0:0:65:
213,192,98796,128,2,99129:2:0:0:0:
469,192,98796,128,0,98962:1:0:0:65:
42,192,98796,128,0,98962:2:0:0:0:
469,192,99129,128,2,99462:2:0:0:0:
298,192,99129,128,0,99296:1:0:0:65:
42,192,99462,128,2,99796:2:0:0:0:
192,192,99462,128,0,99629:1:0:0:65:
298,192,99462,128,0,99629:2:0:0:0:
298,192,99796,128,2,100129:2:0:0:0:
469,192,99796,128,0,99962:1:0:0:65:
469,192,100129,128,2,100796:2:0:0:0:
213,192,100129,128,0,100296:1:0:0:65:
42,192,100129,1,8,1:0:0:0:
64,192,100462,128,0,100629:1:0:0:65:
42,192,100796,128,0,100962:1:0:0:65:
213,192,100796,128,0,100962:2:0:0:0:
298,192,100796,128,2,101129:2:0:0:0:
448,192,101129,128,0,101296:1:0:0:65:
42,192,101129,128,2,101462:2:0:0:0:
213,192,101462,128,0,101629:1:0:0:65:
298,192,101462,128,0,101629:2:0:0:0:
469,192,101462,128,2,101796:2:0:0:0:
64,192,101796,128,0,101962:1:0:0:65:
320,192,101796,128,2,102796:2:0:0:0:
192,192,102129,128,0,102296:1:0:0:65:
64,192,102129,128,0,102296:2:0:0:0:
448,192,102462,128,0,102629:1:0:0:65:
448,192,102796,128,0,102962:1:0:0:65:
64,192,102796,128,0,102962:2:0:0:0:
192,192,103129,128,0,103296:1:0:0:65:
64,192,103462,128,0,103629:1:0:0:65:
298,192,103462,128,0,103629:2:0:0:0:
469,192,103796,128,0,103962:1:0:0:65:
320,192,104129,128,0,104296:1:0:0:65:
192,192,104129,128,0,104296:2:0:0:0:
448,192,104462,128,0,104629:1:0:0:65:
64,192,104462,128,2,104796:2:0:0:0:
320,192,104796,128,0,104962:1:0:0:65:
448,192,104796,128,0,104962:2:0:0:0:
192,192,104796,128,2,105129:2:0:0:0:
64,192,105129,128,0,105296:1:0:0:65:
448,192,105129,128,2,105462:2:0:0:0:
64,192,105462,128,0,105629:1:0:0:65:
298,192,105462,128,0,105629:2:0:0:0:
192,192,105462,128,2,105962:2:0:0:0:
448,192,105796,128,0,105962:1:0:0:65:
42,192,106129,128,0,106296:1:0:0:65:
320,192,106129,128,0,106296:2:0:0:0:
213,192,106462,128,0,106629:1:0:0:65:
320,192,106462,128,2,106796:2:0:0:0:
192,192,106796,128,0,106962:1:0:0:65:
42,192,106796,128,0,106962:2:0:0:0:
469,192,106796,128,2,107129:2:0:0:0:
320,192,107129,128,0,107296:1:0:0:65:
64,192,107129,128,2,107462:2:0:0:0:
298,192,107462,128,0,107629:1:0:0:65:
469,192,107462,128,0,107629:2:0:0:0:
192,192,107462,128,2,107962:2:0:0:0:
448,192,107796,128,0,107962:1:0:0:65:
320,192,108129,128,0,108296:1:0:0:65:
42,192,108129,128,0,108296:2:0:0:0:
192,192,108462,128,0,108629:1:0:0:65:
320,192,108462,128,2,108796:2:0:0:0:
448,192,108796,128,0,108962:1:0:0:65:
42,192,108796,128,0,108962:2:0:0:0:
192,192,108796,128,2,109129:2:0:0:0:
448,192,109129,128,0,109296:1:0:0:65:
42,192,109129,128,2,109462:2:0:0:0:
320,192,109462,128,0,109629:1:0:0:65:
213,192,109462,128,0,109629:2:0:0:0:
448,192,109462,128,2,109796:2:0:0:0:
64,192,109796,128,0,109962:1:0:0:65:
213,192,109796,128,2,110129:2:0:0:0:
448,192,110129,128,0,110296:1:0:0:65:
42,192,110129,128,0,110296:2:0:0:0:
320,192,110129,128,2,110462:2:0:0:0:
192,192,110462,128,0,110629:1:0:0:65:
42,192,110462,128,2,110796:2:0:0:0:
192,192,110796,128,0,110962:1:0:0:65:
320,192,110796,128,0,110962:2:0:0:0:
448,192,110796,128,2,111462:2:0:0:0:
192,192,111129,128,0,111296:1:0:0:65:
64,192,111462,128,0,111629:1:0:0:65:
320,192,111462,128,0,111629:2:0:0:0:
192,192,111796,128,0,111962:1:0:0:65:
469,192,111796,128,2,112129:2:0:0:0:
192,192,112129,128,0,112296:1:0:0:65:
42,192,112129,128,0,112296:2:0:0:0:
298,192,112129,128,2,112462:2:0:0:0:
448,192,112462,128,0,112629:1:0:0:65:
42,192,112462,128,2,112796:2:0:0:0:
192,192,112796,128,0,112962:1:0:0:65:
298,192,112796,128,0,112962:2:0:0:0:
469,192,112796,128,2,114462:2:0:0:0:
42,192,113129,128,0,113296:1:0:0:65:
42,192,113462,128,0,113629:1:0:0:65:
298,192,113462,128,0,113629:2:0:0:0:
213,192,113796,128,0,113962:1:0:0:65:
192,192,114129,128,0,114296:1:0:0:65:
42,192,114129,128,0,114296:2:0:0:0:
298,192,114462,128,0,114629:1:0:0:65:
213,192,114796,128,0,114962:1:0:0:65:
42,192,114796,128,0,114962:2:0:0:0:
42,192,115129,128,0,115296:1:0:0:65:
448,192,115129,128,2,115462:2:0:0:0:
192,192,115462,128,0,115629:1:0:0:65:
320,192,115462,128,0,115629:2:0:0:0:
42,192,115462,128,2,115796:2:0:0:0:
469,192,115796,128,0,115962:1:0:0:65:
213,192,115796,128,2,117462:2:0:0:0:
320,192,116129,128,0,116296:1:0:0:65:
448,192,116129,128,0,116296:2:0:0:0:
320,192,116462,128,0,116629:1:0:0:65:
64,192,116796,128,0,116962:1:0:0:65:
448,192,116796,128,0,116962:2:0:0:0:
320,192,117129,128,0,117296:1:0:0:65:
64,192,117462,128,0,117629:2:0:0:0:
448,192,117462,128,0,117629:1:0:0:65:
320,192,117684,1,2,2:0:0:0:
64,192,117796,128,0,117962:1:0:0:65:
192,192,117796,128,2,118129:2:0:0:0:
42,192,118129,128,0,118296:2:0:0:0:
320,192,118129,128,0,118296:1:0:0:65:
469,192,118129,128,2,118462:2:0:0:0:
192,192,118462,128,0,118629:1:0:0:65:
298,192,118462,128,2,118629:2:0:0:0:
213,192,118796,1,8,1:0:0:0:
42,192,118796,128,0,118962:1:0:0:65:
298,192,118796,1,14,2:0:0:0:
469,192,118796,128,2,119296:2:0:0:0:
192,192,119129,128,0,119296:1:0:0:65:
298,192,119462,128,0,119629:1:0:0:65:
42,192,119462,128,0,119629:2:0:0:0:
213,192,119796,128,0,119962:1:0:0:65:
213,192,120129,1,0,2:0:0:0:
298,192,120129,1,0,0:0:0:100:snare.wav
42,192,120129,128,0,120296:2:0:0:0:
469,192,120129,128,0,120296:1:0:0:65:
298,192,120462,128,0,120629:1:0:0:65:
213,192,120796,128,0,120962:1:0:0:65:
42,192,120796,128,0,120962:2:0:0:0:
320,192,121129,128,0,121296:1:0:0:65:
448,192,121462,128,0,121629:2:0:0:0:
192,192,121462,128,0,121629:1:0:0:65:
320,192,121796,128,0,121962:1:0:0:65:
448,192,122129,128,0,122296:1:0:0:65:
42,192,122129,128,0,122296:2:0:0:0:
192,192,122462,128,0,122629:1:0:0:65:
214,192,122796,1,0,0:0:0:100:snare.wav
470,192,122796,128,0,122962:2:0:0:0:
320,192,122796,128,0,122962:1:0:0:65:
43,192,122796,1,0,2:0:0:0:
43,192,123018,1,2,2:0:0:0:
320,192,123129,128,0,123296:1:0:0:65:
214,192,123129,128,2,123462:2:0:0:0:
298,192,123462,128,0,123629:1:0:0:65:
42,192,123462,128,0,123629:2:0:0:0:
469,192,123462,128,2,123796:2:0:0:0:
42,192,123796,128,0,123962:1:0:0:65:
192,192,123796,128,2,123962:2:0:0:0:
298,192,124129,1,8,1:0:0:0:
448,192,124129,128,0,124296:1:0:0:65:
192,192,124129,1,0,2:0:0:0:
42,192,124129,128,2,124629:2:0:0:0:
298,192,124462,128,0,124629:1:0:0:65:
469,192,124796,128,0,124962:1:0:0:65:
213,192,124796,128,0,124962:2:0:0:0:
42,192,125129,128,0,125296:1:0:0:65:
42,192,125462,1,0,0:0:0:100:snare.wav
320,192,125462,128,0,125629:2:0:0:0:
213,192,125462,128,0,125629:1:0:0:65:
448,192,125462,1,0,2:0:0:0:
448,192,125796,128,0,125962:1:0:0:65:
192,192,126129,128,0,126296:1:0:0:65:
42,192,126129,128,0,126296:2:0:0:0:
298,192,126462,128,0,126629:1:0:0:65:
42,192,126796,128,0,126962:2:0:0:0:
469,192,126796,128,0,126962:1:0:0:65:
213,192,127129,128,0,127296:1:0:0:65:
448,192,127462,128,0,127629:1:0:0:65:
42,192,127462,128,0,127629:2:0:0:0:
320,192,127796,128,0,127962:1:0:0:65:
64,192,128129,1,0,0:0:0:100:snare.wav
448,192,128129,128,0,128296:2:0:0:0:
192,192,128129,128,0,128296:1:0:0:65:
320,192,128129,1,0,2:0:0:0:
64,192,128462,128,0,128629:1:0:0:65:
469,192,128462,128,2,128796:2:0:0:0:
298,192,128796,128,0,128962:2:0:0:0:
192,192,128796,128,0,128962:1:0:0:65:
42,192,128796,128,2,129296:2:0:0:0:
469,192,129129,128,0,129296:1:0:0:65:
298,192,129296,128,2,129796:2:0:0:0:
469,192,129462,1,2,3:0:0:0:
64,192,129462,128,8,129629:1:0:0:0:
192,192,129462,1,0,1:0:0:65:
192,192,129796,1,8,1:0:0:0:
64,192,129796,128,0,129962:1:0:0:65:
469,192,129796,128,2,130129:2:0:0:0:
213,192,130129,128,0,130296:1:0:0:65:
42,192,130129,128,0,130296:2:0:0:0:
298,192,130129,128,2,130629:2:0:0:0:
448,192,130462,128,0,130629:1:0:0:65:
64,192,130629,128,2,131129:2:0:0:0:
192,192,130796,1,0,0:0:0:100:snare.wav
448,192,130796,128,0,130962:1:0:0:65:
320,192,130796,1,0,2:0:0:0:
192,192,131129,128,0,131296:1:0:0:65:
298,192,131129,128,2,131462:2:0:0:0:
42,192,131462,128,0,131629:2:0:0:0:
213,192,131462,128,0,131629:1:0:0:65:
469,192,131462,128,2,131962:2:0:0:0:
64,192,131796,128,0,131962:1:0:0:65:
192,192,131962,128,2,132462:2:0:0:0:
64,192,132129,1,2,3:0:0:0:
448,192,132129,128,8,132296:1:0:0:0:
320,192,132129,1,0,1:0:0:65:
448,192,132462,1,8,1:0:0:0:
320,192,132462,128,0,132629:1:0:0:65:
42,192,132462,128,2,133129:2:0:0:0:
448,192,132796,128,0,132962:2:0:0:0:
192,192,132796,128,0,132962:1:0:0:65:
320,192,133129,128,0,133296:1:0:0:65:
192,192,133462,1,0,0:0:0:100:snare.wav
469,192,133462,1,0,2:0:0:0:
298,192,133462,128,0,133629:2:0:0:0:
64,192,133462,128,0,133629:1:0:0:65:
469,192,133796,128,0,133962:1:0:0:65:
213,192,133796,128,2,134129:2:0:0:0:
42,192,134129,128,0,134296:2:0:0:0:
469,192,134129,128,0,134296:1:0:0:65:
298,192,134129,128,2,134629:2:0:0:0:
213,192,134462,128,0,134629:1:0:0:65:
469,192,134629,128,2,135962:2:0:0:0:
213,192,134796,1,2,3:0:0:0:
42,192,134796,128,8,134962:1:0:0:0:
298,192,134796,1,0,1:0:0:65:
42,192,135129,1,8,1:0:0:0:
298,192,135129,1,0,2:0:0:0:
213,192,135129,128,0,135296:1:0:0:65:
42,192,135462,128,0,135629:2:0:0:0:
298,192,135462,128,0,135629:1:0:0:65:
213,192,135796,128,0,135962:1:0:0:65:
213,192,136129,1,0,0:0:0:100:snare.wav
298,192,136129,1,0,2:0:0:0:
42,192,136129,128,0,136296:2:0:0:0:
469,192,136129,128,0,136296:1:0:0:65:
298,192,136462,128,0,136629:1:0:0:65:
213,192,136462,128,2,136796:2:0:0:0:
42,192,136796,128,0,136962:2:0:0:0:
298,192,136796,128,0,136962:1:0:0:65:
469,192,136796,128,2,137296:2:0:0:0:
213,192,137129,128,0,137296:1:0:0:65:
42,192,137296,128,2,137629:2:0:0:0:
298,192,137462,1,2,3:0:0:0:
469,192,137462,128,8,137629:1:0:0:0:
192,192,137462,1,0,1:0:0:65:
298,192,137629,128,2,138629:2:0:0:0:
469,192,137796,1,8,1:0:0:0:
42,192,137796,1,0,2:0:0:0:
192,192,137796,128,0,137962:1:0:0:65:
42,192,138129,128,0,138296:2:0:0:0:
469,192,138129,128,0,138296:1:0:0:65:
213,192,138462,128,0,138629:1:0:0:65:
42,192,138796,1,0,0:0:0:100:snare.wav
298,192,138796,1,0,2:0:0:0:
213,192,138796,128,0,138962:1:0:0:65:
469,192,138796,128,0,138962:2:0:0:0:
298,192,139129,128,0,139296:1:0:0:65:
42,192,139462,128,0,139629:2:0:0:0:
213,192,139462,128,0,139629:1:0:0:65:
298,192,139796,128,0,139962:1:0:0:65:
469,192,140129,128,2,140296:2:0:0:0:
42,192,140129,1,14,2:0:0:0:
213,192,140129,1,8,1:0:0:0:
298,192,140129,1,0,0:0:0:100:snare.wav
192,192,140462,1,0,2:0:0:0:
64,192,140462,1,8,1:0:0:0:
448,192,140462,128,2,140629:2:0:0:0:
320,192,140629,128,2,140796:2:0:0:0:
448,192,140796,1,0,0:0:0:100:snare.wav
64,192,140796,1,0,3:0:0:0:
192,192,140796,128,2,141129:2:0:0:0:
320,192,141129,128,2,141296:2:0:0:0:
42,192,141296,128,2,141462:2:0:0:0:
320,192,141462,1,8,1:0:0:0:
469,192,141462,1,0,0:0:0:100:snare.wav
192,192,141462,128,2,141629:2:0:0:0:
192,192,141796,1,8,1:0:0:0:
469,192,141796,128,2,141962:2:0:0:0:
42,192,141796,1,0,2:0:0:0:
298,192,141962,128,2,142129:2:0:0:0:
448,192,142129,1,0,0:0:0:100:snare.wav
213,192,142129,1,0,3:0:0:0:
64,192,142129,128,2,142296:2:0:0:0:
298,192,142296,128,2,142629:2:0:0:0:
213,192,142462,1,0,0:0:0:100:snare.wav
42,192,142462,1,0,2:0:0:0:
213,192,142796,1,8,1:0:0:0:
469,192,142796,1,0,0:0:0:100:snare.wav
42,192,142796,128,2,142962:2:0:0:0:
298,192,142796,1,0,3:0:0:0:
64,192,143129,1,8,1:0:0:0:
320,192,143129,128,2,143296:2:0:0:0:
469,192,143129,1,0,2:0:0:0:
192,192,143296,128,2,143462:2:0:0:0:
298,192,143462,1,0,0:0:0:100:snare.wav
64,192,143462,1,0,3:0:0:0:
469,192,143462,128,2,143796:2:0:0:0:
64,192,143796,128,2,143962:2:0:0:0:
213,192,143962,128,2,144129:2:0:0:0:
64,192,144129,1,8,1:0:0:0:
469,192,144129,1,0,0:0:0:100:snare.wav
320,192,144129,128,2,144462:2:0:0:0:
192,192,144462,1,8,1:0:0:0:
64,192,144462,128,2,144629:2:0:0:0:
469,192,144462,1,0,2:0:0:0:
298,192,144629,128,2,144796:2:0:0:0:
469,192,144796,1,0,0:0:0:100:snare.wav
64,192,144796,1,0,3:0:0:0:
192,192,144796,128,2,144962:2:0:0:0:
298,192,144962,128,2,145129:2:0:0:0:
64,192,145129,128,2,145296:2:0:0:0:
448,192,145296,128,2,145462:2:0:0:0:
64,192,145462,1,8,1:0:0:0:
213,192,145462,1,0,0:0:0:100:snare.wav
320,192,145462,128,2,145629:2:0:0:0:
320,192,145796,1,0,0:0:0:100:snare.wav
64,192,145796,1,8,1:0:0:0:
448,192,145796,128,2,145962:2:0:0:0:
213,192,145962,128,2,146129:2:0:0:0:
448,192,146129,1,0,0:0:0:100:snare.wav
320,192,146129,128,2,146462:2:0:0:0:
42,192,146129,1,0,2:0:0:0:
213,192,146462,1,0,0:0:0:100:snare.wav
448,192,146462,1,0,3:0:0:0:
64,192,146462,128,2,146629:2:0:0:0:
320,192,146629,128,2,146796:2:0:0:0:
469,192,146796,1,0,0:0:0:100:snare.wav
64,192,146796,1,8,1:0:0:0:
192,192,146796,128,2,146962:2:0:0:0:
64,192,147129,1,8,1:0:0:0:
192,192,147129,1,0,0:0:0:100:snare.wav
448,192,147129,128,2,147296:2:0:0:0:
320,192,147296,128,2,147462:2:0:0:0:
448,192,147462,1,0,0:0:0:100:snare.wav
64,192,147462,128,2,147629:2:0:0:0:
192,192,147462,1,0,3:0:0:0:
320,192,147629,128,2,147796:2:0:0:0:
64,192,147796,1,0,0:0:0:100:snare.wav
469,192,147796,1,0,3:0:0:0:
213,192,147796,1,0,2:0:0:0:
469,192,148129,1,2,2:0:0:0:
42,192,148129,1,8,1:0:0:0:
298,192,148129,1,0,0:0:0:100:snare.wav
213,192,148129,1,0,3:0:0:0:
64,192,148296,1,0,0:0:0:100:snare.wav
298,192,148296,1,0,3:0:0:0:
469,192,148296,1,0,2:0:0:0:
448,192,148462,1,2,2:0:0:0:
64,192,148462,1,8,1:0:0:0:
320,192,148462,1,0,0:0:0:100:snare.wav
192,192,148629,1,2,2:0:0:0:
448,192,148629,1,0,0:0:0:100:snare.wav
42,192,148629,1,0,3:0:0:0:
64,192,148796,1,2,2:0:0:0:
469,192,148796,1,0,0:0:0:100:snare.wav
192,192,148796,1,0,3:0:0:0:
298,192,148962,1,0,0:0:0:100:snare.wav
42,192,148962,1,0,3:0:0:0:
213,192,148962,1,0,2:0:0:0:
298,192,149129,1,2,2:0:0:0:
192,192,149129,1,0,0:0:0:100:snare.wav
469,192,149129,1,0,3:0:0:0:
298,192,149296,1,2,2:0:0:0:
42,192,149296,1,0,0:0:0:100:snare.wav
469,192,149296,1,0,3:0:0:0:
448,192,149462,1,2,2:0:0:0:
64,192,149462,1,8,1:0:0:0:
320,192,149462,1,0,0:0:0:100:snare.wav
64,192,149629,1,0,2:0:0:0:
448,192,149629,1,0,0:0:0:100:snare.wav
192,192,149629,1,0,3:0:0:0:
213,192,149796,1,2,2:0:0:0:
298,192,149796,1,8,1:0:0:0:
42,192,149796,1,0,0:0:0:100:snare.wav
42,192,149962,1,2,2:0:0:0:
213,192,149962,1,0,0:0:0:100:snare.wav
320,192,149962,1,0,3:0:0:0:
298,192,150129,1,2,2:0:0:0:
213,192,150129,1,0,0:0:0:100:snare.wav
448,192,150129,1,0,3:0:0:0:
320,192,150296,1,2,2:0:0:0:
469,192,150296,1,0,0:0:0:100:snare.wav
42,192,150296,1,0,3:0:0:0:
192,192,150462,1,2,2:0:0:0:
42,192,150462,1,0,0:0:0:100:snare.wav
469,192,150462,1,0,3:0:0:0:
42,192,150629,1,2,2:0:0:0:
213,192,150629,1,0,0:0:0:100:snare.wav
469,192,150629,1,0,3:0:0:0:
298,192,150629,1,0,2:0:0:0:
448,192,151129,128,2,151379:2:0:0:0:
320,192,151129,1,0,3:0:0:0:
42,192,151129,1,0,2:0:0:0:
213,192,151129,1,8,1:0:0:0:
320,192,151296,1,0,3:0:0:0:
42,192,151296,1,8,1:0:0:0:
213,192,151296,1,0,2:0:0:0:
320,192,151462,1,0,3:0:0:0:
448,192,151462,128,2,151712:2:0:0:0:
213,192,151462,1,0,2:0:0:0:
42,192,151462,1,8,1:0:0:0:
213,192,151629,1,8,1:0:0:0:
42,192,151629,1,0,3:0:0:0:
320,192,151796,1,8,1:0:0:0:
448,192,151796,128,2,152046:2:0:0:0:
64,192,151796,1,0,2:0:0:0:
320,192,151962,1,0,2:0:0:0:
64,192,151962,1,8,1:0:0:0:
64,192,152129,128,12,152379:1:0:0:0:
213,192,152129,128,4,152379:3:0:0:0:
320,192,152129,128,14,154379:2:0:0:0:
448,192,152129,128,14,152379:3:0:0:0:
448,192,152462,1,2,3:0:0:0:
64,192,152462,128,0,152712:3:0:0:0:
213,192,152462,128,0,152712:2:0:0:0:
469,192,152795,1,10,3:0:0:0:
42,192,152795,128,8,153045:1:0:0:0:
192,192,152795,128,0,153045:1:0:0:100:snare.wav
469,192,153129,1,2,3:0:0:0:
42,192,153129,128,0,153379:2:0:0:0:
213,192,153129,128,0,153379:3:0:0:0:
469,192,153462,1,8,1:0:0:0:
42,192,153462,128,0,153712:2:0:0:0:
213,192,153462,128,0,153712:3:0:0:0:
448,192,153795,1,2,3:0:0:0:
42,192,153795,128,0,154045:2:0:0:0:
213,192,153795,128,0,154045:3:0:0:0:
469,192,154129,1,0,1:0:0:100:snare.wav
64,192,154129,1,10,3:0:0:0:
213,192,154129,1,8,1:0:0:0:
213,192,154351,1,0,3:0:0:0:
42,192,154351,1,0,2:0:0:0:
448,192,154462,1,2,3:0:0:0:
298,192,154462,128,2,154712:2:0:0:0:
42,192,154462,1,0,3:0:0:0:
213,192,154462,1,0,2:0:0:0:
42,192,154684,1,0,3:0:0:0:
213,192,154684,1,0,2:0:0:0:
213,192,154795,128,0,155045:3:0:0:0:
469,192,154795,1,8,1:0:0:0:
42,192,154795,128,0,155045:2:0:0:0:
320,192,154795,128,2,155045:2:0:0:0:
298,192,155129,1,2,3:0:0:0:
42,192,155129,128,0,155379:3:0:0:0:
213,192,155129,128,0,155379:2:0:0:0:
469,192,155129,128,2,156379:2:0:0:0:
298,192,155462,1,10,3:0:0:0:
42,192,155462,128,8,155712:1:0:0:0:
213,192,155462,128,0,155712:1:0:0:100:snare.wav
42,192,155795,128,0,156045:2:0:0:0:
298,192,155795,1,2,3:0:0:0:
213,192,155795,128,0,156045:3:0:0:0:
213,192,156129,128,0,156379:3:0:0:0:
298,192,156129,1,8,1:0:0:0:
42,192,156129,128,0,156379:2:0:0:0:
42,192,156462,128,0,156712:2:0:0:0:
298,192,156462,1,2,3:0:0:0:
213,192,156462,128,0,156712:3:0:0:0:
469,192,156462,128,2,156712:2:0:0:0:
448,192,156795,1,10,3:0:0:0:
320,192,156795,128,2,157129:2:0:0:0:
213,192,156795,1,8,1:0:0:0:
42,192,156795,1,0,1:0:0:100:snare.wav
42,192,157017,1,0,3:0:0:0:
213,192,157017,1,0,2:0:0:0:
192,192,157129,1,2,3:0:0:0:
469,192,157129,128,2,157295:2:0:0:0:
42,192,157129,1,0,3:0:0:0:
320,192,157295,128,2,159045:2:0:0:0:
213,192,157351,1,0,2:0:0:0:
42,192,157351,1,0,3:0:0:0:
469,192,157462,1,8,1:0:0:0:
213,192,157462,128,0,157712:2:0:0:0:
42,192,157462,128,0,157712:3:0:0:0:
213,192,157795,128,0,158045:2:0:0:0:
448,192,157795,1,2,3:0:0:0:
42,192,157795,128,0,158045:3:0:0:0:
469,192,158129,1,10,3:0:0:0:
64,192,158129,128,8,158379:1:0:0:0:
213,192,158129,128,0,158379:1:0:0:100:snare.wav
469,192,158462,1,2,3:0:0:0:
42,192,158462,128,0,158712:2:0:0:0:
213,192,158462,128,0,158712:3:0:0:0:
469,192,158795,1,8,1:0:0:0:
213,192,158795,128,0,159045:2:0:0:0:
42,192,158795,128,0,159045:3:0:0:0:
298,192,159129,1,2,3:0:0:0:
213,192,159129,128,0,159379:2:0:0:0:
469,192,159129,128,2,159379:2:0:0:0:
42,192,159129,128,0,159379:3:0:0:0:
320,192,159462,1,10,3:0:0:0:
448,192,159462,128,2,159795:2:0:0:0:
213,192,159462,1,0,1:0:0:100:snare.wav
64,192,159462,1,8,1:0:0:0:
42,192,159684,1,0,2:0:0:0:
213,192,159684,1,0,3:0:0:0:
192,192,159795,1,2,3:0:0:0:
298,192,159795,128,2,159962:2:0:0:0:
42,192,159795,1,0,3:0:0:0:
469,192,159962,128,2,161045:2:0:0:0:
42,192,160017,1,0,3:0:0:0:
213,192,160017,1,0,2:0:0:0:
298,192,160129,1,8,1:0:0:0:
213,192,160129,128,0,160379:2:0:0:0:
42,192,160129,128,0,160379:3:0:0:0:
298,192,160462,1,2,3:0:0:0:
42,192,160462,128,0,160712:2:0:0:0:
213,192,160462,128,0,160712:3:0:0:0:
298,192,160795,1,10,3:0:0:0:
213,192,160795,128,8,161045:1:0:0:0:
42,192,160795,128,0,161045:1:0:0:100:snare.wav
448,192,161129,1,2,3:0:0:0:
213,192,161129,128,0,161379:2:0:0:0:
42,192,161129,128,0,161379:3:0:0:0:
298,192,161129,128,2,161379:2:0:0:0:
298,192,161462,1,8,1:0:0:0:
42,192,161462,128,0,161712:2:0:0:0:
213,192,161462,128,0,161712:3:0:0:0:
469,192,161462,1,0,2:0:0:0:
298,192,161795,1,2,3:0:0:0:
42,192,161795,128,0,162045:2:0:0:0:
213,192,161795,128,0,162045:3:0:0:0:
469,192,161795,128,2,162045:2:0:0:0:
298,192,162129,1,10,3:0:0:0:
469,192,162129,128,2,162379:2:0:0:0:
213,192,162129,1,8,1:0:0:0:
42,192,162129,1,0,1:0:0:100:snare.wav
42,192,162351,1,0,2:0:0:0:
213,192,162351,1,0,3:0:0:0:
469,192,162462,1,2,3:0:0:0:
298,192,162462,128,2,162712:2:0:0:0:
213,192,162462,1,0,2:0:0:0:
42,192,162462,1,0,3:0:0:0:
42,192,162684,1,0,2:0:0:0:
213,192,162684,1,0,3:0:0:0:
213,192,162795,1,8,1:0:0:0:
470,192,162795,128,0,163045:2:0:0:0:
298,192,162795,128,0,163045:3:0:0:0:
42,192,162795,128,2,164379:2:0:0:0:
213,192,163129,1,2,3:0:0:0:
470,192,163129,128,0,163379:2:0:0:0:
298,192,163129,128,0,163379:3:0:0:0:
213,192,163462,1,10,3:0:0:0:
298,192,163462,128,8,163712:1:0:0:0:
469,192,163462,128,0,163712:1:0:0:100:snare.wav
213,192,163795,1,2,3:0:0:0:
299,192,163795,128,0,164045:2:0:0:0:
470,192,163795,128,0,164045:3:0:0:0:
213,192,164129,1,8,1:0:0:0:
299,192,164129,128,0,164379:2:0:0:0:
469,192,164129,128,0,164379:3:0:0:0:
42,192,164462,1,2,3:0:0:0:
299,192,164462,128,0,164712:2:0:0:0:
469,192,164462,128,0,164712:3:0:0:0:
213,192,164462,128,2,164712:2:0:0:0:
213,192,164795,1,10,3:0:0:0:
42,192,164795,128,2,165129:2:0:0:0:
298,192,164795,1,8,1:0:0:0:
469,192,164795,1,0,1:0:0:100:snare.wav
469,192,165017,1,0,2:0:0:0:
298,192,165017,1,0,3:0:0:0:
448,192,165129,1,2,3:0:0:0:
213,192,165129,128,2,165295:2:0:0:0:
298,192,165129,1,0,3:0:0:0:
42,192,165295,128,2,167712:2:0:0:0:
299,192,165351,1,0,2:0:0:0:
469,192,165351,1,0,3:0:0:0:
213,192,165462,1,8,1:0:0:0:
469,192,165462,128,0,165712:3:0:0:0:
298,192,165462,128,0,165712:2:0:0:0:
213,192,165795,1,2,3:0:0:0:
299,192,165795,128,0,166045:2:0:0:0:
469,192,165795,128,0,166045:3:0:0:0:
213,192,166129,1,10,3:0:0:0:
448,192,166129,128,8,166379:1:0:0:0:
298,192,166129,128,0,166379:1:0:0:100:snare.wav
213,192,166462,1,2,3:0:0:0:
469,192,166462,128,0,166712:3:0:0:0:
298,192,166462,128,0,166712:2:0:0:0:
213,192,166795,1,8,1:0:0:0:
299,192,166795,128,0,167045:2:0:0:0:
469,192,166795,128,0,167045:3:0:0:0:
213,192,167128,1,2,3:0:0:0:
299,192,167128,128,0,167378:2:0:0:0:
469,192,167128,128,0,167378:3:0:0:0:
213,192,167462,1,10,3:0:0:0:
298,192,167462,1,0,1:0:0:100:snare.wav
448,192,167462,1,8,1:0:0:0:
469,192,167684,1,0,3:0:0:0:
299,192,167684,1,0,2:0:0:0:
213,192,167795,1,2,3:0:0:0:
42,192,167795,128,2,168045:2:0:0:0:
299,192,167795,1,0,2:0:0:0:
469,192,167795,1,0,3:0:0:0:
299,192,168017,1,0,2:0:0:0:
469,192,168017,1,0,3:0:0:0:
42,192,168128,1,8,1:0:0:0:
299,192,168128,128,0,168378:2:0:0:0:
213,192,168128,128,2,168378:2:0:0:0:
469,192,168128,128,0,168378:3:0:0:0:
213,192,168462,1,2,3:0:0:0:
299,192,168462,128,0,168712:2:0:0:0:
42,192,168462,128,2,168712:2:0:0:0:
469,192,168462,128,0,168712:3:0:0:0:
42,192,168795,1,10,3:0:0:0:
213,192,168795,128,2,169045:2:0:0:0:
448,192,168795,128,8,169045:1:0:0:0:
298,192,168795,128,0,169045:1:0:0:100:snare.wav
299,192,169128,128,0,169378:2:0:0:0:
213,192,169128,1,2,3:0:0:0:
42,192,169128,128,2,169378:2:0:0:0:
469,192,169128,128,0,169378:3:0:0:0:
42,192,169462,1,2,2:0:0:0:
469,192,169462,128,0,169712:2:0:0:0:
298,192,169462,128,0,169712:3:0:0:0:
213,192,169462,128,8,169712:1:0:0:0:
213,192,169795,1,2,3:0:0:0:
469,192,169795,128,0,170045:2:0:0:0:
42,192,169795,128,2,170045:2:0:0:0:
298,192,169795,128,0,170045:3:0:0:0:
42,192,170128,1,2,2:0:0:0:
213,192,170128,128,10,170462:3:0:0:0:
298,192,170128,1,0,1:0:0:100:snare.wav
469,192,170128,1,8,1:0:0:0:
298,192,170351,1,0,2:0:0:0:
469,192,170351,1,0,3:0:0:0:
448,192,170462,1,2,3:0:0:0:
42,192,170462,128,2,170628:2:0:0:0:
298,192,170462,1,0,3:0:0:0:
192,192,170628,128,2,171712:2:0:0:0:
299,192,170684,1,0,2:0:0:0:
469,192,170684,1,0,3:0:0:0:
42,192,170795,1,8,1:0:0:0:
299,192,170795,128,0,171045:2:0:0:0:
469,192,170795,128,0,171045:3:0:0:0:
64,192,171128,1,2,3:0:0:0:
299,192,171128,128,0,171378:2:0:0:0:
469,192,171128,128,0,171378:3:0:0:0:
42,192,171462,1,10,3:0:0:0:
298,192,171462,128,8,171712:1:0:0:0:
469,192,171462,128,0,171712:1:0:0:100:snare.wav
299,192,171795,128,0,172045:2:0:0:0:
213,192,171795,1,2,3:0:0:0:
42,192,171795,128,2,172045:2:0:0:0:
469,192,171795,128,0,172045:3:0:0:0:
469,192,172128,128,0,172378:2:0:0:0:
213,192,172128,1,8,1:0:0:0:
42,192,172128,128,2,172712:2:0:0:0:
298,192,172128,128,0,172378:3:0:0:0:
213,192,172462,1,2,3:0:0:0:
469,192,172462,128,0,172712:2:0:0:0:
298,192,172462,128,0,172712:3:0:0:0:
213,192,172795,128,2,173378:2:0:0:0:
42,192,172795,1,10,3:0:0:0:
298,192,172795,1,8,1:0:0:0:
469,192,172795,1,0,1:0:0:100:snare.wav
298,192,173017,1,0,3:0:0:0:
469,192,173017,1,0,2:0:0:0:
42,192,173128,1,2,3:0:0:0:
298,192,173128,1,0,3:0:0:0:
469,192,173128,1,0,2:0:0:0:
299,192,173351,1,0,2:0:0:0:
469,192,173351,1,0,3:0:0:0:
213,192,173462,128,4,173712:3:0:0:0:
64,192,173462,128,12,173712:1:0:0:0:
298,192,173462,128,14,173712:2:0:0:0:
469,192,173462,128,14,173712:3:0:0:0:
469,192,173795,128,0,174045:2:0:0:0:
42,192,173795,128,0,174045:2:0:0:0:
298,192,173795,128,2,174045:3:0:0:0:
213,192,173795,128,0,174045:3:0:0:0:
298,192,174128,128,0,174378:3:0:0:0:
469,192,174128,128,0,174378:1:0:0:100:snare.wav
42,192,174128,128,10,174378:3:0:0:0:
213,192,174128,128,8,174378:1:0:0:0:
298,192,174462,128,0,174712:2:0:0:0:
213,192,174462,128,0,174712:3:0:0:0:
469,192,174462,128,0,174712:2:0:0:0:
42,192,174462,128,2,174712:3:0:0:0:
298,192,174795,128,0,175045:2:0:0:0:
42,192,174795,128,0,175045:3:0:0:0:
469,192,174795,128,0,175045:2:0:0:0:
213,192,174795,128,8,175045:1:0:0:0:
213,192,175128,128,0,175295:3:0:0:0:
42,192,175128,128,0,175295:2:0:0:0:
469,192,175128,128,0,175295:2:0:0:0:
298,192,175128,128,2,175295:3:0:0:0:
320,192,175351,128,0,175406:2:0:0:0:
213,192,175351,128,0,175406:2:0:0:0:
42,192,175351,128,0,175406:3:0:0:0:
213,192,175462,128,8,175628:1:0:0:0:
42,192,175462,128,10,175628:3:0:0:0:
320,192,175462,128,0,175628:1:0:0:100:snare.wav
192,192,175684,128,0,175740:2:0:0:0:
448,192,175684,128,0,175740:3:0:0:0:
320,192,175684,128,0,175740:2:0:0:0:
213,192,175795,128,0,175962:2:0:0:0:
448,192,175795,128,0,175962:3:0:0:0:
298,192,175795,128,2,175962:3:0:0:0:
213,192,176017,128,0,176073:2:0:0:0:
298,192,176017,128,0,176073:3:0:0:0:
42,192,176017,128,0,176073:2:0:0:0:
298,192,176128,128,0,176378:3:0:0:0:
42,192,176128,128,0,176378:2:0:0:0:
213,192,176128,128,8,176378:1:0:0:0:
42,192,176462,128,0,176712:2:0:0:0:
298,192,176462,128,0,176712:3:0:0:0:
469,192,176462,128,0,176712:2:0:0:0:
213,192,176462,128,2,176712:3:0:0:0:
213,192,176795,128,0,177045:3:0:0:0:
298,192,176795,128,0,177045:1:0:0:100:snare.wav
42,192,176795,128,10,177045:3:0:0:0:
469,192,176795,128,8,177045:1:0:0:0:
42,192,177128,128,0,177378:2:0:0:0:
213,192,177128,128,0,177378:3:0:0:0:
469,192,177128,128,2,177378:2:0:0:0:
298,192,177128,128,2,177378:3:0:0:0:
213,192,177462,128,0,177712:3:0:0:0:
298,192,177462,128,0,177712:2:0:0:0:
469,192,177462,128,2,178045:2:0:0:0:
42,192,177462,128,8,177712:1:0:0:0:
320,192,177795,128,0,178045:2:0:0:0:
213,192,177795,128,0,178045:3:0:0:0:
64,192,177795,128,2,178045:3:0:0:0:
64,192,178128,128,8,178295:1:0:0:0:
298,192,178128,128,0,178295:1:0:0:100:snare.wav
469,192,178128,128,2,178295:2:0:0:0:
213,192,178128,128,10,178295:3:0:0:0:
448,192,178351,128,0,178406:2:0:0:0:
192,192,178351,128,0,178406:2:0:0:0:
320,192,178351,128,0,178406:3:0:0:0:
192,192,178462,128,0,178628:2:0:0:0:
320,192,178462,128,0,178628:3:0:0:0:
448,192,178462,128,2,178628:3:0:0:0:
298,192,178684,128,0,178740:3:0:0:0:
42,192,178684,128,0,178740:2:0:0:0:
213,192,178684,128,0,178740:2:0:0:0:
213,192,178795,128,0,179045:3:0:0:0:
298,192,178795,128,0,179045:2:0:0:0:
42,192,178795,128,8,179045:1:0:0:0:
298,192,179128,128,0,179378:2:0:0:0:
213,192,179128,128,0,179378:3:0:0:0:
469,192,179128,128,0,179378:2:0:0:0:
42,192,179128,128,2,179378:3:0:0:0:
213,192,179462,128,0,179712:3:0:0:0:
469,192,179462,128,0,179712:1:0:0:100:snare.wav
42,192,179462,128,8,179712:1:0:0:0:
298,192,179462,128,10,179712:3:0:0:0:
469,192,179795,128,0,180045:2:0:0:0:
298,192,179795,128,0,180045:2:0:0:0:
42,192,179795,128,2,180045:3:0:0:0:
213,192,179795,128,0,180045:3:0:0:0:
213,192,180128,128,0,180378:2:0:0:0:
298,192,180128,128,0,180378:3:0:0:0:
42,192,180128,128,0,180378:2:0:0:0:
469,192,180128,128,8,180378:1:0:0:0:
213,192,180462,128,0,180712:3:0:0:0:
42,192,180462,128,0,180712:2:0:0:0:
469,192,180462,128,0,180712:2:0:0:0:
298,192,180462,128,2,180712:3:0:0:0:
213,192,180795,128,0,180962:3:0:0:0:
469,192,180795,128,0,180962:1:0:0:100:snare.wav
298,192,180795,128,8,180962:1:0:0:0:
42,192,180795,128,10,180962:3:0:0:0:
213,192,181017,128,0,181073:2:0:0:0:
42,192,181017,128,0,181073:3:0:0:0:
320,192,181017,128,2,181073:2:0:0:0:
42,192,181128,128,0,181295:3:0:0:0:
213,192,181128,128,2,181295:3:0:0:0:
320,192,181128,128,2,181295:2:0:0:0:
320,192,181351,128,0,181406:3:0:0:0:
192,192,181351,128,0,181406:2:0:0:0:
448,192,181351,128,2,181406:2:0:0:0:
213,192,181462,128,0,181712:3:0:0:0:
469,192,181462,128,2,182045:2:0:0:0:
298,192,181462,128,8,181712:1:0:0:0:
213,192,181795,128,0,182045:3:0:0:0:
42,192,181795,128,0,182045:2:0:0:0:
298,192,181795,128,2,182045:3:0:0:0:
298,192,182128,128,0,182378:3:0:0:0:
42,192,182128,128,0,182378:1:0:0:100:snare.wav
213,192,182128,128,10,182378:3:0:0:0:
469,192,182128,128,8,182378:1:0:0:0:
298,192,182462,128,0,182712:3:0:0:0:
213,192,182462,128,0,182712:2:0:0:0:
42,192,182462,128,2,182712:2:0:0:0:
469,192,182462,128,2,182712:3:0:0:0:
213,192,182795,128,0,183045:3:0:0:0:
298,192,182795,128,0,183045:2:0:0:0:
469,192,182795,128,2,183378:2:0:0:0:
42,192,182795,128,8,183045:1:0:0:0:
213,192,183128,128,0,183378:3:0:0:0:
298,192,183128,128,0,183378:2:0:0:0:
42,192,183128,128,2,183378:3:0:0:0:
42,192,183462,128,8,183628:1:0:0:0:
298,192,183462,128,0,183628:1:0:0:100:snare.wav
469,192,183462,128,2,183628:2:0:0:0:
213,192,183462,128,10,183628:3:0:0:0:
448,192,183684,128,0,183740:2:0:0:0:
213,192,183684,128,0,183740:2:0:0:0:
298,192,183684,128,0,183740:3:0:0:0:
42,192,183684,128,0,183740:2:0:0:0:
213,192,183795,128,0,183962:3:0:0:0:
42,192,183795,128,0,183962:2:0:0:0:
298,192,183795,128,2,183962:3:0:0:0:
448,192,183795,128,0,183962:2:0:0:0:
213,192,184017,128,0,184073:2:0:0:0:
298,192,184017,128,0,184073:3:0:0:0:
42,192,184017,128,0,184073:2:0:0:0:
448,192,184017,128,0,184073:2:0:0:0:
299,192,184128,128,4,184378:3:0:0:0:
469,192,184128,128,0,184378:3:0:0:0:
42,192,184128,128,8,184378:1:0:0:0:
214,192,184128,128,6,184378:2:0:0:0:
298,192,184462,128,0,184712:3:0:0:0:
470,192,184462,128,0,184712:2:0:0:0:
43,192,184462,128,0,184712:2:0:0:0:
214,192,184462,128,2,184712:3:0:0:0:
298,192,184795,128,0,185045:3:0:0:0:
43,192,184795,128,0,185045:1:0:0:100:snare.wav
214,192,184795,128,8,185045:1:0:0:0:
469,192,184795,128,10,185045:3:0:0:0:
213,192,185128,128,0,185378:2:0:0:0:
298,192,185128,128,0,185378:3:0:0:0:
43,192,185128,128,0,185378:2:0:0:0:
469,192,185128,128,2,185378:3:0:0:0:
213,192,185462,128,0,185712:3:0:0:0:
42,192,185462,128,0,185712:2:0:0:0:
470,192,185462,128,0,185712:2:0:0:0:
298,192,185462,128,8,185712:1:0:0:0:
298,192,185795,128,0,185962:3:0:0:0:
470,192,185795,128,0,185962:2:0:0:0:
43,192,185795,128,0,185962:2:0:0:0:
214,192,185795,128,2,185962:3:0:0:0:
64,192,186017,128,0,186073:2:0:0:0:
213,192,186017,128,0,186073:2:0:0:0:
298,192,186017,128,0,186073:3:0:0:0:
470,192,186017,128,0,186073:2:0:0:0:
43,192,186128,128,0,186295:1:0:0:100:snare.wav
469,192,186128,128,0,186295:3:0:0:0:
298,192,186128,128,10,186295:3:0:0:0:
214,192,186128,128,8,186295:1:0:0:0:
213,192,186351,128,0,186406:2:0:0:0:
298,192,186351,128,0,186406:3:0:0:0:
448,192,186351,128,0,186406:2:0:0:0:
64,192,186351,128,0,186406:2:0:0:0:
213,192,186462,128,0,186628:3:0:0:0:
470,192,186462,128,0,186628:2:0:0:0:
43,192,186462,128,0,186628:2:0:0:0:
298,192,186462,128,2,186628:3:0:0:0:
299,192,186684,128,0,186740:2:0:0:0:
213,192,186684,128,0,186740:3:0:0:0:
470,192,186684,128,0,186740:2:0:0:0:
64,192,186684,128,0,186740:2:0:0:0:
213,192,186795,128,0,187045:3:0:0:0:
470,192,186795,128,0,187045:2:0:0:0:
42,192,186795,128,0,187045:2:0:0:0:
298,192,186795,128,8,187045:1:0:0:0:
298,192,187128,128,0,187378:2:0:0:0:
213,192,187128,128,0,187378:3:0:0:0:
470,192,187128,128,0,187378:2:0:0:0:
42,192,187128,128,2,187378:3:0:0:0:
298,192,187462,128,0,187712:3:0:0:0:
42,192,187462,128,0,187712:1:0:0:100:snare.wav
469,192,187462,128,10,187712:3:0:0:0:
213,192,187462,128,8,187712:1:0:0:0:
298,192,187795,128,0,188045:3:0:0:0:
213,192,187795,128,0,188045:2:0:0:0:
469,192,187795,128,2,188045:3:0:0:0:
43,192,187795,128,2,188045:2:0:0:0:
298,192,188128,128,0,188378:3:0:0:0:
470,192,188128,128,0,188378:2:0:0:0:
42,192,188128,128,2,188712:2:0:0:0:
213,192,188128,128,8,188378:1:0:0:0:
298,192,188462,128,0,188712:3:0:0:0:
470,192,188462,128,0,188712:2:0:0:0:
213,192,188462,128,2,188712:3:0:0:0:
470,192,188795,128,8,188962:1:0:0:0:
214,192,188795,128,0,188962:1:0:0:100:snare.wav
43,192,188795,128,2,188962:2:0:0:0:
298,192,188795,128,10,188962:3:0:0:0:
299,192,189017,128,0,189073:2:0:0:0:
213,192,189017,128,0,189073:3:0:0:0:
470,192,189017,128,0,189073:2:0:0:0:
64,192,189017,128,0,189073:2:0:0:0:
298,192,189128,128,0,189295:3:0:0:0:
470,192,189128,128,0,189295:2:0:0:0:
213,192,189128,128,2,189295:3:0:0:0:
64,192,189128,128,0,189295:2:0:0:0:
299,192,189351,128,0,189406:2:0:0:0:
213,192,189351,128,0,189406:3:0:0:0:
470,192,189351,128,0,189406:2:0:0:0:
64,192,189351,128,0,189406:2:0:0:0:
469,192,189462,128,0,189712:2:0:0:0:
298,192,189462,128,0,189712:2:0:0:0:
42,192,189462,128,8,189712:1:0:0:0:
213,192,189462,128,0,189712:3:0:0:0:
469,192,189795,128,0,190045:2:0:0:0:
213,192,189795,128,0,190045:3:0:0:0:
298,192,189795,128,0,190045:2:0:0:0:
42,192,189795,128,2,190045:3:0:0:0:
213,192,190128,128,0,190378:3:0:0:0:
43,192,190128,128,0,190378:1:0:0:100:snare.wav
298,192,190128,128,8,190378:1:0:0:0:
469,192,190128,128,10,190378:3:0:0:0:
299,192,190462,128,0,190712:2:0:0:0:
42,192,190462,128,0,190712:3:0:0:0:
470,192,190462,128,0,190712:2:0:0:0:
213,192,190462,128,2,190712:3:0:0:0:
298,192,190795,128,0,191045:2:0:0:0:
213,192,190795,128,0,191045:3:0:0:0:
469,192,190795,128,0,191045:2:0:0:0:
42,192,190795,128,8,191045:1:0:0:0:
469,192,191128,128,0,191378:2:0:0:0:
298,192,191128,128,0,191378:3:0:0:0:
192,192,191128,128,2,191378:2:0:0:0:
42,192,191128,128,2,191378:3:0:0:0:
470,192,191462,128,8,191628:1:0:0:0:
43,192,191462,128,0,191628:1:0:0:100:snare.wav
298,192,191462,128,2,191628:2:0:0:0:
213,192,191462,128,10,191628:3:0:0:0:
299,192,191684,128,0,191740:2:0:0:0:
469,192,191684,128,0,191740:3:0:0:0:
192,192,191684,128,2,191740:2:0:0:0:
64,192,191684,128,0,191740:2:0:0:0:
298,192,191795,128,0,191962:3:0:0:0:
470,192,191795,128,0,191962:2:0:0:0:
192,192,191795,128,2,191962:2:0:0:0:
42,192,191795,128,2,191962:3:0:0:0:
298,192,192017,128,0,192073:3:0:0:0:
470,192,192017,128,0,192073:2:0:0:0:
192,192,192017,128,2,192073:2:0:0:0:
64,192,192017,128,0,192073:2:0:0:0:
213,192,192128,128,0,192378:3:0:0:0:
469,192,192128,128,0,192378:2:0:0:0:
42,192,192128,128,2,192712:2:0:0:0:
298,192,192128,128,8,192378:1:0:0:0:
298,192,192462,128,0,192712:3:0:0:0:
213,192,192462,128,0,192712:2:0:0:0:
469,192,192462,128,2,192712:3:0:0:0:
42,192,192795,128,0,193045:3:0:0:0:
469,192,192795,128,0,193045:1:0:0:100:snare.wav
298,192,192795,128,8,193045:1:0:0:0:
213,192,192795,128,10,193045:3:0:0:0:
213,192,193128,128,0,193378:3:0:0:0:
469,192,193128,128,0,193378:2:0:0:0:
42,192,193128,128,2,193378:3:0:0:0:
298,192,193128,128,2,193378:2:0:0:0:
469,192,193462,128,0,193712:3:0:0:0:
42,192,193462,128,2,193712:2:0:0:0:
298,192,193462,128,0,193712:1:0:0:100:snare.wav
213,192,193462,128,8,193712:1:0:0:0:
213,192,193795,128,0,194045:3:0:0:0:
298,192,193795,128,0,194045:1:0:0:100:snare.wav
469,192,193795,128,0,194045:2:0:0:0:
42,192,193795,128,2,194045:3:0:0:0:
64,192,194128,128,8,194295:1:0:0:0:
213,192,194128,128,0,194295:1:0:0:100:snare.wav
320,192,194128,128,2,194295:2:0:0:0:
469,192,194128,128,10,194295:3:0:0:0:
448,192,194351,128,0,194406:2:0:0:0:
213,192,194351,128,0,194406:2:0:0:0:
298,192,194351,128,0,194406:1:0:0:100:snare.wav
42,192,194351,128,0,194406:3:0:0:0:
469,192,194462,128,0,194628:2:0:0:0:
298,192,194462,128,2,194628:3:0:0:0:
42,192,194462,128,0,194628:3:0:0:0:
213,192,194462,128,0,194628:1:0:0:100:snare.wav
42,192,194684,128,0,194740:3:0:0:0:
298,192,194684,128,0,194740:1:0:0:100:snare.wav
213,192,194684,128,0,194740:2:0:0:0:
469,192,194684,128,0,194740:3:0:0:0:
64,192,194795,128,8,195962:1:0:0:0:
213,192,194795,128,0,195296:1:0:0:100:snare.wav
298,192,194795,128,14,195296:2:0:0:0:
448,192,194796,128,14,198796:3:0:0:0:
213,192,195462,128,2,195962:2:0:0:0:
64,192,196129,1,0,0:0:0:20:steel.wav
298,192,196129,128,2,196796:2:0:0:0:
64,192,196796,128,2,197462:2:0:0:0:
320,192,197462,1,0,0:0:0:20:steel.wav
192,192,197462,128,2,198129:2:0:0:0:
320,192,198129,128,2,198796:2:0:0:0:
42,192,198796,1,0,0:0:0:20:steel.wav
192,192,198796,128,2,199462:2:0:0:0:
320,192,199462,128,2,201462:2:0:0:0:
448,192,200129,1,0,2:0:0:0:
192,192,200129,128,2,200796:2:0:0:0:
42,192,200796,128,2,205292:2:0:0:0:
448,192,201462,128,2,205292:2:0:0:0:
213,192,202303,128,2,204767:2:0:0:0:
320,192,203117,128,2,204767:2:0:0:0:
