osu file format v14

[General]
AudioFilename: audio.mp3
AudioLeadIn: 0
PreviewTime: 151130
Countdown: 0
SampleSet: Soft
StackLeniency: 0.7
Mode: 3
LetterboxInBreaks: 0
SpecialStyle: 0
WidescreenStoryboard: 1

[Editor]
Bookmarks: 10796,21463,31463,32130,42796,52130,52796,54796,65462,76129,86796,97462,118796,140129,148129,152129,162795,173462,184128,194795
DistanceSpacing: 1
BeatDivisor: 4
GridSize: 8
TimelineZoom: 1.9

[Metadata]
Title:Faded
TitleUnicode:Faded
Artist:Alan Walker
ArtistUnicode:Alan Walker
Creator:x_yx
Version:[6K] Disappearing Corruptions
Source:
Tags:instrumental edm pop house trance drum and bass hype vibe party ln long notes sliders dancing line cheetah mobile sxphie_ guest difficulty diff
BeatmapID:3653248
BeatmapSetID:1783850

[Difficulty]
HPDrainRate:6.3
CircleSize:6
OverallDifficulty:5.1
ApproachRate:5
SliderMultiplier:1.4
SliderTickRate:1

[Events]
//Background and Video events
0,0,"dk5;E1.jpg",0,0
Video,-520,"Alan Walker - Faded.avi"
//Break Periods
2,119662,121929
2,124996,127262
//Storyboard Layer 0 (Background)
//Storyboard Layer 1 (Fail)
//Storyboard Layer 2 (Pass)
//Storyboard Layer 3 (Foreground)
//Storyboard Layer 4 (Overlay)
//Storyboard Sound Samples

[TimingPoints]
130,666.666666666667,4,2,1,80,1,0
130,-100,4,2,1,80,0,0
54796,666.666666666667,4,2,1,80,1,1
54796,-100,4,2,1,80,0,1
75462,-100,4,2,1,80,0,0
76129,-100,4,2,1,80,0,1
97462,-100,4,2,1,80,0,0
150629,-100,4,2,1,80,0,0
150713,-100,4,2,1,80,0,0
150796,-100,4,2,1,80,0,0
150879,-100,4,2,1,80,0,0
150963,-100,4,2,1,80,0,0
151129,-100,4,2,1,80,0,0
152129,333.333333333333,4,2,1,80,1,1
152129,-200,4,2,1,80,0,1
172795,-200,4,2,1,80,0,0
173462,-200,4,2,1,80,0,1
183462,-200,4,2,1,80,0,0
184128,-200,4,2,1,80,0,1
194796,666.666666666667,4,2,1,80,1,0
194796,-100,4,2,1,80,0,0
198796,-105.263157894737,4,2,1,80,0,0
199462,-111.111111111111,4,2,1,80,0,0
200129,-117.647058823529,4,2,1,80,0,0
200796,-125,4,2,1,80,0,0
201462,789.473684210526,4,2,1,80,1,0
201462,-126.582278481013,4,2,1,80,0,0
202251,833.333333333333,4,2,1,80,1,0
202251,-129.87012987013,4,2,1,80,0,0
202667,1200,4,2,1,80,1,0
202667,-95.2380952380952,4,2,1,80,0,0
203267,1200,4,2,1,80,1,0
203267,-102.040816326531,4,2,1,80,0,0

[HitObjects]
469,192,130,5,2,2:0:0:0:
128,192,130,1,4,2:0:0:55:
469,192,796,1,2,2:0:0:0:
469,192,1463,1,2,2:0:0:0:
384,192,2130,1,2,2:0:0:0:
128,192,2796,1,2,2:0:0:0:
128,192,3463,1,2,2:0:0:0:
128,192,4130,1,2,2:0:0:0:
298,192,4796,1,2,2:0:0:0:
213,192,5463,1,2,2:0:0:0:
213,192,6130,1,2,2:0:0:0:
213,192,6796,1,2,2:0:0:0:
213,192,7463,1,2,2:0:0:0:
384,192,8130,1,2,2:0:0:0:
384,192,8796,1,2,2:0:0:0:
384,192,9463,1,2,2:0:0:0:
469,192,10130,1,2,2:0:0:0:
320,192,10796,1,2,2:0:0:0:
469,192,10796,1,0,2:0:0:0:
320,192,11463,1,2,2:0:0:0:
320,192,12130,1,2,2:0:0:0:
384,192,12796,1,2,2:0:0:0:
384,192,13463,1,0,2:0:0:0:
128,192,13463,1,2,2:0:0:0:
128,192,14130,1,2,2:0:0:0:
128,192,14796,1,2,2:0:0:0:
298,192,15463,1,2,2:0:0:0:
384,192,16130,1,0,2:0:0:0:
213,192,16130,1,2,2:0:0:0:
213,192,16796,1,2,2:0:0:0:
213,192,17463,1,2,2:0:0:0:
213,192,18130,1,2,2:0:0:0:
469,192,18796,1,0,2:0:0:0:
384,192,18796,1,2,2:0:0:0:
384,192,19463,1,2,2:0:0:0:
384,192,20130,1,2,2:0:0:0:
298,192,20796,1,2,2:0:0:0:
213,192,21463,1,0,2:0:0:0:
384,192,21463,1,2,2:0:0:0:
384,192,22130,1,2,2:0:0:0:
384,192,22796,1,2,2:0:0:0:
384,192,23463,1,2,2:0:0:0:
298,192,24130,1,2,2:0:0:0:
128,192,24130,1,0,2:0:0:0:
298,192,24796,1,2,2:0:0:0:
298,192,25463,1,2,2:0:0:0:
384,192,26130,1,2,2:0:0:0:
384,192,26796,1,2,2:0:0:0:
298,192,26796,1,0,2:0:0:0:
384,192,27463,1,2,2:0:0:0:
384,192,28130,1,2,2:0:0:0:
384,192,28796,1,2,2:0:0:0:
469,192,29463,1,2,2:0:0:0:
298,192,29463,1,0,2:0:0:0:
469,192,30130,1,2,2:0:0:0:
469,192,30796,1,2,2:0:0:0:
384,192,31463,1,2,2:0:0:0:
213,192,32130,1,8,1:0:0:0:
384,192,32130,1,2,2:0:0:0:
128,192,32130,1,0,0:0:0:20:steel.wav
128,192,32796,1,0,2:0:0:0:
384,192,32796,1,2,2:0:0:0:
384,192,33463,1,0,2:0:0:0:
128,192,33463,1,2,2:0:0:0:
469,192,34130,1,0,2:0:0:0:
128,192,34130,1,2,2:0:0:0:
213,192,34796,1,0,2:0:0:0:
384,192,34796,1,2,2:0:0:0:
469,192,34796,1,0,0:0:0:20:steel.wav
213,192,35463,1,0,2:0:0:0:
469,192,35463,1,2,2:0:0:0:
213,192,36130,1,0,2:0:0:0:
469,192,36130,1,2,2:0:0:0:
298,192,36796,1,0,2:0:0:0:
384,192,36796,1,2,2:0:0:0:
128,192,37463,1,0,0:0:0:20:steel.wav
469,192,37463,1,0,2:0:0:0:
42,192,37463,1,2,2:0:0:0:
469,192,38130,1,0,2:0:0:0:
213,192,38130,1,2,2:0:0:0:
128,192,38796,1,0,2:0:0:0:
469,192,38796,1,2,2:0:0:0:
213,192,39463,1,0,2:0:0:0:
469,192,39463,1,2,2:0:0:0:
213,192,40130,1,0,2:0:0:0:
298,192,40130,1,0,2:0:0:0:
128,192,40130,1,2,2:0:0:0:
298,192,40796,1,0,2:0:0:0:
213,192,40796,1,2,2:0:0:0:
298,192,41463,1,0,2:0:0:0:
213,192,41463,1,2,2:0:0:0:
213,192,42130,1,0,2:0:0:0:
384,192,42130,1,2,2:0:0:0:
128,192,42796,1,0,3:0:0:0:
42,192,42796,1,8,1:0:0:0:
384,192,42796,1,14,2:0:0:0:
128,192,43463,1,0,2:0:0:0:
384,192,43463,1,2,2:0:0:0:
384,192,44130,1,0,3:0:0:0:
128,192,44130,1,0,2:0:0:0:
42,192,44130,1,10,2:0:0:0:
469,192,44796,1,0,2:0:0:0:
128,192,44796,1,2,2:0:0:0:
213,192,45463,1,0,2:0:0:0:
469,192,45463,1,0,2:0:0:0:
384,192,45463,1,10,2:0:0:0:
213,192,46130,1,0,2:0:0:0:
469,192,46130,1,2,2:0:0:0:
384,192,46796,1,0,2:0:0:0:
213,192,46796,1,0,3:0:0:0:
469,192,46796,1,10,2:0:0:0:
298,192,47463,1,0,2:0:0:0:
384,192,47463,1,2,2:0:0:0:
128,192,48130,1,0,2:0:0:0:
469,192,48130,1,0,3:0:0:0:
42,192,48130,1,10,2:0:0:0:
469,192,48796,1,0,2:0:0:0:
213,192,48796,1,2,2:0:0:0:
42,192,49463,1,0,3:0:0:0:
128,192,49463,1,0,2:0:0:0:
469,192,49463,1,10,2:0:0:0:
213,192,50130,1,0,2:0:0:0:
469,192,50130,1,2,2:0:0:0:
213,192,50796,1,0,2:0:0:0:
298,192,50796,1,0,2:0:0:0:
128,192,50796,1,10,2:0:0:0:
298,192,51463,1,0,2:0:0:0:
213,192,51463,1,2,2:0:0:0:
128,192,53796,128,2,54130:2:0:0:0:
469,192,54130,128,2,54463:2:0:0:0:
298,192,54463,128,2,54796:2:0:0:0:
128,192,54796,1,12,1:0:0:0:
213,192,54796,1,14,2:0:0:0:
42,192,54796,1,4,3:0:0:0:
384,192,54796,128,14,57129:3:0:0:0:
213,192,55462,1,8,1:0:0:0:
213,192,56129,1,8,1:0:0:0:
213,192,56796,1,8,1:0:0:0:
298,192,57129,128,2,57462:2:0:0:0:
128,192,57462,128,2,57796:2:0:0:0:
384,192,57462,1,8,1:0:0:0:
213,192,57796,128,2,59129:2:0:0:0:
384,192,58129,1,8,1:0:0:0:
384,192,58796,1,8,1:0:0:0:
298,192,59129,128,2,59462:2:0:0:0:
384,192,59462,1,8,1:0:0:0:
128,192,59462,128,2,59796:2:0:0:0:
213,192,59796,1,2,2:0:0:0:
298,192,59962,128,2,61462:2:0:0:0:
128,192,60129,1,8,1:0:0:0:
128,192,60796,1,8,1:0:0:0:
128,192,61462,1,8,1:0:0:0:
384,192,61796,128,2,62129:2:0:0:0:
128,192,62129,1,8,1:0:0:0:
213,192,62129,128,2,62462:2:0:0:0:
384,192,62462,1,2,3:0:0:0:
320,192,62629,128,2,63796:2:0:0:0:
42,192,62796,1,8,1:0:0:0:
42,192,63462,1,8,1:0:0:0:
469,192,63796,128,2,64129:2:0:0:0:
42,192,64129,1,8,1:0:0:0:
298,192,64462,128,2,64796:2:0:0:0:
384,192,64796,128,2,65129:2:0:0:0:
42,192,64796,1,8,1:0:0:0:
213,192,65129,128,2,65462:2:0:0:0:
42,192,65462,128,2,67129:2:0:0:0:
298,192,65462,1,8,1:0:0:0:
298,192,66129,1,8,1:0:0:0:
298,192,66796,1,8,1:0:0:0:
213,192,67129,128,2,67462:2:0:0:0:
298,192,67462,1,8,1:0:0:0:
384,192,67462,128,2,67796:2:0:0:0:
213,192,67796,1,2,2:0:0:0:
128,192,67962,128,2,70462:2:0:0:0:
384,192,68129,1,8,1:0:0:0:
384,192,68796,1,8,1:0:0:0:
384,192,69462,1,8,1:0:0:0:
384,192,70129,1,8,1:0:0:0:
298,192,70462,128,2,70796:2:0:0:0:
384,192,70796,128,2,71129:2:0:0:0:
213,192,70796,1,8,1:0:0:0:
128,192,71129,128,2,71462:2:0:0:0:
298,192,71462,128,2,71796:2:0:0:0:
213,192,71462,1,8,1:0:0:0:
384,192,71796,128,2,72129:2:0:0:0:
128,192,72129,128,2,72462:2:0:0:0:
213,192,72129,1,8,1:0:0:0:
469,192,72462,128,2,72796:2:0:0:0:
213,192,72796,1,8,1:0:0:0:
128,192,72796,128,2,73129:2:0:0:0:
298,192,73129,1,2,2:0:0:0:
213,192,73296,128,2,74462:2:0:0:0:
384,192,73462,1,8,1:0:0:0:
384,192,74129,1,8,1:0:0:0:
42,192,74462,128,2,74796:2:0:0:0:
298,192,74796,128,2,75462:2:0:0:0:
384,192,74796,1,8,1:0:0:0:
192,192,75462,128,2,76129:2:0:0:0:
384,192,75462,1,8,1:0:0:0:
128,192,76129,1,4,3:0:0:0:
64,192,76129,1,12,1:0:0:0:
384,192,76129,1,14,2:0:0:0:
448,192,76129,1,14,3:0:0:0:
384,192,76796,1,8,1:0:0:0:
128,192,76796,1,0,3:0:0:0:
42,192,76796,1,0,2:0:0:0:
384,192,77462,1,8,1:0:0:0:
128,192,77462,1,0,3:0:0:0:
42,192,77462,1,0,2:0:0:0:
384,192,78129,1,8,1:0:0:0:
42,192,78129,1,0,2:0:0:0:
128,192,78129,1,0,3:0:0:0:
384,192,78796,1,8,1:0:0:0:
128,192,78796,1,0,3:0:0:0:
469,192,78796,1,0,2:0:0:0:
469,192,79462,1,8,1:0:0:0:
128,192,79462,1,0,3:0:0:0:
384,192,79462,1,0,2:0:0:0:
213,192,79796,128,2,80129:2:0:0:0:
298,192,80129,128,2,80796:2:0:0:0:
384,192,80129,1,8,1:0:0:0:
469,192,80129,1,0,3:0:0:0:
128,192,80796,128,8,81462:1:0:0:0:
469,192,80796,1,2,2:0:0:0:
384,192,80796,1,0,3:0:0:0:
298,192,81462,1,8,1:0:0:0:
384,192,81462,1,0,2:0:0:0:
213,192,81462,1,0,3:0:0:0:
384,192,82129,1,8,1:0:0:0:
128,192,82129,1,0,3:0:0:0:
298,192,82129,1,0,2:0:0:0:
384,192,82796,1,8,1:0:0:0:
128,192,82796,1,0,3:0:0:0:
298,192,82796,1,0,2:0:0:0:
298,192,83462,1,8,1:0:0:0:
128,192,83462,1,0,3:0:0:0:
384,192,83462,1,0,2:0:0:0:
213,192,83796,128,2,84129:2:0:0:0:
384,192,84129,128,2,85129:2:0:0:0:
128,192,84129,1,0,3:0:0:0:
42,192,84129,1,8,1:0:0:0:
42,192,84796,1,8,1:0:0:0:
128,192,84796,1,0,3:0:0:0:
213,192,85129,128,2,85462:2:0:0:0:
298,192,85462,128,2,86129:2:0:0:0:
42,192,85462,1,8,1:0:0:0:
128,192,85462,1,0,3:0:0:0:
213,192,86129,1,8,1:0:0:0:
128,192,86129,1,0,3:0:0:0:
42,192,86129,128,2,86796:2:0:0:0:
384,192,86796,1,8,1:0:0:0:
128,192,86796,1,0,3:0:0:0:
298,192,86796,1,0,2:0:0:0:
128,192,87462,1,8,1:0:0:0:
298,192,87462,1,0,3:0:0:0:
384,192,87462,1,0,2:0:0:0:
128,192,88129,1,8,1:0:0:0:
213,192,88129,1,0,3:0:0:0:
384,192,88129,1,0,2:0:0:0:
128,192,88796,1,8,1:0:0:0:
213,192,88796,1,0,3:0:0:0:
384,192,88796,1,0,2:0:0:0:
213,192,89462,1,8,1:0:0:0:
42,192,89462,1,0,3:0:0:0:
469,192,89462,1,0,2:0:0:0:
213,192,90129,1,8,1:0:0:0:
42,192,90129,1,0,3:0:0:0:
469,192,90129,1,0,2:0:0:0:
298,192,90462,128,2,90796:2:0:0:0:
42,192,90796,128,2,91462:2:0:0:0:
128,192,90796,1,8,1:0:0:0:
384,192,90796,1,0,3:0:0:0:
384,192,91462,1,8,1:0:0:0:
469,192,91462,128,2,93796:2:0:0:0:
298,192,91462,1,0,3:0:0:0:
128,192,92129,1,8,1:0:0:0:
213,192,92129,1,0,3:0:0:0:
298,192,92129,1,0,2:0:0:0:
213,192,92796,1,8,1:0:0:0:
128,192,92796,1,0,2:0:0:0:
298,192,92796,1,0,3:0:0:0:
213,192,93462,1,8,1:0:0:0:
298,192,93462,1,0,3:0:0:0:
128,192,93462,1,0,2:0:0:0:
128,192,93796,128,2,94129:2:0:0:0:
213,192,94129,128,2,94462:2:0:0:0:
469,192,94129,1,8,1:0:0:0:
384,192,94129,1,0,3:0:0:0:
298,192,94462,128,0,94796:2:0:0:0:
42,192,94796,128,2,95796:2:0:0:0:
213,192,94796,1,8,1:0:0:0:
128,192,94796,1,0,3:0:0:0:
384,192,95462,1,8,1:0:0:0:
298,192,95462,1,0,3:0:0:0:
298,192,95796,128,2,96129:2:0:0:0:
128,192,96129,128,2,96796:2:0:0:0:
384,192,96129,1,8,1:0:0:0:
469,192,96129,1,0,3:0:0:0:
384,192,96796,1,8,1:0:0:0:
213,192,96796,128,2,97462:2:0:0:0:
298,192,96796,1,0,3:0:0:0:
128,192,97462,1,0,3:0:0:0:
42,192,97462,1,2,2:0:0:0:
384,192,97462,1,14,2:0:0:0:
448,192,97462,1,14,3:0:0:0:
298,192,98129,128,2,98462:2:0:0:0:
42,192,98462,128,2,98796:2:0:0:0:
298,192,98796,128,2,99129:2:0:0:0:
384,192,99129,128,2,99462:2:0:0:0:
213,192,99462,128,2,99796:2:0:0:0:
298,192,99796,128,2,100129:2:0:0:0:
469,192,100129,128,2,100796:2:0:0:0:
128,192,100796,128,2,101129:2:0:0:0:
298,192,101129,128,2,101462:2:0:0:0:
213,192,101462,128,2,101796:2:0:0:0:
128,192,101796,128,2,102796:2:0:0:0:
128,192,104462,128,2,104796:2:0:0:0:
384,192,104796,128,2,105129:2:0:0:0:
128,192,105129,128,2,105462:2:0:0:0:
213,192,105462,128,2,106129:2:0:0:0:
320,192,106462,128,2,106796:2:0:0:0:
469,192,106796,128,2,107129:2:0:0:0:
213,192,107129,128,2,107462:2:0:0:0:
42,192,107462,128,2,108462:2:0:0:0:
384,192,108462,128,2,108796:2:0:0:0:
320,192,108796,128,2,109129:2:0:0:0:
384,192,109129,128,2,109462:2:0:0:0:
213,192,109462,128,2,109796:2:0:0:0:
384,192,109796,128,2,110129:2:0:0:0:
128,192,110129,128,2,110462:2:0:0:0:
384,192,110462,128,2,110796:2:0:0:0:
469,192,110796,128,2,111462:2:0:0:0:
128,192,111796,128,2,112129:2:0:0:0:
384,192,112129,128,2,112462:2:0:0:0:
213,192,112462,128,2,112796:2:0:0:0:
469,192,112796,128,2,113796:2:0:0:0:
320,192,115129,128,2,115462:2:0:0:0:
469,192,115462,128,2,115796:2:0:0:0:
42,192,115796,128,2,116796:2:0:0:0:
298,192,117796,128,2,118129:2:0:0:0:
128,192,118129,128,2,118462:2:0:0:0:
298,192,118462,128,2,118796:2:0:0:0:
213,192,118796,1,8,1:0:0:0:
42,192,118796,1,14,2:0:0:0:
384,192,118796,128,2,119462:2:0:0:0:
128,192,118796,1,0,1:0:0:65:
298,192,123129,132,2,123462:2:0:0:0:
128,192,123462,128,2,123796:2:0:0:0:
384,192,123796,128,2,124129:2:0:0:0:
298,192,124129,128,2,124796:2:0:0:0:
384,192,128462,132,2,128796:2:0:0:0:
128,192,128796,128,2,129296:2:0:0:0:
213,192,129296,1,2,2:0:0:0:
298,192,129462,1,8,1:0:0:0:
384,192,129462,1,2,3:0:0:0:
469,192,129462,1,0,1:0:0:65:
213,192,129796,128,2,130129:2:0:0:0:
384,192,130129,128,2,130629:2:0:0:0:
298,192,130629,1,2,2:0:0:0:
128,192,130796,1,0,0:0:0:100:snare.wav
213,192,130796,1,0,1:0:0:65:
384,192,131129,128,2,131462:2:0:0:0:
213,192,131462,128,2,131962:2:0:0:0:
298,192,131962,1,2,2:0:0:0:
42,192,132129,1,0,1:0:0:65:
128,192,132129,1,0,0:0:0:100:snare.wav
384,192,132462,128,2,132796:2:0:0:0:
298,192,132796,128,2,133129:2:0:0:0:
128,192,133462,1,0,0:0:0:100:snare.wav
213,192,133462,1,0,1:0:0:65:
298,192,133796,128,2,134129:2:0:0:0:
213,192,134129,128,2,134629:2:0:0:0:
298,192,134629,1,2,2:0:0:0:
128,192,134796,1,0,1:0:0:65:
42,192,134796,1,0,0:0:0:100:snare.wav
384,192,134796,128,2,135462:2:0:0:0:
298,192,136129,1,0,0:0:0:100:snare.wav
384,192,136129,1,0,1:0:0:65:
213,192,136462,128,2,136796:2:0:0:0:
128,192,136796,128,2,137296:2:0:0:0:
213,192,137296,1,2,2:0:0:0:
298,192,137462,1,0,0:0:0:100:snare.wav
384,192,137462,128,2,138462:2:0:0:0:
298,192,138796,1,0,1:0:0:65:
128,192,138796,1,0,0:0:0:100:snare.wav
213,192,139462,1,0,1:0:0:65:
298,192,139796,1,0,1:0:0:65:
128,192,140129,1,8,1:0:0:0:
384,192,140129,1,14,2:0:0:0:
469,192,140129,1,0,0:0:0:100:snare.wav
42,192,140129,1,2,2:0:0:0:
213,192,140462,1,2,2:0:0:0:
298,192,140796,1,0,0:0:0:100:snare.wav
384,192,140796,1,0,3:0:0:0:
469,192,140796,1,2,2:0:0:0:
298,192,141462,1,8,1:0:0:0:
384,192,141462,1,0,0:0:0:100:snare.wav
469,192,141462,1,2,2:0:0:0:
128,192,141796,1,2,2:0:0:0:
213,192,142129,1,0,0:0:0:100:snare.wav
384,192,142129,1,0,3:0:0:0:
298,192,142129,1,2,2:0:0:0:
384,192,142462,1,0,0:0:0:100:snare.wav
298,192,142462,1,0,3:0:0:0:
213,192,142796,1,8,1:0:0:0:
128,192,142796,1,0,0:0:0:100:snare.wav
298,192,142796,1,2,2:0:0:0:
384,192,143129,1,2,2:0:0:0:
298,192,143462,1,0,0:0:0:100:snare.wav
128,192,143462,1,0,3:0:0:0:
42,192,143462,1,2,2:0:0:0:
298,192,144129,1,8,1:0:0:0:
469,192,144129,1,0,0:0:0:100:snare.wav
384,192,144129,1,2,2:0:0:0:
128,192,144462,1,2,2:0:0:0:
298,192,144796,1,0,0:0:0:100:snare.wav
213,192,144796,1,0,3:0:0:0:
384,192,144796,1,2,2:0:0:0:
213,192,145462,1,8,1:0:0:0:
384,192,145462,1,0,0:0:0:100:snare.wav
298,192,145462,1,2,2:0:0:0:
42,192,145796,1,0,3:0:0:0:
128,192,145796,1,0,0:0:0:100:snare.wav
298,192,146129,1,0,0:0:0:100:snare.wav
384,192,146129,1,0,3:0:0:0:
213,192,146462,1,0,0:0:0:100:snare.wav
128,192,146462,1,0,3:0:0:0:
384,192,146796,1,0,0:0:0:100:snare.wav
469,192,146796,1,8,1:0:0:0:
298,192,146796,1,2,2:0:0:0:
128,192,147129,1,0,3:0:0:0:
42,192,147129,1,0,0:0:0:100:snare.wav
469,192,147462,1,0,0:0:0:100:snare.wav
384,192,147462,1,0,3:0:0:0:
128,192,147796,1,0,0:0:0:100:snare.wav
213,192,147796,1,0,3:0:0:0:
298,192,148129,1,8,1:0:0:0:
384,192,148129,1,0,0:0:0:100:snare.wav
213,192,148296,1,0,0:0:0:100:snare.wav
128,192,148462,1,0,0:0:0:100:snare.wav
298,192,148629,1,0,0:0:0:100:snare.wav
213,192,148796,1,0,0:0:0:100:snare.wav
128,192,148962,1,0,0:0:0:100:snare.wav
213,192,149129,1,0,0:0:0:100:snare.wav
298,192,149296,1,0,0:0:0:100:snare.wav
384,192,149462,1,8,1:0:0:0:
128,192,149462,1,0,0:0:0:100:snare.wav
213,192,149629,1,0,0:0:0:100:snare.wav
298,192,149796,1,0,0:0:0:100:snare.wav
128,192,149962,1,0,0:0:0:100:snare.wav
213,192,150129,1,0,0:0:0:100:snare.wav
298,192,150296,1,0,0:0:0:100:snare.wav
384,192,150462,1,0,0:0:0:100:snare.wav
469,192,150629,1,0,0:0:0:100:snare.wav
128,192,151129,128,2,151462:2:0:0:0:
213,192,151462,128,2,151796:2:0:0:0:
298,192,151796,128,2,152129:2:0:0:0:
384,192,152129,1,14,2:0:0:0:
448,192,152129,128,14,154462:3:0:0:0:
128,192,152129,1,4,3:0:0:0:
64,192,152129,1,12,1:0:0:0:
213,192,152795,1,0,1:0:0:100:snare.wav
128,192,152795,1,10,3:0:0:0:
42,192,152795,1,8,1:0:0:0:
213,192,153462,1,8,1:0:0:0:
128,192,153462,1,0,3:0:0:0:
42,192,154129,1,10,3:0:0:0:
213,192,154129,1,0,1:0:0:100:snare.wav
128,192,154129,1,8,1:0:0:0:
298,192,154462,128,2,154795:2:0:0:0:
128,192,154795,1,8,1:0:0:0:
384,192,154795,128,2,155129:2:0:0:0:
42,192,154795,1,0,3:0:0:0:
298,192,155129,128,2,156462:2:0:0:0:
213,192,155462,1,10,3:0:0:0:
128,192,155462,1,0,1:0:0:100:snare.wav
42,192,155462,1,8,1:0:0:0:
128,192,156129,1,8,1:0:0:0:
213,192,156129,1,0,3:0:0:0:
469,192,156462,128,2,156795:2:0:0:0:
128,192,156795,1,0,1:0:0:100:snare.wav
213,192,156795,1,8,1:0:0:0:
42,192,156795,1,10,3:0:0:0:
298,192,156795,128,2,157129:2:0:0:0:
384,192,157129,128,2,157295:2:0:0:0:
469,192,157295,128,2,159129:2:0:0:0:
42,192,157462,1,8,1:0:0:0:
128,192,157462,1,0,3:0:0:0:
128,192,158129,1,10,3:0:0:0:
213,192,158129,1,0,1:0:0:100:snare.wav
42,192,158129,1,8,1:0:0:0:
128,192,158795,1,8,1:0:0:0:
213,192,158795,1,0,3:0:0:0:
298,192,159129,128,2,159462:2:0:0:0:
42,192,159462,1,10,3:0:0:0:
469,192,159462,128,2,159795:2:0:0:0:
128,192,159462,1,8,1:0:0:0:
213,192,159462,1,0,1:0:0:100:snare.wav
298,192,159795,128,2,159962:2:0:0:0:
384,192,159962,128,2,161129:2:0:0:0:
128,192,160129,1,8,1:0:0:0:
42,192,160129,1,0,3:0:0:0:
213,192,160795,1,10,3:0:0:0:
128,192,160795,1,0,1:0:0:100:snare.wav
42,192,160795,1,8,1:0:0:0:
298,192,161129,128,2,161462:2:0:0:0:
213,192,161462,1,8,1:0:0:0:
128,192,161462,1,0,3:0:0:0:
298,192,161795,128,2,162129:2:0:0:0:
469,192,162129,128,2,162462:2:0:0:0:
42,192,162129,1,10,3:0:0:0:
213,192,162129,1,0,1:0:0:100:snare.wav
128,192,162129,1,8,1:0:0:0:
298,192,162462,128,2,162795:2:0:0:0:
469,192,162795,1,8,1:0:0:0:
42,192,162795,128,2,164462:2:0:0:0:
384,192,162795,1,0,3:0:0:0:
469,192,163462,1,10,3:0:0:0:
298,192,163462,1,0,1:0:0:100:snare.wav
384,192,163462,1,8,1:0:0:0:
298,192,164129,1,8,1:0:0:0:
384,192,164129,1,0,3:0:0:0:
213,192,164462,128,2,164795:2:0:0:0:
469,192,164795,1,10,3:0:0:0:
42,192,164795,128,2,165129:2:0:0:0:
384,192,164795,1,0,1:0:0:100:snare.wav
298,192,164795,1,8,1:0:0:0:
128,192,165129,128,2,165295:2:0:0:0:
192,192,165295,128,2,167795:2:0:0:0:
384,192,165462,1,8,1:0:0:0:
469,192,165462,1,0,3:0:0:0:
298,192,166129,1,10,3:0:0:0:
469,192,166129,1,0,1:0:0:100:snare.wav
384,192,166129,1,8,1:0:0:0:
384,192,166795,1,8,1:0:0:0:
298,192,166795,1,0,3:0:0:0:
469,192,167462,1,10,3:0:0:0:
298,192,167462,1,0,1:0:0:100:snare.wav
384,192,167462,1,8,1:0:0:0:
42,192,167795,128,2,168128:2:0:0:0:
469,192,168128,1,8,1:0:0:0:
213,192,168128,128,2,168462:2:0:0:0:
384,192,168128,1,0,3:0:0:0:
128,192,168462,128,2,168795:2:0:0:0:
469,192,168795,1,10,3:0:0:0:
213,192,168795,128,2,169128:2:0:0:0:
298,192,168795,1,0,1:0:0:100:snare.wav
384,192,168795,1,8,1:0:0:0:
42,192,169128,128,2,169462:2:0:0:0:
384,192,169462,1,8,1:0:0:0:
213,192,169462,128,2,169795:2:0:0:0:
298,192,169462,1,0,3:0:0:0:
42,192,169795,128,2,170128:2:0:0:0:
384,192,170128,1,2,2:0:0:0:
213,192,170128,128,10,170462:3:0:0:0:
298,192,170128,1,8,1:0:0:0:
469,192,170128,1,0,1:0:0:100:snare.wav
128,192,170462,128,2,170628:2:0:0:0:
192,192,170628,128,2,171795:2:0:0:0:
384,192,170795,1,8,1:0:0:0:
469,192,170795,1,0,3:0:0:0:
469,192,171462,1,10,3:0:0:0:
298,192,171462,1,0,1:0:0:100:snare.wav
384,192,171462,1,8,1:0:0:0:
42,192,171795,128,2,172128:2:0:0:0:
384,192,172128,1,8,1:0:0:0:
128,192,172128,128,2,172795:2:0:0:0:
298,192,172128,1,0,3:0:0:0:
42,192,172795,128,2,173462:2:0:0:0:
298,192,172795,1,10,3:0:0:0:
384,192,172795,1,0,1:0:0:100:snare.wav
469,192,172795,1,8,1:0:0:0:
469,192,173462,1,12,1:0:0:0:
384,192,173462,1,14,3:0:0:0:
213,192,173462,128,4,173628:3:0:0:0:
298,192,173462,128,14,173628:2:0:0:0:
298,192,173795,128,0,173962:3:0:0:0:
213,192,173795,128,2,173962:3:0:0:0:
128,192,174128,128,0,174295:1:0:0:100:snare.wav
384,192,174128,128,10,174295:3:0:0:0:
128,192,174462,128,0,174628:3:0:0:0:
384,192,174462,128,2,174628:3:0:0:0:
469,192,174795,128,0,174962:3:0:0:0:
298,192,174795,128,8,174962:1:0:0:0:
469,192,175128,128,2,175295:3:0:0:0:
213,192,175128,128,0,175295:3:0:0:0:
213,192,175462,128,10,175628:3:0:0:0:
298,192,175462,128,0,175628:1:0:0:100:snare.wav
128,192,175795,128,2,175962:3:0:0:0:
384,192,175795,128,0,175962:3:0:0:0:
298,192,176128,128,0,176295:3:0:0:0:
384,192,176128,128,8,176295:1:0:0:0:
213,192,176462,128,0,176628:3:0:0:0:
128,192,176462,128,2,176628:3:0:0:0:
128,192,176795,128,0,176962:1:0:0:100:snare.wav
213,192,176795,128,10,176962:3:0:0:0:
384,192,177128,128,2,177295:2:0:0:0:
298,192,177128,128,2,177295:3:0:0:0:
213,192,177462,128,0,177628:3:0:0:0:
128,192,177462,128,2,177628:2:0:0:0:
384,192,177462,128,8,177628:1:0:0:0:
213,192,177795,128,0,177962:3:0:0:0:
128,192,177795,128,2,177962:3:0:0:0:
64,192,178128,128,8,178295:1:0:0:0:
128,192,178128,128,0,178295:1:0:0:100:snare.wav
298,192,178128,128,10,178295:3:0:0:0:
128,192,178462,128,2,178628:3:0:0:0:
42,192,178462,128,0,178628:3:0:0:0:
213,192,178795,128,0,178962:3:0:0:0:
384,192,178795,128,8,178962:1:0:0:0:
384,192,179128,128,0,179295:3:0:0:0:
213,192,179128,128,2,179295:3:0:0:0:
128,192,179462,128,0,179628:1:0:0:100:snare.wav
298,192,179462,128,10,179628:3:0:0:0:
213,192,179795,128,0,179962:3:0:0:0:
128,192,179795,128,2,179962:3:0:0:0:
469,192,180128,128,8,180295:1:0:0:0:
213,192,180128,128,0,180295:3:0:0:0:
213,192,180462,128,0,180628:3:0:0:0:
469,192,180462,128,2,180628:3:0:0:0:
298,192,180795,128,10,180962:3:0:0:0:
384,192,180795,128,0,180962:1:0:0:100:snare.wav
213,192,181128,128,2,181295:2:0:0:0:
128,192,181128,128,2,181295:2:0:0:0:
213,192,181462,128,8,181628:1:0:0:0:
298,192,181462,128,2,181628:2:0:0:0:
384,192,181795,128,0,181962:3:0:0:0:
298,192,181795,128,2,181962:3:0:0:0:
42,192,182128,128,0,182295:1:0:0:100:snare.wav
298,192,182128,128,10,182295:3:0:0:0:
42,192,182462,128,2,182628:2:0:0:0:
298,192,182462,128,2,182628:3:0:0:0:
128,192,182795,128,0,182962:3:0:0:0:
213,192,182795,128,2,182962:2:0:0:0:
384,192,182795,128,8,182962:1:0:0:0:
213,192,183128,128,0,183295:3:0:0:0:
128,192,183128,128,2,183295:3:0:0:0:
298,192,183462,128,0,183628:1:0:0:100:snare.wav
128,192,183462,128,8,183628:1:0:0:0:
384,192,183462,128,10,183628:3:0:0:0:
384,192,183795,128,0,183962:3:0:0:0:
298,192,183795,128,2,183962:3:0:0:0:
384,192,184128,128,4,184295:3:0:0:0:
128,192,184128,128,8,184295:1:0:0:0:
214,192,184128,128,6,184295:2:0:0:0:
128,192,184462,128,0,184628:3:0:0:0:
213,192,184462,128,2,184628:3:0:0:0:
298,192,184795,128,0,184962:1:0:0:100:snare.wav
384,192,184795,128,10,184962:3:0:0:0:
384,192,185128,128,0,185295:3:0:0:0:
298,192,185128,128,2,185295:3:0:0:0:
128,192,185462,128,0,185628:3:0:0:0:
298,192,185462,128,8,185628:1:0:0:0:
213,192,185795,128,2,185962:3:0:0:0:
384,192,185795,128,0,185962:3:0:0:0:
298,192,186128,128,10,186295:3:0:0:0:
128,192,186128,128,0,186295:1:0:0:100:snare.wav
213,192,186462,128,0,186628:3:0:0:0:
128,192,186462,128,2,186628:3:0:0:0:
128,192,186795,128,8,186962:1:0:0:0:
42,192,186795,128,0,186962:3:0:0:0:
42,192,187128,128,0,187295:3:0:0:0:
128,192,187128,128,2,187295:3:0:0:0:
384,192,187462,128,0,187628:1:0:0:100:snare.wav
213,192,187462,128,10,187628:3:0:0:0:
213,192,187795,128,2,187962:3:0:0:0:
384,192,187795,128,2,187962:2:0:0:0:
298,192,188128,128,0,188295:3:0:0:0:
128,192,188128,128,8,188295:1:0:0:0:
384,192,188128,128,0,188295:2:0:0:0:
298,192,188462,128,2,188628:3:0:0:0:
384,192,188462,128,0,188628:3:0:0:0:
42,192,188795,128,8,188962:1:0:0:0:
298,192,188795,128,0,188962:1:0:0:100:snare.wav
128,192,188795,128,10,188962:3:0:0:0:
213,192,189128,128,0,189295:3:0:0:0:
384,192,189128,128,2,189295:3:0:0:0:
469,192,189462,128,8,189628:1:0:0:0:
128,192,189462,128,0,189628:3:0:0:0:
469,192,189795,128,0,189962:3:0:0:0:
128,192,189795,128,2,189962:3:0:0:0:
298,192,190128,128,0,190295:1:0:0:100:snare.wav
213,192,190128,128,10,190295:3:0:0:0:
298,192,190462,128,0,190628:3:0:0:0:
213,192,190462,128,2,190628:3:0:0:0:
384,192,190795,128,8,190962:1:0:0:0:
42,192,190795,128,0,190962:3:0:0:0:
128,192,191128,128,2,191295:2:0:0:0:
213,192,191128,128,2,191295:3:0:0:0:
128,192,191462,128,10,191628:3:0:0:0:
298,192,191462,128,0,191628:1:0:0:100:snare.wav
384,192,191795,128,2,191962:2:0:0:0:
213,192,191795,128,2,191962:2:0:0:0:
384,192,192128,128,2,192295:2:0:0:0:
298,192,192128,128,8,192295:1:0:0:0:
128,192,192462,128,0,192628:3:0:0:0:
213,192,192462,128,2,192628:3:0:0:0:
128,192,192795,128,0,192962:1:0:0:100:snare.wav
213,192,192795,128,10,192962:3:0:0:0:
298,192,193128,128,2,193295:2:0:0:0:
384,192,193128,128,2,193295:3:0:0:0:
469,192,193462,128,8,193628:1:0:0:0:
42,192,193462,128,0,193628:3:0:0:0:
469,192,193795,128,0,193962:3:0:0:0:
42,192,193795,128,2,193962:3:0:0:0:
384,192,194128,128,0,194295:1:0:0:100:snare.wav
128,192,194128,128,10,194295:3:0:0:0:
298,192,194462,128,0,194628:3:0:0:0:
213,192,194462,128,2,194628:3:0:0:0:
469,192,194795,1,14,3:0:0:0:
384,192,194795,1,0,1:0:0:100:snare.wav
128,192,194796,1,14,2:0:0:0:
42,192,194796,1,0,3:0:0:0:
128,192,196129,1,2,2:0:0:0:
384,192,196796,1,2,2:0:0:0:
128,192,197462,1,0,0:0:0:20:steel.wav
213,192,197462,1,2,2:0:0:0:
298,192,198129,1,2,2:0:0:0:
384,192,198796,1,0,0:0:0:20:steel.wav
128,192,198796,1,2,2:0:0:0:
298,192,199462,1,2,2:0:0:0:
213,192,200129,1,2,2:0:0:0:
128,192,200796,128,2,205667:2:0:0:0:
213,192,201462,1,2,2:0:0:0:
298,192,202251,1,2,2:0:0:0:
384,192,203267,128,2,205667:2:0:0:0:
