osu file format v14

[General]
AudioFilename: audio.mp3
AudioLeadIn: 0
PreviewTime: 53921
Countdown: 1
SampleSet: Normal
StackLeniency: 0.7
Mode: 0
LetterboxInBreaks: 0
WidescreenStoryboard: 1

[Editor]
DistanceSpacing: 1.2
BeatDivisor: 8
GridSize: 16
TimelineZoom: 1

[Metadata]
Title:Faded
TitleUnicode:Faded
Artist:Alan Walker
ArtistUnicode:Alan Walker
Creator:Rekinaja
Version:44
Source:
Tags:
BeatmapID:1087265
BeatmapSetID:511042

[Difficulty]
HPDrainRate:5
CircleSize:4
OverallDifficulty:7
ApproachRate:9
SliderMultiplier:2.4
SliderTickRate:1

[Events]
//Background and Video events
0,0,"219048-deep-blue-sea-1280x720.jpg",0,0
//Break Periods
2,52121,53654
//Storyboard Layer 0 (Background)
//Storyboard Layer 1 (Fail)
//Storyboard Layer 2 (Pass)
//Storyboard Layer 3 (Foreground)
//Storyboard Sound Samples

[TimingPoints]
588.125146301498,666.666666666667,4,1,0,30,1,0
32588,-100,4,1,0,30,0,0
43254,-100,4,1,0,30,0,0
54254,-66.6666666666667,4,1,0,50,0,0
55254,666.666666666667,4,1,0,50,1,0
55254,-66.6666666666667,4,1,0,60,0,0
57920,-55.5555555555556,4,1,0,60,0,0
59920,-100,4,1,0,60,0,0
60587,-66.6666666666667,4,1,0,60,0,0
63254,-83.3333333333333,4,1,0,60,0,0
65254,-100,4,1,0,60,0,0
65920,-66.6666666666667,4,1,0,60,0,0
68587,-55.5555555555556,4,1,0,60,0,0
70587,-100,4,1,0,60,0,0
71254,-66.6666666666667,4,1,0,60,0,0
73920,-83.3333333333333,4,1,0,60,0,0
75254,-100,4,1,0,60,0,0
76504,-66.6666666666667,4,1,0,60,0,1
81915,-66.6666666666667,4,1,0,60,0,0
82587,-50,4,1,0,60,0,0
83254,-66.6666666666667,4,1,0,60,0,0
83920,-100,4,1,0,60,0,0
84587,-133.333333333333,4,1,0,60,0,0
85837,-50,4,1,0,60,0,0
86587,-100,4,1,0,60,0,0
87254,-66.6666666666667,4,1,0,60,0,1
89254,-50,4,1,0,60,0,1
89920,-66.6666666666667,4,1,0,60,0,1
91920,-100,4,1,0,60,0,1
92587,-66.6666666666667,4,1,0,60,0,0
93920,-55.5555555555556,4,1,0,60,0,0
94587,-100,4,1,0,60,0,0
95587,-66.6666666666667,4,1,0,60,0,0
96587,-50,4,1,0,60,0,0
97254,-100,4,1,0,60,0,0
97920,-100,4,1,0,30,0,0
141754,-50,4,1,0,50,0,0
142587,-100,4,1,0,50,0,0
144587,-50,4,1,0,50,0,0
144920,-100,4,1,0,50,0,0
147254,-50,4,1,0,50,0,0
147587,-100,4,1,0,50,0,0
151254,-50,4,1,0,60,0,0
152587,-66.6666666666667,4,1,0,60,0,0
154587,-50,4,1,0,60,0,0
155254,-55.5555555555556,4,1,0,60,0,0
156254,-66.6666666666667,4,1,0,60,0,0
157254,-100,4,1,0,60,0,0
157920,-66.6666666666667,4,1,0,60,0,0
160587,-83.3333333333333,4,1,0,60,0,0
161920,-66.6666666666667,4,1,0,60,0,0
162587,-100,4,1,0,60,0,0
163254,-66.6666666666667,4,1,0,60,0,0
165254,-50,4,1,0,60,0,0
165920,-55.5555555555556,4,1,0,60,0,0
166920,-66.6666666666667,4,1,0,60,0,0
167920,-100,4,1,0,60,0,0
168587,-66.6666666666667,4,1,0,60,0,0
171254,-83.3333333333333,4,1,0,60,0,0
172587,-100,4,1,0,60,0,0
173920,-66.6666666666667,4,1,0,60,0,1
175920,-50,4,1,0,60,0,1
176587,-55.5555555555556,4,1,0,60,0,1
177587,-66.6666666666667,4,1,0,60,0,1
178587,-100,4,1,0,60,0,1
179254,-66.6666666666667,4,1,0,60,0,0
180587,-83.3333333333333,4,1,0,60,0,0
181920,-100,4,1,0,60,0,0
183254,-50,4,1,0,60,0,0
183920,-100,4,1,0,60,0,0
184587,-66.6666666666667,4,1,0,60,0,1
187254,-58.8235294117647,4,1,0,60,0,1
188254,-66.6666666666667,4,1,0,60,0,1
189254,-83.3333333333333,4,1,0,60,0,1
189920,-66.6666666666667,4,1,0,60,0,0
191254,-55.5555555555556,4,1,0,60,0,0
192587,-100,4,1,0,60,0,0
193920,-50,4,1,0,60,0,0
194587,-100,4,1,0,50,0,0
195254,-100,4,1,0,30,0,0
201920,800,4,1,0,25,1,0
202720,923.076923076923,4,1,0,20,1,0
203181,1090.90909090909,4,1,0,10,1,0

[Colours]
Combo1 : 220,31,112
Combo2 : 164,32,240
Combo3 : 0,230,230
Combo4 : 0,128,255

[HitObjects]
160,64,588,6,0,P|208:64|272:112,1,120
176,160,1254,1,0,0:0:0:0:
112,224,1588,1,0,0:0:0:0:
64,112,1921,2,0,P|112:112|176:160,1,120
208,256,2588,1,0,0:0:0:0:
272,192,2921,1,0,0:0:0:0:
336,128,3254,6,0,L|432:32,1,120
240,96,3921,1,0,0:0:0:0:
144,96,4254,1,0,0:0:0:0:
64,176,4588,2,0,L|192:176,1,120
192,304,5254,1,0,0:0:0:0:
128,240,5588,1,0,0:0:0:0:
288,192,5921,6,0,P|304:240|272:304,1,120
208,224,6588,1,0,0:0:0:0:
128,176,6921,1,0,0:0:0:0:
208,128,7254,2,0,P|224:176|192:240,1,120
96,320,7921,1,0,0:0:0:0:
96,224,8254,1,0,0:0:0:0:
96,144,8588,6,0,L|96:16,1,120
192,80,9254,1,0,0:0:0:0:
256,128,9588,1,0,0:0:0:0:
272,272,9921,2,0,L|192:176,1,120
80,256,10588,1,0,0:0:0:0:
176,256,10921,1,0,0:0:0:0:
224,336,11254,1,0,0:0:0:0:
368,224,11588,6,0,P|400:272|400:336,1,120
256,256,12254,1,0,0:0:0:0:
304,176,12588,1,0,0:0:0:0:
400,176,12921,1,0,0:0:0:0:
256,64,13254,1,0,0:0:0:0:
320,160,13588,1,0,0:0:0:0:
224,256,13921,2,0,P|160:176|256:80,1,240
256,176,14921,1,0,0:0:0:0:
112,288,15254,1,0,0:0:0:0:
64,112,15588,2,0,B|144:48|160:192|288:96,1,240
352,144,16588,6,0,L|288:256,1,120
384,240,17254,2,0,L|320:368,1,120
240,288,17921,1,0,0:0:0:0:
144,224,18254,5,0,0:0:0:0:
176,80,18588,1,0,0:0:0:0:
224,192,18921,1,0,0:0:0:0:
96,128,19254,2,0,L|304:0,1,240
448,64,20254,1,0,0:0:0:0:
368,208,20588,1,0,0:0:0:0:
304,144,20921,1,0,0:0:0:0:
464,208,21254,2,0,P|448:256|384:288,1,120
272,304,21921,6,0,L|320:176,1,120
240,112,22588,1,0,0:0:0:0:
144,112,22921,1,0,0:0:0:0:
96,192,23254,1,0,0:0:0:0:
144,112,23588,1,0,0:0:0:0:
240,112,23921,6,0,P|272:96|320:16,1,120
240,192,24588,2,0,P|320:160|416:32,1,240
224,32,25588,1,0,0:0:0:0:
208,272,25921,1,0,0:0:0:0:
304,304,26254,2,0,P|272:208|128:224,1,240
144,96,27254,6,0,L|256:16,1,120
272,96,27921,2,0,L|384:16,1,120
384,128,28588,1,0,0:0:0:0:
320,256,28921,5,0,0:0:0:0:
208,192,29254,1,0,0:0:0:0:
304,160,29588,1,0,0:0:0:0:
224,304,29921,6,0,P|176:304|112:256,1,120
96,176,30588,2,0,P|144:176|208:224,1,120
64,272,31254,1,0,0:0:0:0:
80,96,31588,6,0,B|128:64|160:64|128:48,1,90
160,128,31921,2,0,B|112:160|80:160|112:176,1,90
176,208,32254,2,0,P|208:192|224:128,1,90
224,96,32588,5,0,0:0:0:0:
272,240,32921,1,0,0:0:0:0:
160,160,33254,1,0,0:0:0:0:
304,128,33588,1,0,0:0:0:0:
192,224,33921,1,0,0:0:0:0:
240,80,34254,1,0,0:0:0:0:
320,192,34588,1,0,0:0:0:0:
176,128,34921,1,0,0:0:0:0:
320,112,35254,5,0,0:0:0:0:
192,48,35588,1,0,0:0:0:0:
192,192,35921,1,0,0:0:0:0:
272,64,36254,1,0,0:0:0:0:
128,128,36588,1,0,0:0:0:0:
256,224,36921,1,0,0:0:0:0:
208,80,37254,1,0,0:0:0:0:
96,192,37588,1,0,0:0:0:0:
272,128,37921,5,0,0:0:0:0:
160,240,38254,1,0,0:0:0:0:
352,192,38588,1,0,0:0:0:0:
144,160,38921,1,0,0:0:0:0:
272,256,39254,5,0,0:0:0:0:
224,96,39588,1,0,0:0:0:0:
368,192,39921,1,0,0:0:0:0:
144,160,40254,1,0,0:0:0:0:
192,224,40588,5,0,0:0:0:0:
304,144,40921,1,0,0:0:0:0:
256,272,41254,1,0,0:0:0:0:
256,80,41588,1,0,0:0:0:0:
320,240,41921,1,0,0:0:0:0:
192,128,42254,1,0,0:0:0:0:
352,176,42588,1,0,0:0:0:0:
160,192,42921,1,0,0:0:0:0:
208,272,43254,6,0,L|336:48,1,240
327,63,44588,1,0,0:0:0:0:
327,63,44921,5,0,0:0:0:0:
228,63,45088,1,0,0:0:0:0:
173,156,45254,2,0,P|221:172|292:147,1,120
228,63,45754,1,0,0:0:0:0:
128,64,45921,6,0,P|74:167|19:283,1,240
20,278,47254,1,0,0:0:0:0:
128,288,47588,6,0,P|144:256|186:215,1,90
242,205,47921,2,0,P|242:157|221:113,1,90
160,112,48254,2,0,P|176:80|232:54,1,90
272,64,48588,6,0,B|320:160|403:265,1,240
402,264,49921,1,0,0:0:0:0:
402,264,50254,5,0,0:0:0:0:
256,272,50588,2,0,L|281:182,1,90
192,128,50921,2,0,L|215:221,1,90
160,256,51254,2,0,P|128:240|111:154,1,120
144,80,51921,1,0,0:0:0:0:
192,80,54254,5,0,0:0:0:0:
288,160,54421,1,0,0:0:0:0:
176,192,54588,1,0,0:0:0:0:
272,80,54754,1,0,0:0:0:0:
336,256,54921,1,0,0:0:0:0:
176,192,55088,1,0,0:0:0:0:
272,80,55254,6,0,P|304:96|368:96,1,90.0000034332277
176,192,55587,2,0,P|144:176|80:176,1,90.0000034332277
224,320,55920,6,0,P|272:256|272:240,1,90.0000034332277
144,48,56254,2,0,P|160:80|208:112,1,90.0000034332277
432,128,56587,2,0,P|384:160|336:160,1,90.0000034332277
80,256,56920,2,0,P|128:224|176:224,1,90.0000034332277
224,224,57254,5,0,0:0:0:0:
288,128,57420,5,0,0:0:0:0:
336,224,57587,1,0,0:0:0:0:
304,48,57754,5,0,0:0:0:0:
304,48,57920,2,0,P|368:80|400:112,1,107.999996704102
208,336,58254,2,0,P|144:304|112:272,1,107.999996704102
96,32,58587,2,0,P|160:64|192:96,1,107.999996704102
400,320,58920,2,0,P|336:288|288:256,1,107.999996704102
400,96,59254,6,0,P|400:144|368:224,1,107.999996704102
96,272,59587,2,0,P|96:224|144:160,1,107.999996704102
224,112,59920,6,0,P|240:144|240:176,1,60
208,304,60254,2,0,P|192:272|192:240,1,60
400,192,60587,6,0,P|336:224|304:224,1,90.0000034332277
112,192,60920,2,0,P|176:160|208:160,1,90.0000034332277
288,128,61254,6,0,P|304:80|288:32,1,90.0000034332277
224,256,61587,2,0,P|208:304|224:352,1,90.0000034332277
192,160,61920,2,0,P|144:144|96:160,1,90.0000034332277
32,304,62254,2,0,P|80:320|128:304,1,90.0000034332277
176,288,62587,5,0,0:0:0:0:
288,208,62754,5,0,0:0:0:0:
192,160,62920,1,0,0:0:0:0:
384,160,63087,5,0,0:0:0:0:
400,272,63254,2,0,P|368:288|320:304,1,71.9999978027344
240,304,63587,2,0,P|224:272|208:224,1,71.9999978027344
112,112,63920,2,0,P|144:96|192:80,1,71.9999978027344
272,80,64254,2,0,P|288:112|304:160,1,71.9999978027344
128,288,64587,6,0,P|128:256|160:208,1,71.9999978027344
384,96,64920,2,0,P|384:128|352:176,1,71.9999978027344
288,192,65254,6,0,P|240:176|224:160,1,60
160,112,65587,2,0,P|144:128|128:176,1,60
64,256,65920,6,0,P|112:272|176:256,1,90.0000034332277
400,208,66254,2,0,P|352:176|304:160,1,90.0000034332277
144,64,66587,6,0,P|192:128|208:144,1,90.0000034332277
368,320,66920,2,0,P|320:256|304:240,1,90.0000034332277
128,304,67254,6,0,P|192:256|224:224,1,90.0000034332277
384,80,67587,2,0,P|320:128|288:160,1,90.0000034332277
256,176,67920,5,0,0:0:0:0:
160,80,68087,5,0,0:0:0:0:
112,208,68254,1,0,0:0:0:0:
208,128,68420,5,0,0:0:0:0:
320,48,68587,2,0,P|368:80|352:128,1,107.999996704102
336,288,68920,2,0,P|288:256|320:192,1,107.999996704102
128,320,69254,6,0,B|144:256|144:256|112:240|80:192,1,107.999996704102
160,48,69587,2,0,B|144:112|144:112|176:128|208:176,1,107.999996704102
304,240,69920,6,0,P|352:192|352:128,1,107.999996704102
96,240,70254,2,0,P|128:288|176:304,1,107.999996704102
224,144,70587,6,0,P|224:112|208:80,1,60
128,144,70920,2,0,P|128:112|112:80,1,60
48,240,71254,6,0,P|112:272|160:272,1,90.0000034332277
464,240,71587,2,0,P|400:272|352:272,1,90.0000034332277
144,160,71920,2,0,P|208:192|256:192,1,90.0000034332277
368,160,72254,2,0,P|304:192|256:192,1,90.0000034332277
256,32,72587,6,0,L|256:160,1,90.0000034332277
256,336,72920,2,0,P|208:304|192:256,1,90.0000034332277
208,208,73254,5,0,0:0:0:0:
320,144,73504,5,0,0:0:0:0:
176,128,73587,1,0,0:0:0:0:
320,224,73837,5,0,0:0:0:0:
128,288,73920,2,0,P|112:240|96:208,1,71.9999978027344
240,176,74254,2,0,P|256:128|272:96,1,71.9999978027344
160,128,74587,2,0,P|144:80|128:48,1,71.9999978027344
352,64,74920,1,0,0:0:0:0:
96,80,75254,6,0,L|238:80,1,120
336,96,75920,2,0,L|201:98,1,120
96,80,76587,6,0,L|224:80,1,90.0000034332277
336,96,76920,2,0,L|240:96,1,90.0000034332277
64,176,77254,6,0,L|176:176,1,90.0000034332277
368,192,77587,2,0,L|272:192,1,90.0000034332277
112,304,77920,6,0,P|160:272|192:240,1,90.0000034332277
272,48,78254,2,0,P|224:80|192:112,1,90.0000034332277
336,160,78587,6,0,P|352:208|336:256,1,90.0000034332277
272,288,78920,1,0,0:0:0:0:
96,224,79087,1,0,0:0:0:0:
96,224,79254,6,0,B|144:224|144:224|208:240,1,90.0000034332277
320,64,79587,2,0,B|320:112|320:112|304:176,1,90.0000034332277
160,144,79920,6,0,P|144:96|160:16,1,90.0000034332277
320,240,80254,2,0,P|336:288|320:368,1,90.0000034332277
96,256,80587,6,0,P|128:224|128:256,1,90.0000034332277
368,96,80920,2,0,P|336:128|336:96,1,90.0000034332277
160,64,81254,6,0,P|176:128|192:160,1,90.0000034332277
272,208,81587,2,0,P|304:224|368:208,1,90.0000034332277
336,112,81920,6,0,P|304:64|256:48,1,90.0000034332277
80,256,82254,2,0,P|112:304|160:320,1,90.0000034332277
304,320,82587,6,0,P|288:272|240:224,1,120
208,32,82920,2,0,P|224:80|272:128,1,120
432,176,83254,6,0,P|368:208|336:208,1,90.0000034332277
80,176,83587,2,0,P|122:202|176:208,1,90.0000034332277
240,112,83920,6,0,P|256:160|256:176,1,60
224,288,84254,1,0,0:0:0:0:
176,48,84420,1,0,0:0:0:0:
224,48,84587,2,0,P|272:48|335:47,1,90.0000034332277
400,144,85254,1,0,0:0:0:0:
336,224,85587,5,0,0:0:0:0:
64,336,85920,6,0,B|64:288|64:288|96:240|96:240|96:208,1,120
448,32,86254,2,0,B|448:80|448:80|416:128|416:128|416:160,1,120
272,352,86587,6,0,B|288:304|288:304|288:288,1,60
176,32,86920,2,0,B|160:80|160:80|160:96,1,60
320,208,87254,6,0,P|352:192|352:128,1,90.0000034332277
192,176,87587,2,0,P|160:192|160:256,1,90.0000034332277
272,128,87920,6,0,P|256:96|192:96,1,90.0000034332277
240,256,88254,2,0,P|256:288|320:288,1,90.0000034332277
144,176,88587,6,0,P|112:192|112:256,1,90.0000034332277
368,208,88920,2,0,P|400:192|400:128,1,90.0000034332277
224,288,89254,6,0,P|256:320|352:320,1,120
272,80,89587,1,0,0:0:0:0:
112,192,89754,1,0,0:0:0:0:
112,176,89920,6,0,P|144:144|192:160,1,90.0000034332277
352,320,90254,2,0,L|272:240,1,90.0000034332277
192,160,90587,6,0,P|224:128|288:160,1,90.0000034332277
432,304,90920,2,0,L|352:224,1,90.0000034332277
112,80,91254,6,0,L|176:144,1,90.0000034332277
353,224,91587,2,0,P|317:257|272:240,1,90.0000034332277
192,64,91920,6,0,L|240:112,1,60
352,144,92254,2,0,P|316:177|304:176,1,60
128,224,92587,6,0,P|160:176|224:160,1,90.0000034332277
336,272,92920,2,0,P|288:288|240:272,1,90.0000034332277
400,176,93254,2,0,P|432:208|448:272,1,90.0000034332277
272,96,93587,2,0,P|304:64|384:48,1,90.0000034332277
208,208,93920,6,0,P|144:224|96:208,1,107.999996704102
32,112,94254,2,0,P|96:96|144:112,1,107.999996704102
304,288,94587,6,0,P|272:288|224:288,1,60
208,288,94920,1,0,0:0:0:0:
208,80,95087,1,0,0:0:0:0:
240,80,95254,2,0,L|368:80,1,120
448,80,95920,1,0,0:0:0:0:
400,192,96254,5,0,0:0:0:0:
64,96,96587,6,0,B|112:96|112:96|144:128|144:128|208:128,1,120
384,320,96920,2,0,B|336:320|336:320|304:288|304:288|240:288,1,120
112,224,97254,6,0,L|176:224,1,60
364,192,97587,2,0,L|284:192,1,60
240,112,97920,5,0,0:0:0:0:
304,192,98254,1,0,0:0:0:0:
208,240,98587,1,0,0:0:0:0:
240,112,98920,1,0,0:0:0:0:
112,112,99254,2,0,P|112:160|160:224,1,120
288,272,99920,5,0,0:0:0:0:
256,144,100087,5,0,0:0:0:0:
288,272,100254,1,0,0:0:0:0:
176,112,100420,5,0,0:0:0:0:
288,64,100587,2,0,P|336:80|368:144,1,120
320,224,101254,1,0,0:0:0:0:
288,144,101587,1,0,0:0:0:0:
208,144,101920,1,0,0:0:0:0:
64,224,102254,2,0,P|144:288|240:208,1,240
304,128,103254,5,0,0:0:0:0:
352,240,103587,1,0,0:0:0:0:
272,64,103920,1,0,0:0:0:0:
352,240,104254,1,0,0:0:0:0:
256,240,104587,5,0,0:0:0:0:
304,128,104920,1,0,0:0:0:0:
224,304,105254,5,0,0:0:0:0:
304,128,105420,5,0,0:0:0:0:
256,240,105587,1,0,0:0:0:0:
336,64,105754,5,0,0:0:0:0:
272,192,105920,2,0,L|336:304,1,120
416,256,106587,1,0,0:0:0:0:
224,272,106920,1,0,0:0:0:0:
176,176,107254,2,0,P|160:144|80:128,1,120
256,176,107920,2,0,P|224:96|80:48,1,240
80,208,108920,6,0,P|112:240|192:256,1,120
256,192,109587,1,0,0:0:0:0:
208,272,109920,1,0,0:0:0:0:
304,272,110254,1,0,0:0:0:0:
208,112,110587,5,0,0:0:0:0:
256,192,110754,5,0,0:0:0:0:
304,272,110920,1,0,0:0:0:0:
256,192,111087,5,0,0:0:0:0:
352,336,111254,2,0,P|384:304|384:224,1,120
352,160,111920,1,0,0:0:0:0:
272,96,112254,1,0,0:0:0:0:
288,208,112587,2,0,B|304:256|304:256|320:224|384:240|416:112,1,240
272,96,113587,1,0,0:0:0:0:
96,224,113920,6,0,P|144:208|208:240,1,120
224,352,114587,1,0,0:0:0:0:
144,288,114920,1,0,0:0:0:0:
208,160,115254,1,0,0:0:0:0:
224,256,115587,1,0,0:0:0:0:
144,288,115920,5,0,0:0:0:0:
208,160,116087,5,0,0:0:0:0:
224,256,116254,1,0,0:0:0:0:
192,64,116420,5,0,0:0:0:0:
320,128,116587,2,0,P|288:160|208:160,1,120
112,112,117254,1,0,0:0:0:0:
192,64,117587,1,0,0:0:0:0:
288,128,117920,1,0,0:0:0:0:
112,224,118254,6,0,B|128:192|128:192|144:192|176:144,1,90
176,112,118587,6,0,B|160:80|176:64|176:64|224:64,1,90
272,80,118920,6,0,P|272:112|320:160,1,90
352,208,119254,5,0,0:0:0:0:
192,208,119587,1,0,0:0:0:0:
352,112,119920,1,0,0:0:0:0:
272,208,120254,1,0,0:0:0:0:
208,112,120587,1,0,0:0:0:0:
64,112,120920,1,0,0:0:0:0:
80,208,121254,5,0,0:0:0:0:
224,112,121420,5,0,0:0:0:0:
64,112,121587,1,0,0:0:0:0:
304,112,121754,5,0,0:0:0:0:
144,112,121920,1,0,0:0:0:0:
208,224,122254,5,0,0:0:0:0:
288,112,122587,1,0,0:0:0:0:
128,192,122920,1,0,0:0:0:0:
304,192,123254,1,0,0:0:0:0:
208,48,123587,1,0,0:0:0:0:
208,240,123920,1,0,0:0:0:0:
320,112,124254,1,0,0:0:0:0:
336,240,124587,5,0,0:0:0:0:
208,240,124920,1,0,0:0:0:0:
288,320,125254,1,0,0:0:0:0:
256,160,125587,1,0,0:0:0:0:
160,304,125920,1,0,0:0:0:0:
320,240,126254,1,0,0:0:0:0:
176,112,126587,5,0,0:0:0:0:
224,240,126754,5,0,0:0:0:0:
176,112,126920,1,0,0:0:0:0:
256,320,127087,5,0,0:0:0:0:
192,176,127254,1,0,0:0:0:0:
320,128,127587,5,0,0:0:0:0:
336,240,127920,1,0,0:0:0:0:
416,80,128254,1,0,0:0:0:0:
256,192,128587,1,0,0:0:0:0:
400,192,128920,5,0,0:0:0:0:
224,80,129254,1,0,0:0:0:0:
256,192,129587,1,0,0:0:0:0:
176,192,129754,1,0,0:0:0:0:
176,192,129920,6,0,P|128:128|0:0,1,240
16,13,131254,1,0,0:0:0:0:
64,272,131587,5,0,0:0:0:0:
144,304,131920,2,0,P|192:256|240:240,1,120
304,272,132420,1,0,0:0:0:0:
336,192,132587,6,0,P|272:176|96:112,1,240
108,117,133920,1,0,0:0:0:0:
96,272,134254,6,0,P|128:224|160:208,1,90
208,192,134587,2,0,P|224:224|192:304,1,120
112,320,135087,1,0,0:0:0:0:
112,240,135254,6,0,L|336:112,1,240
320,120,136587,1,0,0:0:0:0:
470,162,136920,6,0,P|416:192|368:192,1,90
352,160,137254,2,0,B|320:128|320:128|240:128,1,120
144,176,137754,1,0,0:0:0:0:
192,256,137920,6,0,L|64:32,1,240
72,47,139254,1,0,0:0:0:0:
256,192,139920,12,0,140587,0:0:0:0:
256,80,140920,5,0,0:0:0:0:
411,80,141087,2,0,L|336:80,1,60
128,160,141420,1,0,0:0:0:0:
224,160,141587,1,0,0:0:0:0:
222,341,141754,6,0,B|301:294|301:294|301:230|381:246|381:246|268:94,1,360
208,240,142420,5,0,0:0:0:0:
160,64,142587,2,0,P|208:112|204:170,1,120
96,160,143087,1,0,0:0:0:0:
192,320,143254,5,0,0:0:0:0:
144,240,143420,1,0,0:0:0:0:
320,128,143587,1,0,0:0:0:0:
240,176,143754,1,0,0:0:0:0:
320,224,143920,2,0,P|368:208|411:151,1,120
400,64,144420,1,0,0:0:0:0:
160,96,144587,6,0,P|224:112|194:250,1,240
112,208,145087,5,0,0:0:0:0:
374,173,145254,2,0,L|310:215,1,60
286,336,145587,2,0,L|305:263,1,60
320,64,145920,5,0,0:0:0:0:
224,80,146087,1,0,0:0:0:0:
192,240,146254,1,0,0:0:0:0:
224,80,146420,1,0,0:0:0:0:
208,160,146587,2,0,P|160:128|142:64,1,120
194,9,147087,1,0,0:0:0:0:
302,144,147254,6,0,P|270:240|143:247,1,240
208,160,147754,5,0,0:0:0:0:
256,66,147920,2,0,P|304:50|368:74,1,120
384,176,148420,1,0,0:0:0:0:
336,304,148587,5,0,0:0:0:0:
384,176,148754,1,0,0:0:0:0:
224,80,148920,1,0,0:0:0:0:
288,208,149087,1,0,0:0:0:0:
128,208,149254,5,0,0:0:0:0:
224,80,149420,1,0,0:0:0:0:
336,304,149587,1,0,0:0:0:0:
240,192,149754,1,0,0:0:0:0:
352,192,149920,5,0,0:0:0:0:
224,304,150087,1,0,0:0:0:0:
160,96,150254,1,0,0:0:0:0:
256,160,150420,2,0,P|240:192|158:210,1,120
304,64,150920,1,0,0:0:0:0:
400,208,151087,1,0,0:0:0:0:
128,272,151587,6,0,L|217:185,1,120
352,192,151920,1,0,0:0:0:0:
304,304,152087,1,0,0:0:0:0:
224,96,152254,1,0,0:0:0:0:
352,192,152420,1,0,0:0:0:0:
144,256,152587,6,0,P|112:208|112:160,1,90.0000034332277
317,112,152920,2,0,P|349:160|349:208,1,90.0000034332277
112,96,153254,2,0,P|176:80|208:96,1,90.0000034332277
288,256,153587,2,0,P|224:272|192:256,1,90.0000034332277
336,64,153920,6,0,L|336:176,1,90.0000034332277
112,320,154254,2,0,L|112:224,1,90.0000034332277
80,96,154587,6,0,P|144:80|224:112,1,120
195,92,154920,1,0,0:0:0:0:
384,288,155087,1,0,0:0:0:0:
384,288,155254,6,0,P|336:304|272:288,1,107.999996704102
176,192,155587,2,0,P|240:176|288:192,1,107.999996704102
208,288,155920,2,0,P|160:304|96:288,1,107.999996704102
144,96,156254,6,0,P|160:144|128:192,1,90.0000034332277
320,112,156587,2,0,P|272:128|224:96,1,90.0000034332277
192,240,156920,2,0,P|240:224|288:256,1,90.0000034332277
368,224,157254,6,0,P|368:256|352:288,1,60
304,176,157587,2,0,P|304:144|320:112,1,60
208,80,157920,6,0,P|160:64|112:96,1,90.0000034332277
48,288,158254,2,0,P|96:304|144:272,1,90.0000034332277
272,320,158587,2,0,P|288:256|256:208,1,90.0000034332277
208,80,158920,2,0,P|160:96|128:144,1,90.0000034332277
352,160,159254,6,0,P|382:127|424:114,1,90.0000034332277
192,320,159587,2,0,P|144:256|144:224,1,90.0000034332277
144,192,159920,1,0,0:0:0:0:
224,80,160087,5,0,0:0:0:0:
144,192,160254,1,0,0:0:0:0:
336,128,160420,5,0,0:0:0:0:
336,128,160587,2,0,P|368:160|368:192,1,71.9999978027344
288,304,160920,2,0,P|256:272|256:240,1,71.9999978027344
176,80,161254,2,0,L|240:144,1,71.9999978027344
400,288,161587,2,0,L|336:224,1,71.9999978027344
192,256,161920,6,0,L|80:256,1,90.0000034332277
176,80,162254,2,0,L|272:80,1,90.0000034332277
352,144,162587,6,0,P|304:176|288:176,1,60
176,192,162920,2,0,P|224:160|240:160,1,60
272,304,163254,6,0,P|224:336|192:336,1,90
144,112,163587,2,0,P|192:80|224:80,1,90
384,224,163920,2,0,P|384:176|352:112,1,90.0000034332277
144,112,164254,2,0,P|144:176|176:224,1,90.0000034332277
400,304,164587,6,0,P|400:240|368:192,1,90.0000034332277
160,192,164920,2,0,P|192:240|256:256,1,90.0000034332277
448,144,165254,6,0,P|400:80|336:64,1,120
364,66,165587,1,0,0:0:0:0:
160,240,165754,1,0,0:0:0:0:
160,240,165920,6,0,P|224:256|272:224,1,107.999996704102
192,96,166254,2,0,P|128:80|80:112,1,107.999996704102
48,288,166587,2,0,L|80:176,1,107.999996704102
304,128,166920,6,0,P|272:176|224:192,1,90.0000034332277
224,112,167254,2,0,P|198:60|208:10,1,90.0000034332277
272,48,167587,2,0,P|329:51|367:85,1,90.0000034332277
176,240,167920,6,0,L|224:192,1,60
336,144,168254,2,0,L|288:192,1,60
64,128,168587,6,0,L|176:128,1,90.0000034332277
432,128,168920,2,0,L|320:128,1,90.0000034332277
144,224,169254,2,0,L|240:224,1,90.0000034332277
368,224,169587,2,0,L|272:224,1,90.0000034332277
352,96,169920,2,0,P|288:64|256:64,1,90.0000034332277
160,96,170254,2,0,P|224:64|256:64,1,90.0000034332277
256,320,170587,5,0,0:0:0:0:
256,128,170754,1,0,0:0:0:0:
256,128,170920,2,0,L|256:224,1,90.0000034332277
160,304,171254,6,0,P|176:256|208:224,1,71.9999978027344
352,304,171587,2,0,P|336:256|304:224,1,71.9999978027344
240,192,171920,2,0,P|256:144|288:112,1,71.9999978027344
176,144,172254,2,0,P|160:96|128:64,1,71.9999978027344
96,144,172587,6,0,B|64:176|64:176|64:256,1,120
144,336,173254,2,0,B|176:304|176:304|176:224,1,120
96,144,173920,6,0,B|64:176|64:176|64:224,1,90
144,336,174254,2,0,B|176:304|176:304|176:256,1,90
416,128,174587,6,0,P|384:96|336:96,1,90.0000034332277
224,176,174920,2,0,P|256:208|304:208,1,90.0000034332277
192,48,175254,6,0,P|160:80|160:128,1,90.0000034332277
400,304,175587,2,0,P|432:272|432:224,1,90.0000034332277
400,160,175920,5,0,0:0:0:0:
176,96,176087,5,0,0:0:0:0:
336,96,176254,1,0,0:0:0:0:
112,160,176420,5,0,0:0:0:0:
160,288,176587,2,0,P|208:256|224:208,1,107.999996704102
384,160,176920,2,0,P|332:134|282:144,1,107.999996704102
144,32,177254,2,0,P|147:89|181:127,1,107.999996704102
320,256,177587,6,0,P|304:304|256:336,1,90.0000034332277
160,208,177920,2,0,P|126:170|122:112,1,90.0000034332277
290,100,178254,2,0,P|339:90|391:116,1,90.0000034332277
160,208,178587,6,0,P|160:160|176:144,1,60
240,208,178920,2,0,P|240:256|224:272,1,60
96,272,179254,6,0,P|80:224|96:160,1,90
320,128,179587,2,0,P|336:176|320:240,1,90
208,80,179920,2,0,P|256:32|304:32,1,90.0000034332277
240,304,180254,2,0,P|192:352|144:352,1,90.0000034332277
272,192,180587,6,0,P|320:224|336:256,1,71.9999978027344
144,208,180920,2,0,P|128:160|144:112,1,71.9999978027344
192,288,181254,1,0,0:0:0:0:
272,80,181420,5,0,0:0:0:0:
320,160,181587,1,0,0:0:0:0:
80,96,181754,5,0,0:0:0:0:
80,96,181920,2,0,L|208:144,1,120
208,224,182587,1,0,0:0:0:0:
208,320,182920,5,0,0:0:0:0:
352,48,183254,6,0,B|352:96|352:96|384:112|384:112|384:176,1,120
96,272,183587,2,0,B|96:224|96:224|128:208|128:208|128:171,1,120
64,80,183920,6,0,L|64:144,1,60
320,336,184254,2,0,L|320:272,1,60
304,144,184587,6,0,P|352:144|400:176,1,90.0000034332277
176,240,184920,2,0,P|128:240|80:208,1,90.0000034332277
160,80,185254,6,0,P|199:59|244:60,1,90.0000034332277
256,304,185587,2,0,P|216:324|171:323,1,90.0000034332277
367,192,185920,2,0,P|388:231|387:276,1,90.0000034332277
144,192,186254,2,0,P|123:152|124:107,1,90.0000034332277
272,128,186587,1,0,0:0:0:0:
192,48,186754,5,0,0:0:0:0:
352,208,186920,1,0,0:0:0:0:
272,128,187087,5,0,0:0:0:0:
320,288,187254,2,0,P|368:304|432:272,1,102.000001945496
416,80,187587,2,0,P|368:64|304:96,1,102.000001945496
96,304,187920,2,0,L|192:208,1,102.000001945496
240,144,188254,6,0,P|192:128|144:160,1,90.0000034332277
240,288,188587,2,0,P|288:304|336:272,1,90.0000034332277
416,112,188920,2,0,L|368:208,1,90.0000034332277
160,272,189254,6,0,L|208:192,1,71.9999978027344
192,48,189587,2,0,P|240:64|256:80,1,71.9999978027344
144,160,189920,6,0,P|96:144|64:80,1,90.0000034332277
352,144,190254,2,0,P|400:160|432:224,1,90.0000034332277
256,272,190587,2,0,P|226:305|183:317,1,90.0000034332277
256,80,190920,2,0,P|285:46|328:34,1,90.0000034332277
352,144,191254,6,0,P|384:192|416:240,1,107.999996704102
176,224,191587,2,0,P|144:176|112:128,1,107.999996704102
256,80,191920,1,0,0:0:0:0:
336,272,192087,5,0,0:0:0:0:
336,144,192254,1,0,0:0:0:0:
256,336,192420,5,0,0:0:0:0:
16,336,192587,2,0,L|160:336,1,120
256,336,193254,1,0,0:0:0:0:
256,336,193587,5,0,0:0:0:0:
128,64,193920,2,0,B|128:112|128:112|160:144|160:144|176:208,1,120
384,320,194254,2,0,B|384:272|384:272|352:240|352:240|336:176,1,120
240,64,194587,6,0,L|240:144,1,60
272,320,194920,2,0,L|272:240,1,60
320,112,195254,6,0,P|336:160|304:224,1,120
240,160,195920,2,0,L|128:80,1,120
80,48,196587,6,0,P|64:96|96:160,1,120
160,208,197254,2,0,L|256:288,1,120
336,304,197920,5,0,0:0:0:0:
368,224,198254,1,0,0:0:0:0:
336,304,198587,1,0,0:0:0:0:
288,224,198920,1,0,0:0:0:0:
192,224,199254,5,0,0:0:0:0:
288,224,199587,1,0,0:0:0:0:
224,144,199920,1,0,0:0:0:0:
288,224,200254,1,0,0:0:0:0:
336,144,200587,6,0,P|368:176|368:256,1,120
288,288,201254,2,0,L|160:336,1,120
96,368,201920,6,0,P|80:320|128:256,1,120
192,240,202720,2,0,L|336:208,1,120
400,192,203726,1,0,0:0:0:0:
