osu file format v14

[General]
AudioFilename: audio.mp3
AudioLeadIn: 0
PreviewTime: 52204
Countdown: 1
SampleSet: Normal
StackLeniency: 0.7
Mode: 0
LetterboxInBreaks: 0
WidescreenStoryboard: 0

[Editor]
DistanceSpacing: 1.2
BeatDivisor: 4
GridSize: 4
TimelineZoom: 1

[Metadata]
Title:Faded (Julian Calor Remix)
TitleUnicode:Faded (Julian Calor Remix)
Artist:Alan Walker
ArtistUnicode:Alan Walker
Creator:thyrfa
Version:Insane
Source:
Tags:edm, trap, remix, julian calor, alan walker, faded, where, are, you, wub wub, rave, festival
BeatmapID:924126
BeatmapSetID:428140

[Difficulty]
HPDrainRate:5
CircleSize:5
OverallDifficulty:7
ApproachRate:7
SliderMultiplier:1.6
SliderTickRate:1

[Events]
//Background and Video events
0,0,"12795242_1062618957123692_3558921604121123865_o.jpg",0,0
//Break Periods
2,20986,29036
2,83349,104626
2,151144,165099
//Storyboard Layer 0 (Background)
//Storyboard Layer 1 (Fail)
//Storyboard Layer 2 (Pass)
//Storyboard Layer 3 (Foreground)
//Storyboard Sound Samples

[TimingPoints]
0,472.44094488189,4,1,0,100,1,0
68031,-100,4,1,0,100,0,1
71574,-100,4,1,0,100,0,0
180829,-66.6666666666667,4,1,0,100,0,0
196535,-66.6666666666667,4,1,0,100,0,1
203858,-66.6666666666667,4,1,0,100,0,0

[HitObjects]
256,340,7559,6,0,P|16:116|144:56,1,640
288,36,11338,6,0,P|504:244|260:360,1,640
180,364,15118,6,0,P|28:68|244:24,1,640
256,20,18897,6,0,P|520:200|328:336,1,640
172,192,30236,5,0,0:0:0:0:
328,192,30708,1,0,0:0:0:0:
328,280,31181,1,0,0:0:0:0:
268,280,31417,1,0,0:0:0:0:
208,280,31653,1,0,0:0:0:0:
208,192,32125,5,0,0:0:0:0:
304,192,32598,1,0,0:0:0:0:
304,96,33070,1,0,0:0:0:0:
244,96,33307,1,0,0:0:0:0:
184,96,33543,1,0,0:0:0:0:
256,244,34015,5,0,0:0:0:0:
256,140,34488,1,0,0:0:0:0:
160,140,34960,1,0,0:0:0:0:
160,200,35196,1,0,0:0:0:0:
160,260,35433,1,0,0:0:0:0:
256,260,35905,5,0,0:0:0:0:
256,140,36377,1,0,0:0:0:0:
364,140,36850,1,0,0:0:0:0:
364,200,37086,1,0,0:0:0:0:
364,260,37322,1,0,0:0:0:0:
168,192,37795,6,0,P|264:328|368:240,1,320
362,261,39212,1,0,0:0:0:0:
424,196,39685,6,0,P|348:48|296:128,1,320
300,99,41102,1,0,0:0:0:0:
196,112,41574,6,0,P|80:240|144:264,1,320
124,264,42992,1,0,0:0:0:0:
160,160,43464,2,0,L|268:36,1,160
228,212,44409,2,0,L|348:68,1,160
416,160,45354,2,0,L|360:224,2,80
420,276,46299,2,0,L|480:208,2,80
296,288,47244,2,0,L|232:288,6,40
240,216,48188,2,0,L|188:192,7,40
240,212,49133,5,0,0:0:0:0:
252,192,49251,1,0,0:0:0:0:
272,168,49370,1,0,0:0:0:0:
284,152,49488,1,0,0:0:0:0:
296,136,49606,1,0,0:0:0:0:
308,124,49724,1,0,0:0:0:0:
324,120,49842,1,0,0:0:0:0:
344,120,49960,1,0,0:0:0:0:
368,128,50078,1,0,0:0:0:0:
392,144,50196,1,0,0:0:0:0:
408,168,50314,1,0,0:0:0:0:
420,192,50433,1,0,0:0:0:0:
420,212,50551,1,0,0:0:0:0:
416,240,50669,1,0,0:0:0:0:
400,264,50787,1,0,0:0:0:0:
384,284,50905,1,0,0:0:0:0:
364,304,51023,1,0,0:0:0:0:
256,192,52913,1,0,0:0:0:0:
256,192,53149,2,0,L|256:148,4,40
332,192,53858,5,0,0:0:0:0:
404,192,54094,1,0,0:0:0:0:
472,192,54330,1,0,0:0:0:0:
472,264,54566,2,0,P|312:372|172:336,1,320
196,280,55748,5,0,0:0:0:0:
196,220,55984,1,0,0:0:0:0:
196,160,56220,1,0,0:0:0:0:
296,96,56692,5,0,0:0:0:0:
356,152,56929,1,0,0:0:0:0:
356,152,57047,1,0,0:0:0:0:
352,148,57165,1,0,0:0:0:0:
356,152,57283,1,0,0:0:0:0:
356,152,57401,1,0,0:0:0:0:
296,192,57637,5,0,0:0:0:0:
236,192,57874,1,0,0:0:0:0:
176,192,58110,1,0,0:0:0:0:
116,192,58346,1,0,0:0:0:0:
56,192,58582,1,0,0:0:0:0:
56,192,58818,2,0,L|56:288,5,80
256,192,60472,5,0,0:0:0:0:
180,192,60708,1,0,0:0:0:0:
180,192,60826,1,0,0:0:0:0:
180,192,60944,1,0,0:0:0:0:
180,192,61062,1,0,0:0:0:0:
180,192,61181,1,0,0:0:0:0:
176,80,61417,5,0,0:0:0:0:
260,80,61653,1,0,0:0:0:0:
340,80,61889,1,0,0:0:0:0:
340,156,62125,1,0,0:0:0:0:
340,240,62362,5,0,0:0:0:0:
280,276,62480,1,0,0:0:0:0:
220,244,62598,1,0,0:0:0:0:
176,156,62834,1,0,0:0:0:0:
144,244,63070,1,0,0:0:0:0:
144,340,63307,2,0,L|232:340,2,80
144,192,64251,5,0,0:0:0:0:
232,192,64488,1,0,0:0:0:0:
232,192,64606,1,0,0:0:0:0:
232,192,64724,1,0,0:0:0:0:
232,192,64842,1,0,0:0:0:0:
232,192,64960,1,0,0:0:0:0:
332,196,65196,5,0,0:0:0:0:
332,288,65433,1,0,0:0:0:0:
256,288,65669,1,0,0:0:0:0:
180,288,65905,1,0,0:0:0:0:
96,288,66141,2,0,L|96:208,3,80
176,204,67086,1,0,0:0:0:0:
104,56,67322,5,0,0:0:0:0:
168,36,67559,1,0,0:0:0:0:
232,40,67795,1,0,0:0:0:0:
288,144,68031,5,0,0:0:0:0:
328,208,68149,1,0,0:0:0:0:
364,140,68267,1,0,0:0:0:0:
368,40,68503,5,0,0:0:0:0:
424,192,68740,1,0,0:0:0:0:
372,316,68976,1,0,0:0:0:0:
160,316,69212,1,0,0:0:0:0:
64,192,69448,1,0,0:0:0:0:
128,60,69685,1,0,0:0:0:0:
264,60,69921,5,0,0:0:0:0:
312,112,70039,1,0,0:0:0:0:
356,60,70157,1,0,0:0:0:0:
444,192,70393,5,0,0:0:0:0:
384,304,70629,1,0,0:0:0:0:
256,324,70866,1,0,0:0:0:0:
256,192,71102,1,0,0:0:0:0:
256,64,71338,1,0,0:0:0:0:
120,60,71574,1,0,0:0:0:0:
256,192,71811,5,0,0:0:0:0:
424,320,72047,1,0,0:0:0:0:
424,320,72165,1,0,0:0:0:0:
424,320,72283,1,0,0:0:0:0:
424,320,72401,1,0,0:0:0:0:
424,320,72519,1,0,0:0:0:0:
424,192,72755,5,0,0:0:0:0:
420,56,72992,1,0,0:0:0:0:
256,56,73228,1,0,0:0:0:0:
116,56,73464,1,0,0:0:0:0:
116,220,73700,5,0,0:0:0:0:
200,288,73937,1,0,0:0:0:0:
256,192,74173,1,0,0:0:0:0:
256,124,74409,1,0,0:0:0:0:
256,52,74645,1,0,0:0:0:0:
424,108,74881,5,0,0:0:0:0:
424,168,75118,1,0,0:0:0:0:
424,228,75354,1,0,0:0:0:0:
256,232,75590,5,0,0:0:0:0:
256,160,75826,1,0,0:0:0:0:
256,160,75944,1,0,0:0:0:0:
256,160,76062,1,0,0:0:0:0:
256,160,76181,1,0,0:0:0:0:
256,160,76299,1,0,0:0:0:0:
364,160,76535,5,0,0:0:0:0:
448,80,76771,1,0,0:0:0:0:
448,160,77007,1,0,0:0:0:0:
360,80,77244,1,0,0:0:0:0:
256,80,77480,6,0,L|168:80,3,80
176,160,78425,2,0,L|264:160,3,80
256,232,79370,5,0,0:0:0:0:
256,300,79606,1,0,0:0:0:0:
256,300,79724,1,0,0:0:0:0:
256,300,79842,1,0,0:0:0:0:
256,300,79960,1,0,0:0:0:0:
256,300,80078,1,0,0:0:0:0:
256,232,80314,1,0,0:0:0:0:
256,160,80551,1,0,0:0:0:0:
332,160,80787,1,0,0:0:0:0:
332,36,81023,1,0,0:0:0:0:
180,36,81259,5,0,0:0:0:0:
180,96,81496,1,0,0:0:0:0:
180,156,81732,1,0,0:0:0:0:
180,216,81968,1,0,0:0:0:0:
180,280,82204,2,0,L|264:280,1,80
284,280,82559,1,0,0:0:0:0:
380,280,82913,1,0,0:0:0:0:
440,280,83149,1,0,0:0:0:0:
256,192,105826,5,0,0:0:0:0:
316,192,106299,1,0,0:0:0:0:
376,192,106771,1,0,0:0:0:0:
436,192,107244,1,0,0:0:0:0:
256,192,107716,5,0,0:0:0:0:
196,192,108188,1,0,0:0:0:0:
136,192,108661,1,0,0:0:0:0:
76,192,109133,1,0,0:0:0:0:
256,192,109606,5,0,0:0:0:0:
256,252,110078,1,0,0:0:0:0:
256,312,110551,1,0,0:0:0:0:
256,372,111023,1,0,0:0:0:0:
256,192,111496,5,0,0:0:0:0:
256,132,111968,1,0,0:0:0:0:
256,72,112440,1,0,0:0:0:0:
256,12,112913,1,0,0:0:0:0:
256,192,113385,5,0,0:0:0:0:
296,236,113503,1,0,0:0:0:0:
332,276,113622,1,0,0:0:0:0:
392,340,113858,1,0,0:0:0:0:
256,192,114330,5,0,0:0:0:0:
216,152,114448,1,0,0:0:0:0:
184,108,114566,1,0,0:0:0:0:
136,44,114803,1,0,0:0:0:0:
256,192,115275,5,0,0:0:0:0:
292,148,115393,1,0,0:0:0:0:
328,108,115511,1,0,0:0:0:0:
388,44,115748,1,0,0:0:0:0:
256,192,116220,5,0,0:0:0:0:
220,232,116338,1,0,0:0:0:0:
180,268,116456,1,0,0:0:0:0:
120,324,116692,1,0,0:0:0:0:
136,192,117165,5,0,0:0:0:0:
196,192,117401,1,0,0:0:0:0:
256,192,117637,1,0,0:0:0:0:
376,192,118110,5,0,0:0:0:0:
316,192,118346,1,0,0:0:0:0:
256,192,118582,1,0,0:0:0:0:
256,72,119055,5,0,0:0:0:0:
256,132,119291,1,0,0:0:0:0:
256,192,119527,1,0,0:0:0:0:
256,312,120000,5,0,0:0:0:0:
256,192,120472,1,0,0:0:0:0:
360,252,120944,5,0,0:0:0:0:
416,172,121062,1,0,0:0:0:0:
464,252,121181,1,0,0:0:0:0:
416,172,121417,1,0,0:0:0:0:
324,172,121653,5,0,0:0:0:0:
324,172,121889,1,0,0:0:0:0:
324,172,122125,1,0,0:0:0:0:
324,80,122362,1,0,0:0:0:0:
236,80,122598,6,0,L|148:80,1,80
156,80,123070,1,0,0:0:0:0:
88,84,123307,1,0,0:0:0:0:
88,164,123543,6,0,L|88:256,1,80
88,244,124015,1,0,0:0:0:0:
168,164,124251,1,0,0:0:0:0:
168,256,124724,5,0,0:0:0:0:
256,260,124960,1,0,0:0:0:0:
336,216,125196,1,0,0:0:0:0:
396,320,125433,1,0,0:0:0:0:
460,192,125669,1,0,0:0:0:0:
460,264,125905,1,0,0:0:0:0:
312,188,126141,1,0,0:0:0:0:
312,260,126377,1,0,0:0:0:0:
228,260,126614,6,0,L|128:260,2,80
228,260,127322,1,0,0:0:0:0:
228,260,127559,1,0,0:0:0:0:
228,260,127795,1,0,0:0:0:0:
236,192,128031,1,0,0:0:0:0:
236,80,128503,5,0,0:0:0:0:
308,80,128740,1,0,0:0:0:0:
308,80,128858,1,0,0:0:0:0:
308,80,128976,1,0,0:0:0:0:
308,80,129094,1,0,0:0:0:0:
308,80,129212,1,0,0:0:0:0:
308,156,129448,6,0,L|396:156,1,80
388,232,129921,2,0,L|288:232,1,80
228,184,130393,5,0,0:0:0:0:
180,244,130511,1,0,0:0:0:0:
128,184,130629,1,0,0:0:0:0:
128,72,130866,1,0,0:0:0:0:
216,72,131102,2,0,L|292:152,2,80
320,72,131811,1,0,0:0:0:0:
320,192,132283,5,0,0:0:0:0:
320,264,132519,1,0,0:0:0:0:
320,264,132637,1,0,0:0:0:0:
320,264,132755,1,0,0:0:0:0:
320,264,132874,1,0,0:0:0:0:
320,264,132992,1,0,0:0:0:0:
220,264,133228,6,0,L|124:264,3,80
140,352,134173,1,0,0:0:0:0:
224,352,134409,1,0,0:0:0:0:
288,264,134645,1,0,0:0:0:0:
352,352,134881,1,0,0:0:0:0:
400,264,135118,1,0,0:0:0:0:
400,168,135354,2,0,L|400:84,1,80
272,88,136062,5,0,0:0:0:0:
168,88,136299,1,0,0:0:0:0:
168,88,136417,1,0,0:0:0:0:
168,88,136535,1,0,0:0:0:0:
168,88,136653,1,0,0:0:0:0:
168,88,136771,1,0,0:0:0:0:
168,184,137007,6,0,L|168:284,1,80
168,344,137480,2,0,L|256:344,2,80
168,236,138188,1,0,0:0:0:0:
168,144,138425,1,0,0:0:0:0:
256,52,138661,1,0,0:0:0:0:
348,144,138897,2,0,L|348:256,2,80
348,224,139606,1,0,0:0:0:0:
224,224,139842,5,0,0:0:0:0:
152,224,140078,1,0,0:0:0:0:
152,224,140196,1,0,0:0:0:0:
152,224,140314,1,0,0:0:0:0:
152,224,140433,1,0,0:0:0:0:
152,224,140551,1,0,0:0:0:0:
152,132,140787,6,0,L|232:132,2,80
152,48,141496,1,0,0:0:0:0:
232,132,141732,1,0,0:0:0:0:
312,196,141968,1,0,0:0:0:0:
376,196,142204,1,0,0:0:0:0:
376,260,142440,1,0,0:0:0:0:
376,328,142677,1,0,0:0:0:0:
256,328,142913,1,0,0:0:0:0:
376,328,143149,1,0,0:0:0:0:
256,328,143385,1,0,0:0:0:0:
376,328,143622,5,0,0:0:0:0:
376,256,143858,1,0,0:0:0:0:
376,256,143976,1,0,0:0:0:0:
376,256,144094,1,0,0:0:0:0:
376,256,144212,1,0,0:0:0:0:
376,256,144330,1,0,0:0:0:0:
372,192,144566,6,0,L|180:192,1,160
152,192,145275,1,0,0:0:0:0:
212,192,145511,2,0,L|212:100,2,80
212,192,146220,2,0,L|212:288,2,80
212,192,146929,2,0,L|308:192,1,80
292,264,147401,5,0,0:0:0:0:
212,264,147637,1,0,0:0:0:0:
212,264,147755,1,0,0:0:0:0:
212,264,147874,1,0,0:0:0:0:
212,264,147992,1,0,0:0:0:0:
212,264,148110,1,0,0:0:0:0:
208,192,148346,2,0,L|208:88,3,80
284,112,149291,1,0,0:0:0:0:
352,180,149527,1,0,0:0:0:0:
424,248,149763,1,0,0:0:0:0:
352,312,150000,1,0,0:0:0:0:
280,368,150236,1,0,0:0:0:0:
280,272,150472,1,0,0:0:0:0:
192,272,150708,1,0,0:0:0:0:
192,368,150944,1,0,0:0:0:0:
256,192,166299,12,0,173858,0:0:0:0:
256,192,175748,12,0,179527,0:0:0:0:
256,192,181417,5,0,0:0:0:0:
320,192,181653,1,0,0:0:0:0:
320,192,181771,1,0,0:0:0:0:
320,192,181889,1,0,0:0:0:0:
320,192,182007,1,0,0:0:0:0:
320,192,182125,1,0,0:0:0:0:
316,92,182362,6,0,P|224:84|164:108,4,120.000004577637
320,96,183543,1,0,0:0:0:0:
324,36,183779,1,0,0:0:0:0:
320,96,184015,1,0,0:0:0:0:
324,164,184251,1,0,0:0:0:0:
328,224,184488,1,0,0:0:0:0:
268,228,184724,1,0,0:0:0:0:
272,304,184960,6,0,L|148:304,1,120.000004577637
152,232,185433,1,0,0:0:0:0:
152,232,185551,1,0,0:0:0:0:
152,232,185669,1,0,0:0:0:0:
152,232,185787,1,0,0:0:0:0:
152,232,185905,1,0,0:0:0:0:
152,144,186141,5,0,0:0:0:0:
152,68,186377,2,0,L|272:68,2,120.000004577637
152,160,187086,1,0,0:0:0:0:
152,240,187322,1,0,0:0:0:0:
80,240,187559,1,0,0:0:0:0:
80,176,187795,1,0,0:0:0:0:
152,176,188031,1,0,0:0:0:0:
240,176,188267,2,0,P|340:88|400:196,1,240.000009155274
408,208,188976,5,0,0:0:0:0:
372,268,189212,1,0,0:0:0:0:
372,268,189330,1,0,0:0:0:0:
372,268,189448,1,0,0:0:0:0:
372,268,189566,1,0,0:0:0:0:
372,268,189685,1,0,0:0:0:0:
284,272,189921,2,0,L|284:152,1,120.000004577637
216,276,190393,2,0,L|216:128,1,120.000004577637
144,156,190866,5,0,0:0:0:0:
76,156,191102,1,0,0:0:0:0:
76,236,191338,2,0,L|208:236,1,120.000004577637
76,304,191811,2,0,L|212:304,1,120.000004577637
152,368,192283,1,0,0:0:0:0:
220,368,192519,1,0,0:0:0:0:
220,192,192755,5,0,0:0:0:0:
288,192,192992,1,0,0:0:0:0:
288,192,193110,1,0,0:0:0:0:
288,192,193228,1,0,0:0:0:0:
288,192,193346,1,0,0:0:0:0:
288,192,193464,1,0,0:0:0:0:
288,96,193700,1,0,0:0:0:0:
376,96,193937,1,0,0:0:0:0:
376,168,194173,1,0,0:0:0:0:
376,232,194409,1,0,0:0:0:0:
260,232,194645,5,0,0:0:0:0:
260,296,194881,1,0,0:0:0:0:
260,168,195118,1,0,0:0:0:0:
192,168,195354,1,0,0:0:0:0:
116,168,195590,2,0,L|116:296,1,120.000004577637
116,292,196062,2,0,L|248:292,1,120.000004577637
328,292,196535,5,0,0:0:0:0:
328,224,196771,1,0,0:0:0:0:
328,224,196889,1,0,0:0:0:0:
328,224,197007,1,0,0:0:0:0:
328,224,197125,1,0,0:0:0:0:
328,224,197244,1,0,0:0:0:0:
412,76,197480,5,0,0:0:0:0:
256,200,197716,1,0,0:0:0:0:
116,72,197952,1,0,0:0:0:0:
256,200,198188,1,0,0:0:0:0:
248,196,198425,5,0,0:0:0:0:
256,200,198661,1,0,0:0:0:0:
104,296,198897,1,0,0:0:0:0:
408,296,199133,1,0,0:0:0:0:
256,200,199370,5,0,0:0:0:0:
116,72,199606,1,0,0:0:0:0:
408,72,199842,1,0,0:0:0:0:
256,200,200078,1,0,0:0:0:0:
256,200,200314,5,0,0:0:0:0:
256,272,200551,1,0,0:0:0:0:
256,272,200669,1,0,0:0:0:0:
256,272,200787,1,0,0:0:0:0:
256,272,200905,1,0,0:0:0:0:
256,272,201023,1,0,0:0:0:0:
256,192,201259,5,0,0:0:0:0:
396,132,201496,2,0,L|396:264,2,120.000004577637
320,132,202204,1,0,0:0:0:0:
232,136,202440,2,0,L|232:288,2,120.000004577637
232,136,203149,1,0,0:0:0:0:
312,172,203385,2,0,L|440:172,2,120.000004577637
256,224,204094,5,0,0:0:0:0:
192,224,204330,1,0,0:0:0:0:
192,224,204448,1,0,0:0:0:0:
192,224,204566,1,0,0:0:0:0:
192,224,204685,1,0,0:0:0:0:
192,224,204803,1,0,0:0:0:0:
192,156,205039,5,0,0:0:0:0:
192,88,205275,2,0,L|336:88,1,120.000004577637
312,88,205748,1,0,0:0:0:0:
316,168,205984,1,0,0:0:0:0:
316,168,206220,1,0,0:0:0:0:
316,240,206456,6,0,L|160:240,1,120.000004577637
196,240,206929,2,0,L|324:240,1,120.000004577637
316,240,207401,2,0,L|176:240,1,120.000004577637
196,172,207874,5,0,0:0:0:0:
312,172,208110,1,0,0:0:0:0:
312,172,208228,1,0,0:0:0:0:
312,172,208346,1,0,0:0:0:0:
312,172,208464,1,0,0:0:0:0:
312,172,208582,1,0,0:0:0:0:
312,264,208818,5,0,0:0:0:0:
416,172,209055,1,0,0:0:0:0:
416,272,209291,1,0,0:0:0:0:
312,368,209527,1,0,0:0:0:0:
312,284,209763,2,0,L|312:144,3,120.000004577637
312,68,210708,5,0,0:0:0:0:
228,68,210944,1,0,0:0:0:0:
152,68,211181,1,0,0:0:0:0:
80,68,211417,1,0,0:0:0:0:
256,192,211653,1,0,0:0:0:0:
