osu file format v14

[General]
AudioFilename: audio.mp3
AudioLeadIn: 1500
PreviewTime: 76585
Countdown: 0
SampleSet: Soft
StackLeniency: 0.5
Mode: 0
LetterboxInBreaks: 0
EpilepsyWarning: 1
WidescreenStoryboard: 1

[Editor]
Bookmarks: 596,11262,32586,43252,55252,75252,76585,97918,119252,129918,140585,145918,152585,172585,173918,195251,207073
DistanceSpacing: 1
BeatDivisor: 4
GridSize: 4
TimelineZoom: 1

[Metadata]
Title:Faded
TitleUnicode:Faded
Artist:Alan Walker
ArtistUnicode:Alan Walker
Creator:HootOwlStar
Version:ReFaller's Runaway
Source:
Tags:single electronic ballad edm Iselin Solheim fade remastered BoatKrab Arcubin RyoKazuka ReFaller
BeatmapID:1036230
BeatmapSetID:461191

[Difficulty]
HPDrainRate:7
CircleSize:5
OverallDifficulty:7
ApproachRate:8
SliderMultiplier:2
SliderTickRate:1

[Events]
//Background and Video events
0,0,"bg.jpg",0,0
Video,40,"Alan Walker - Faded.avi"
//Break Periods
2,32786,42502
2,119452,129168
//Storyboard Layer 0 (Background)
//Storyboard Layer 1 (Fail)
//Storyboard Layer 2 (Pass)
//Storyboard Layer 3 (Foreground)
//Storyboard Sound Samples

[TimingPoints]
596,666.666666666667,4,2,4,15,1,0
596,-100,4,2,4,15,0,0
11262,-100,4,2,4,26,0,0
11484,-100,4,2,4,21,0,0
13818,-100,4,2,4,26,0,0
14040,-100,4,2,4,21,0,0
16151,-100,4,2,4,5,0,0
16484,-100,4,2,4,26,0,0
16707,-100,4,2,4,21,0,0
19151,-100,4,2,4,26,0,0
19373,-100,4,2,4,21,0,0
21818,-100,4,2,4,26,0,0
22040,-100,4,2,4,21,0,0
24484,-100,4,2,4,26,0,0
24707,-100,4,2,4,21,0,0
26818,-100,4,2,4,5,0,0
27151,-100,4,2,4,26,0,0
27373,-100,4,2,4,21,0,0
29818,-100,4,2,4,26,0,0
30040,-100,4,2,4,28,0,0
32586,666.666666666667,4,2,4,32,1,0
43252,-111.111111111111,4,2,4,52,0,0
43363,-111.111111111111,4,2,4,36,0,0
44474,-111.111111111111,4,2,4,52,0,0
44697,-111.111111111111,4,2,4,36,0,0
45919,-111.111111111111,4,2,4,52,0,0
46030,-111.111111111111,4,2,4,36,0,0
47141,-111.111111111111,4,2,4,52,0,0
47363,-111.111111111111,4,2,4,36,0,0
48474,-111.111111111111,4,2,4,52,0,0
48697,-111.111111111111,4,2,4,36,0,0
49808,-111.111111111111,4,2,4,52,0,0
50030,-111.111111111111,4,2,4,36,0,0
51252,-111.111111111111,4,2,4,52,0,0
51363,-111.111111111111,4,2,4,36,0,0
54252,-66.6666666666667,4,2,4,45,0,0
55252,666.666666666667,4,2,4,62,1,1
55252,-79.9999999999999,4,2,4,62,0,1
75252,-100,4,2,4,60,0,0
75807,-100,4,2,4,40,0,0
76585,-79.9999999999999,4,2,4,62,0,1
97918,-100,4,2,4,44,0,0
113807,-100,4,2,4,50,0,0
115140,-100,4,2,4,56,0,0
116585,-83.3333333333333,4,2,4,62,0,0
119252,-83.3333333333333,4,2,4,68,0,0
129918,-111.111111111111,4,2,4,62,0,0
130029,-111.111111111111,4,2,4,46,0,0
131140,-111.111111111111,4,2,4,62,0,0
131363,-111.111111111111,4,2,4,46,0,0
132585,-111.111111111111,4,2,4,62,0,0
132696,-111.111111111111,4,2,4,46,0,0
133807,-111.111111111111,4,2,4,62,0,0
134029,-111.111111111111,4,2,4,46,0,0
135140,-111.111111111111,4,2,4,62,0,0
135363,-111.111111111111,4,2,4,46,0,0
136474,-111.111111111111,4,2,4,62,0,0
136696,-111.111111111111,4,2,4,46,0,0
137918,-111.111111111111,4,2,4,62,0,0
138029,-111.111111111111,4,2,4,46,0,0
140585,-111.111111111111,4,2,4,62,0,0
140918,-83.3333333333333,4,2,4,62,0,0
151252,-83.3333333333333,4,2,4,24,0,0
151585,-66.6666666666667,4,2,4,45,0,0
152585,666.666666666667,4,2,4,62,1,1
152585,-79.9999999999999,4,2,4,62,0,1
172585,-100,4,2,4,60,0,0
173140,-100,4,2,4,40,0,0
173918,-79.9999999999999,4,2,4,62,0,1
195251,-80,4,2,4,30,0,0
195929,666.666666666667,4,2,4,20,1,0
195929,-125,4,2,4,20,0,0
197928,666.666666666667,4,2,4,20,1,0
197928,-125,4,2,4,20,0,0
200594,-125,4,2,4,20,0,0
201928,784.313725490196,4,2,4,20,1,0
202712,833.333333333333,4,2,4,20,1,0
202989,-100,4,2,4,10,0,0
203740,833.333333333333,4,2,4,15,1,0
207073,-100,4,2,4,5,0,0

[Colours]
Combo1 : 191,97,85
Combo2 : 126,109,85
Combo3 : 216,163,117
Combo4 : 142,142,123

[HitObjects]
202,217,596,5,2,0:0:0:0:
193,137,929,1,0,0:0:0:0:
114,119,1263,1,2,0:0:0:0:
73,188,1596,1,0,0:0:0:0:
128,248,1929,1,2,0:0:0:0:
202,217,2262,1,0,0:0:0:0:
233,291,2596,1,2,0:0:0:0:
159,322,2929,1,0,0:0:0:0:
128,248,3262,5,2,0:0:0:0:
207,258,3595,1,0,0:0:0:0:
217,178,3929,1,2,0:0:0:0:
138,168,4262,1,0,0:0:0:0:
201,217,4596,5,2,0:0:0:0:
278,196,4929,1,0,0:0:0:0:
354,176,5262,1,2,0:0:0:0:
431,155,5596,1,0,0:0:0:0:
354,176,5929,6,0,P|363:261|461:312,2,200,2|2|2,0:0|0:0|0:0,0:0:0:0:
375,98,7596,1,0,0:0:0:0:
297,77,7929,1,2,0:0:0:0:
276,155,8262,1,0,0:0:0:0:
219,98,8596,6,0,P|124:113|82:200,2,200,2|2|2,0:0|0:0|0:0,0:0:0:0:
219,98,10596,1,0,0:0:0:0:
219,98,11262,5,2,0:0:0:0:
257,168,11595,1,0,0:0:0:0:
328,203,11929,1,2,0:0:0:0:
407,189,12262,1,0,0:0:0:0:
463,132,12596,2,0,P|461:83|436:33,1,100,2|0,0:0|0:0,0:0:0:0:
304,108,13262,2,0,P|306:157|331:207,1,100,2|0,0:0|0:0,0:0:0:0:
381,143,13929,6,0,B|281:143|282:200|186:200,1,200,2|2,0:0|0:0,0:0:0:0:
114,181,14929,1,0,0:0:0:0:
137,258,15262,1,2,0:0:0:0:
192,199,15596,2,0,P|335:167|477:226,1,300,0|2,0:0|0:0,0:0:0:0:
337,366,17262,5,2,0:0:0:0:
192,279,17929,1,2,0:0:0:0:
116,303,18262,1,0,0:0:0:0:
69,239,18596,1,2,0:0:0:0:
116,174,18930,1,0,0:0:0:0:
192,199,19262,6,0,P|291:189|393:188,1,200,2|2,0:0|0:0,0:0:0:0:
471,191,20262,1,0,0:0:0:0:
471,191,20596,2,0,P|474:240|475:293,1,100,2|0,0:0|0:0,0:0:0:0:
391,188,21262,2,0,P|381:125|290:27,1,200,2|2,0:0|0:0,0:0:0:0:
246,94,22262,5,0,0:0:0:0:
168,115,22596,1,2,0:0:0:0:
90,136,22929,1,0,0:0:0:0:
13,156,23262,2,0,L|4:261,1,100,2|0,0:0|0:0,0:0:0:0:
91,362,23929,2,0,L|83:263,1,100,2|0,0:0|0:0,0:0:0:0:
191,320,24596,6,0,P|289:326|374:277,1,200,2|2,0:0|0:0,0:0:0:0:
431,219,25596,1,0,0:0:0:0:
453,295,25929,1,2,0:0:0:0:
374,277,26262,2,0,B|235:278|235:361|91:361,1,300,0|2,0:0|0:0,0:0:0:0:
86,201,27929,5,2,0:0:0:0:
91,360,28596,1,2,0:0:0:0:
89,280,28929,1,0,0:0:0:0:
168,277,29262,2,0,B|257:277|256:220|356:220,1,200,2|2,0:0|0:0,0:0:0:0:
256,192,30040,12,2,31262,0:0:0:0:
182,149,31596,5,0,0:0:0:0:
213,265,31929,1,2,0:0:0:0:
329,234,32262,1,0,0:0:0:0:
298,118,32586,1,4,0:3:0:0:
175,333,43252,6,0,P|169:237|114:174,1,179.999994506836,4|0,1:0|0:0,0:0:0:0:
99,255,44252,1,0,0:0:0:0:
255,284,44586,2,0,P|249:194|259:98,1,179.999994506836,8|2,0:0|0:0,0:0:0:0:
304,42,45474,1,0,0:0:0:0:
304,42,45586,1,0,0:0:0:0:
375,72,45808,1,0,0:0:0:0:
375,72,45919,6,0,P|406:107|414:153,1,89.9999972534181,8|0,0:0|0:0,0:0:0:0:
404,283,46586,2,0,P|335:230|333:143,1,179.999994506836,0|8,0:0|0:0,0:0:0:0:
414,148,47586,1,0,0:0:0:0:
312,250,47919,1,2,0:0:0:0:
451,287,48252,1,0,0:0:0:0:
312,250,48586,6,0,P|220:247|129:256,1,179.999994506836,8|0,0:0|0:0,0:0:0:0:
174,325,49586,1,0,0:0:0:0:
218,171,49919,2,0,P|307:178|397:176,1,179.999994506836,8|2,0:0|0:0,0:0:0:0:
450,118,50808,1,0,0:0:0:0:
450,118,50919,1,0,0:0:0:0:
388,69,51141,1,0,0:0:0:0:
388,69,51252,6,0,L|298:57,1,89.9999972534181,8|0,0:0|0:0,0:0:0:0:
124,69,51919,2,0,L|213:57,1,89.9999972534181
349,242,54252,6,0,L|377:312,1,75.0000028610231,0|0,1:0|1:0,0:0:0:0:
205,285,54586,2,0,L|136:312,1,75.0000028610231,10|10,1:3|1:3,0:0:0:0:
162,141,54919,2,0,L|135:72,1,75.0000028610231,8|8,1:3|1:3,0:0:0:0:
306,98,55252,6,0,P|369:90|436:57,1,125,4|2,1:0|0:0,0:0:0:0:
306,23,55918,2,0,P|261:19|220:27,1,83.3333333333333,8|0,1:0|0:0,0:0:0:0:
189,50,56252,2,0,P|148:56|106:52,1,83.3333333333333,2|0,0:0|0:0,0:0:0:0:
66,42,56585,2,0,L|40:170,1,125,0|2,1:0|0:0,0:0:0:0:
112,267,57252,2,0,L|128:185,1,83.3333333333333,8|0,1:0|0:0,0:0:0:0:
128,185,57585,1,2,0:0:0:0:
202,146,57807,1,2,0:0:0:0:
202,146,57918,6,0,P|261:130|319:158,1,125,0|2,1:0|0:0,0:0:0:0:
412,236,58585,2,0,P|352:251|295:224,2,125,8|2|0,1:0|0:0|1:0,0:0:0:0:
317,156,59585,1,2,0:0:0:0:
436,118,59918,1,8,1:0:0:0:
322,65,60252,2,0,P|282:74|240:79,1,83.3333333333333,2|2,0:0|0:0,0:0:0:0:
240,78,60585,6,0,L|115:79,1,125,0|2,1:0|0:0,0:0:0:0:
8,203,61252,2,0,L|133:202,1,125,8|2,1:0|0:0,0:0:0:0:
253,234,61918,2,0,P|282:287|257:349,2,125,0|2|8,1:0|0:0|1:0,0:0:0:0:
132,202,62918,1,2,0:0:0:0:
51,222,63140,1,2,0:0:0:0:
51,222,63252,6,0,P|24:169|39:104,2,125,0|2|8,1:0|0:0|1:0,0:0:0:0:
165,272,64252,1,2,0:0:0:0:
271,206,64585,2,0,L|396:213,1,125,0|2,1:0|0:0,0:0:0:0:
456,322,65252,2,0,L|331:315,1,125,8|2,1:0|0:0,0:0:0:0:
147,352,65918,6,0,P|131:292|142:230,1,125,0|2,1:0|0:0,0:0:0:0:
252,172,66585,2,0,P|265:211|263:257,1,83.3333333333333,8|0,1:0|0:0,0:0:0:0:
257,293,66918,2,0,L|132:303,2,125,2|0|2,0:0|1:0|0:0,0:0:0:0:
364,357,67918,1,8,1:0:0:0:
366,233,68252,2,0,P|356:190|331:150,1,83.3333333333333,2|2,0:0|0:0,0:0:0:0:
298,140,68585,6,0,L|167:129,1,125,0|2,1:0|0:0,0:0:0:0:
353,241,69252,2,0,L|478:252,1,125,8|2,1:0|0:0,0:0:0:0:
284,333,69918,2,0,L|153:326,1,125,0|2,1:0|0:0,0:0:0:0:
354,222,70585,2,0,L|479:233,1,125,8|2,1:0|0:0,0:0:0:0:
284,333,71252,5,0,1:0:0:0:
146,206,71585,1,2,0:0:0:0:
323,150,71918,1,8,1:0:0:0:
146,206,72251,1,2,0:0:0:0:
284,333,72585,2,0,P|347:337|397:305,1,125,0|2,1:0|0:0,0:0:0:0:
440,187,73252,2,0,P|378:181|326:214,1,125,8|2,1:0|0:0,0:0:0:0:
256,259,73807,1,0,0:0:0:0:
256,259,73918,6,0,L|132:270,1,125,0|2,1:0|0:0,0:0:0:0:
256,125,74585,2,0,L|380:114,1,125,8|2,1:0|0:0,0:0:0:0:
484,211,75252,5,2,0:1:0:0:
28,173,75918,1,2,0:1:0:0:
304,37,76585,6,0,P|367:45|434:78,1,125,4|2,1:0|0:0,0:0:0:0:
304,112,77251,2,0,P|259:116|218:108,1,83.3333333333333,8|0,1:0|0:0,0:0:0:0:
187,85,77585,2,0,P|146:79|104:83,1,83.3333333333333,2|0,0:0|0:0,0:0:0:0:
70,106,77918,2,0,L|44:234,1,125,0|2,1:0|0:0,0:0:0:0:
116,331,78585,2,0,L|132:249,1,83.3333333333333,8|0,1:0|0:0,0:0:0:0:
132,249,78918,1,2,0:0:0:0:
206,210,79140,1,2,0:0:0:0:
206,210,79251,6,0,P|265:194|323:222,1,125,0|2,1:0|0:0,0:0:0:0:
416,300,79918,2,0,P|356:315|299:288,2,125,8|2|0,1:0|0:0|1:0,0:0:0:0:
321,220,80918,1,2,0:0:0:0:
440,182,81251,1,8,1:0:0:0:
326,129,81585,2,0,P|286:138|244:143,1,83.3333333333333,2|2,0:0|0:0,0:0:0:0:
244,143,81918,6,0,L|119:144,1,125,0|2,1:0|0:0,0:0:0:0:
49,248,82585,2,0,L|174:247,1,125,8|2,1:0|0:0,0:0:0:0:
297,261,83251,2,0,P|326:314|316:382,2,125,0|2|8,1:0|0:0|1:0,0:0:0:0:
198,183,84251,1,2,0:0:0:0:
116,212,84473,1,2,0:0:0:0:
116,212,84585,6,0,P|89:159|104:94,2,125,0|2|8,1:0|0:0|1:0,0:0:0:0:
239,233,85585,1,2,0:0:0:0:
356,191,85918,2,0,L|363:66,1,125,0|2,1:0|0:0,0:0:0:0:
253,5,86585,2,0,L|246:130,1,125,8|2,1:0|0:0,0:0:0:0:
362,229,87252,6,0,P|378:169|367:107,1,125,0|2,1:0|0:0,0:0:0:0:
257,49,87919,2,0,P|244:88|246:134,1,83.3333333333333,8|0,1:0|0:0,0:0:0:0:
252,170,88252,2,0,L|377:180,2,125,2|0|2,0:0|1:0|0:0,0:0:0:0:
145,234,89252,1,8,1:0:0:0:
143,110,89586,2,0,P|153:67|178:27,1,83.3333333333333,2|2,0:0|0:0,0:0:0:0:
211,17,89919,6,0,L|342:6,1,125,0|2,1:0|0:0,0:0:0:0:
156,118,90586,2,0,L|31:129,1,125,8|2,1:0|0:0,0:0:0:0:
225,210,91252,2,0,L|356:203,1,125,0|2,1:0|0:0,0:0:0:0:
155,99,91919,2,0,L|30:110,1,125,8|2,1:0|0:0,0:0:0:0:
37,283,92585,5,0,1:0:0:0:
158,251,92918,1,2,0:0:0:0:
280,219,93252,1,8,1:0:0:0:
401,186,93585,1,2,0:0:0:0:
280,219,93918,2,0,P|276:282|308:332,1,125,0|2,1:0|0:0,0:0:0:0:
427,371,94585,2,0,P|432:309|399:257,1,125,8|2,1:0|0:0,0:0:0:0:
325,219,95140,1,0,0:0:0:0:
325,219,95252,6,0,L|200:229,1,125,0|2,1:0|0:0,0:0:0:0:
308,332,95918,2,0,L|433:322,1,125,8|2,1:0|0:0,0:0:0:0:
248,255,96585,2,0,L|123:266,1,125,0|2,1:0|0:0,0:0:0:0:
287,155,97252,2,0,L|412:145,1,125,8|2,1:0|0:0,0:0:0:0:
256,48,97918,5,2,0:3:0:0:
189,93,98252,1,0,0:0:0:0:
127,41,98585,1,2,0:0:0:0:
74,100,98918,1,0,0:0:0:0:
132,155,99252,2,0,P|131:206|114:255,1,100,2|0,0:3|0:0,0:0:0:0:
177,366,99918,5,2,0:0:0:0:
257,334,100140,1,2,0:0:0:0:
257,334,100252,1,2,0:0:0:0:
338,362,100474,1,2,0:0:0:0:
338,362,100585,6,0,L|440:358,1,100,2|0,0:3|0:0,0:0:0:0:
483,292,101252,1,2,0:0:0:0:
468,213,101585,1,0,0:0:0:0:
412,155,101918,2,0,L|311:152,1,100,2|0,0:3|0:0,0:0:0:0:
100,229,102585,2,0,L|201:232,1,100,2|2,0:0|0:0,0:0:0:0:
359,233,103252,5,2,0:3:0:0:
359,313,103585,1,0,0:0:0:0:
278,313,103918,1,2,0:0:0:0:
280,232,104252,1,0,0:0:0:0:
429,175,104585,6,0,P|447:222|438:273,2,100,2|0|2,0:3|0:0|0:0,0:0:0:0:
360,121,105474,1,2,0:0:0:0:
360,121,105585,1,2,0:0:0:0:
274,105,105807,1,2,0:0:0:0:
274,105,105918,6,0,L|171:118,1,100,2|0,0:3|0:0,0:0:0:0:
238,279,106585,2,0,L|341:266,1,100,2|0,0:0|0:0,0:0:0:0:
184,192,107252,2,0,L|88:232,1,100,2|0,0:3|0:0,0:0:0:0:
328,192,107918,2,0,L|424:232,1,100,2|2,0:0|0:0,0:0:0:0:
256,360,108585,5,2,0:3:0:0:
179,339,108918,1,0,0:0:0:0:
101,318,109252,1,2,0:0:0:0:
154,259,109585,1,0,0:0:0:0:
75,243,109918,2,0,L|-23:222,1,100,2|0,0:3|0:0,0:0:0:0:
79,141,110585,5,2,0:0:0:0:
153,96,110807,1,2,0:0:0:0:
153,96,110918,1,2,0:0:0:0:
229,135,111140,1,2,0:0:0:0:
229,135,111252,6,0,P|281:143|321:117,1,100,2|0,0:3|0:0,0:0:0:0:
438,171,111918,2,0,P|385:163|346:189,1,100,2|0,0:0|0:0,0:0:0:0:
250,273,112585,2,0,P|302:281|342:255,2,100,2|0|2,0:3|0:0|0:0,0:0:0:0:
131,218,113585,1,2,0:0:0:0:
250,273,113918,6,0,L|244:373,1,100,2|0,0:3|0:0,0:0:0:0:
329,156,114585,2,0,L|418:111,1,100,2|2,0:0|0:0,0:0:0:0:
188,146,115252,2,0,L|105:91,2,100,2|0|2,0:3|0:0|0:0,0:0:0:0:
188,232,116140,1,2,0:0:0:0:
188,232,116252,1,2,0:0:0:0:
274,232,116474,1,2,0:0:0:0:
274,232,116585,6,0,L|410:232,1,119.999996337891,2|0,0:3|0:0,0:0:0:0:
166,309,117252,2,0,L|46:309,1,119.999996337891,2|2,0:0|0:0,0:0:0:0:
256,192,117918,12,4,119252,1:2:0:0:
337,51,129918,6,0,P|343:147|398:210,1,179.999994506836,4|0,1:0|0:0,0:0:0:0:
413,129,130918,1,0,0:0:0:0:
257,100,131252,2,0,P|263:190|253:286,1,179.999994506836,8|2,0:0|0:0,0:0:0:0:
208,342,132140,1,0,0:0:0:0:
208,342,132252,1,0,0:0:0:0:
137,312,132474,1,0,0:0:0:0:
137,312,132585,6,0,P|106:277|98:231,1,89.9999972534181,8|0,0:0|0:0,0:0:0:0:
108,101,133252,2,0,P|177:154|179:241,1,179.999994506836,0|8,0:0|0:0,0:0:0:0:
98,236,134252,1,0,0:0:0:0:
200,134,134585,1,2,0:0:0:0:
61,97,134918,1,0,0:0:0:0:
200,134,135252,6,0,P|292:137|383:128,1,179.999994506836,8|0,0:0|0:0,0:0:0:0:
338,59,136252,1,0,0:0:0:0:
294,213,136585,2,0,P|205:206|115:208,1,179.999994506836,8|2,0:0|0:0,0:0:0:0:
62,266,137474,1,0,0:0:0:0:
62,266,137585,1,0,0:0:0:0:
124,315,137807,1,0,0:0:0:0:
124,315,137918,6,0,L|214:327,1,89.9999972534181,8|0,0:0|0:0,0:0:0:0:
296,244,138585,2,0,L|206:232,1,89.9999972534181
140,135,139252,2,0,L|319:158,2,179.999994506836,8|2|8,0:0|0:0|0:0,0:0:0:0:
140,135,140918,6,0,P|124:190|135:254,2,119.999996337891,0|8|0,0:0|0:0|0:0,0:0:0:0:
225,34,141918,1,10,0:0:0:0:
278,154,142252,1,0,0:0:0:0:
370,60,142585,2,0,P|411:57|446:72,1,79.9999975585938,10|0,0:0|0:0,0:0:0:0:
470,108,142918,2,0,L|475:192,1,79.9999975585938,8|0,0:0|0:0,0:0:0:0:
474,187,143252,5,10,0:0:0:0:
459,318,143585,1,0,0:0:0:0:
356,235,143918,1,8,0:0:0:0:
275,339,144252,1,0,0:0:0:0:
157,279,144585,2,0,L|37:296,1,119.999996337891,10|0,0:0|0:0,0:0:0:0:
170,197,145252,2,0,L|290:180,1,119.999996337891,10|0,0:0|0:0,0:0:0:0:
256,192,145918,12,10,148585,0:0:0:0:
256,192,148696,12,0,151252,0:0:0:0:
349,142,151585,6,0,L|377:72,1,75.0000028610231,0|0,1:0|1:0,0:0:0:0:
205,99,151919,2,0,L|136:72,1,75.0000028610231,10|10,1:3|1:3,0:0:0:0:
162,243,152252,2,0,L|135:312,1,75.0000028610231,8|8,1:3|1:3,0:0:0:0:
306,286,152585,6,0,P|369:294|436:327,1,125,4|2,1:0|0:0,0:0:0:0:
306,361,153251,2,0,P|261:365|220:357,1,83.3333333333333,8|0,1:0|0:0,0:0:0:0:
189,334,153585,2,0,P|148:328|106:332,1,83.3333333333333,2|0,0:0|0:0,0:0:0:0:
66,342,153918,2,0,L|40:214,1,125,0|2,1:0|0:0,0:0:0:0:
112,117,154585,2,0,L|128:199,1,83.3333333333333,8|0,1:0|0:0,0:0:0:0:
128,199,154918,1,2,0:0:0:0:
202,238,155140,1,2,0:0:0:0:
202,238,155251,6,0,P|261:254|319:226,1,125,0|2,1:0|0:0,0:0:0:0:
412,148,155918,2,0,P|352:133|295:160,2,125,8|2|0,1:0|0:0|1:0,0:0:0:0:
317,228,156918,1,2,0:0:0:0:
436,266,157251,1,8,1:0:0:0:
322,319,157585,2,0,P|282:310|240:305,1,83.3333333333333,2|2,0:0|0:0,0:0:0:0:
240,306,157918,6,0,L|115:305,1,125,0|2,1:0|0:0,0:0:0:0:
8,181,158585,2,0,L|133:182,1,125,8|2,1:0|0:0,0:0:0:0:
253,150,159251,2,0,P|282:97|257:35,2,125,0|2|8,1:0|0:0|1:0,0:0:0:0:
132,182,160251,1,2,0:0:0:0:
51,162,160473,1,2,0:0:0:0:
51,162,160585,6,0,P|24:215|39:280,2,125,0|2|8,1:0|0:0|1:0,0:0:0:0:
165,112,161585,1,2,0:0:0:0:
271,178,161918,2,0,L|396:171,1,125,0|2,1:0|0:0,0:0:0:0:
456,62,162585,2,0,L|331:69,1,125,8|2,1:0|0:0,0:0:0:0:
147,32,163251,6,0,P|131:92|142:154,1,125,0|2,1:0|0:0,0:0:0:0:
252,212,163918,2,0,P|265:173|263:127,1,83.3333333333333,8|0,1:0|0:0,0:0:0:0:
257,91,164251,2,0,L|132:81,2,125,2|0|2,0:0|1:0|0:0,0:0:0:0:
364,27,165251,1,8,1:0:0:0:
366,151,165585,2,0,P|356:194|331:234,1,83.3333333333333,2|2,0:0|0:0,0:0:0:0:
298,244,165918,6,0,L|167:255,1,125,0|2,1:0|0:0,0:0:0:0:
353,143,166585,2,0,L|478:132,1,125,8|2,1:0|0:0,0:0:0:0:
284,51,167251,2,0,L|153:58,1,125,0|2,1:0|0:0,0:0:0:0:
354,162,167918,2,0,L|479:151,1,125,8|2,1:0|0:0,0:0:0:0:
284,51,168585,5,0,1:0:0:0:
146,178,168918,1,2,0:0:0:0:
323,234,169251,1,8,1:0:0:0:
146,178,169584,1,2,0:0:0:0:
284,51,169918,2,0,P|347:47|397:79,1,125,0|2,1:0|0:0,0:0:0:0:
440,197,170585,2,0,P|378:203|326:170,1,125,8|2,1:0|0:0,0:0:0:0:
256,125,171140,1,0,0:0:0:0:
256,125,171251,6,0,L|132:114,1,125,0|2,1:0|0:0,0:0:0:0:
256,259,171918,2,0,L|380:270,1,125,8|2,1:0|0:0,0:0:0:0:
484,173,172585,5,2,0:1:0:0:
28,211,173251,1,2,0:1:0:0:
304,347,173918,6,0,P|367:339|434:306,1,125,4|2,1:0|0:0,0:0:0:0:
304,272,174584,2,0,P|259:268|218:276,1,83.3333333333333,8|0,1:0|0:0,0:0:0:0:
187,299,174918,2,0,P|146:305|104:301,1,83.3333333333333,2|0,0:0|0:0,0:0:0:0:
70,278,175251,2,0,L|44:150,1,125,0|2,1:0|0:0,0:0:0:0:
116,53,175918,2,0,L|132:135,1,83.3333333333333,8|0,1:0|0:0,0:0:0:0:
132,135,176251,1,2,0:0:0:0:
206,174,176473,1,2,0:0:0:0:
206,174,176584,6,0,P|265:190|323:162,1,125,0|2,1:0|0:0,0:0:0:0:
416,84,177251,2,0,P|356:69|299:96,2,125,8|2|0,1:0|0:0|1:0,0:0:0:0:
321,164,178251,1,2,0:0:0:0:
440,202,178584,1,8,1:0:0:0:
326,255,178918,2,0,P|286:246|244:241,1,83.3333333333333,2|2,0:0|0:0,0:0:0:0:
244,241,179251,6,0,L|119:240,1,125,0|2,1:0|0:0,0:0:0:0:
49,136,179918,2,0,L|174:137,1,125,8|2,1:0|0:0,0:0:0:0:
297,123,180584,2,0,P|326:70|316:2,2,125,0|2|8,1:0|0:0|1:0,0:0:0:0:
198,201,181584,1,2,0:0:0:0:
116,172,181806,1,2,0:0:0:0:
116,172,181918,6,0,P|89:225|104:290,2,125,0|2|8,1:0|0:0|1:0,0:0:0:0:
239,151,182918,1,2,0:0:0:0:
356,193,183251,2,0,L|363:318,1,125,0|2,1:0|0:0,0:0:0:0:
253,379,183918,2,0,L|246:254,1,125,8|2,1:0|0:0,0:0:0:0:
362,155,184585,6,0,P|378:215|367:277,1,125,0|2,1:0|0:0,0:0:0:0:
257,335,185252,2,0,P|244:296|246:250,1,83.3333333333333,8|0,1:0|0:0,0:0:0:0:
252,214,185585,2,0,L|377:204,2,125,2|0|2,0:0|1:0|0:0,0:0:0:0:
145,150,186585,1,8,1:0:0:0:
143,274,186919,2,0,P|153:317|178:357,1,83.3333333333333,2|2,0:0|0:0,0:0:0:0:
211,367,187252,6,0,L|342:378,1,125,0|2,1:0|0:0,0:0:0:0:
156,266,187919,2,0,L|31:255,1,125,8|2,1:0|0:0,0:0:0:0:
225,174,188585,2,0,L|356:181,1,125,0|2,1:0|0:0,0:0:0:0:
155,285,189252,2,0,L|30:274,1,125,8|2,1:0|0:0,0:0:0:0:
37,101,189918,5,0,1:0:0:0:
158,133,190251,1,2,0:0:0:0:
280,165,190585,1,8,1:0:0:0:
401,198,190918,1,2,0:0:0:0:
280,165,191251,2,0,P|276:102|308:52,1,125,0|2,1:0|0:0,0:0:0:0:
427,13,191918,2,0,P|432:75|399:127,1,125,8|2,1:0|0:0,0:0:0:0:
325,165,192473,1,0,0:0:0:0:
325,165,192585,6,0,L|200:155,1,125,0|2,1:0|0:0,0:0:0:0:
308,52,193251,2,0,L|433:62,1,125,8|2,1:0|0:0,0:0:0:0:
248,129,193918,2,0,L|123:118,1,125,0|2,1:0|0:0,0:0:0:0:
287,229,194585,2,0,L|412:239,1,125,8|2,1:0|0:0,0:0:0:0:
256,48,195251,5,4,0:0:0:0:
256,48,195929,2,0,P|218:43|176:52,1,80,2|0,0:0|0:0,0:0:0:0:
141,131,196595,2,0,P|179:136|221:127,1,80,2|0,0:0|0:0,0:0:0:0:
307,120,197262,2,0,L|325:200,1,80,2|0,0:0|0:0,0:0:0:0:
410,266,197928,6,0,L|419:99,2,160,2|2|2,0:0|0:0|0:0,0:0:0:0:
362,339,199594,1,0,0:0:0:0:
281,302,199928,2,0,P|241:296|203:305,1,80,2|0,0:0|0:0,0:0:0:0:
122,340,200594,6,0,P|64:310|56:223,2,160,2|2|2,0:0|0:0|0:0,0:0:0:0:
202,305,202320,1,0,0:0:0:0:
283,282,202712,2,0,L|383:282,1,100,2|0,0:0|0:0,0:0:0:0:
383,282,203740,5,2,0:0:0:0:
256,192,203878,12,0,207073,0:0:0:0:
