osu file format v14

[General]
AudioFilename: audio.mp3
AudioLeadIn: 1500
PreviewTime: 76585
Countdown: 0
SampleSet: Soft
StackLeniency: 0.7
Mode: 0
LetterboxInBreaks: 0
EpilepsyWarning: 1
WidescreenStoryboard: 1

[Editor]
DistanceSpacing: 1.4
BeatDivisor: 4
GridSize: 4
TimelineZoom: 1

[Metadata]
Title:Faded
TitleUnicode:Faded
Artist:Alan Walker
ArtistUnicode:Alan Walker
Creator:HootOwlStar
Version:Heavy
Source:
Tags:single electronic ballad edm Iselin Solheim fade remastered BoatKrab Arcubin RyoKazuka ReFaller
BeatmapID:987776
BeatmapSetID:461191

[Difficulty]
HPDrainRate:6
CircleSize:4.5
OverallDifficulty:6
ApproachRate:7
SliderMultiplier:1.6
SliderTickRate:1

[Events]
//Background and Video events
0,0,"bg.jpg",0,0
Video,40,"Alan Walker - Faded.avi"
//Break Periods
2,98118,107685
//Storyboard Layer 0 (Background)
//Storyboard Layer 1 (Fail)
//Storyboard Layer 2 (Pass)
//Storyboard Layer 3 (Foreground)
//Storyboard Sound Samples

[TimingPoints]
596,666.666666666667,4,2,2,20,1,0
596,-125,4,2,2,20,0,0
11262,-125,4,2,2,35,0,0
32586,666.666666666667,4,2,2,50,1,0
32586,-117.647058823529,4,2,2,50,0,0
43252,-111.111111111111,4,2,2,85,0,0
55252,666.666666666667,4,1,2,100,1,1
75252,-100,4,1,2,100,0,0
75807,-100,4,1,2,5,0,0
75918,-100,4,1,2,100,0,0
76474,-100,4,1,2,5,0,0
76585,-100,4,1,2,100,0,1
97807,-100,4,1,2,5,0,1
97918,-117.647058823529,4,2,2,70,0,0
113140,-117.647058823529,4,2,2,5,0,0
113252,-117.647058823529,4,2,2,70,0,0
127140,-117.647058823529,4,2,2,5,0,0
127252,-117.647058823529,4,2,2,70,0,0
129807,-117.647058823529,4,2,2,5,0,0
129918,-111.111111111111,4,2,2,85,0,0
140474,-111.111111111111,4,2,2,5,0,0
140585,-111.111111111111,4,2,2,85,0,0
152585,666.666666666667,4,1,2,100,1,1
157807,-100,4,1,2,5,0,1
157918,-100,4,1,2,100,0,1
160473,-100,4,1,2,5,0,1
160585,-100,4,1,2,100,0,1
171140,-100,4,1,2,5,0,1
171251,-100,4,1,2,100,0,1
172585,-100,4,1,2,100,0,0
173140,-100,4,1,2,5,0,0
173251,-100,4,1,2,100,0,0
173807,-100,4,1,2,5,0,0
173918,-100,4,1,2,100,0,1
179140,-100,4,1,2,5,0,1
179251,-100,4,1,2,100,0,1
194473,-100,4,1,2,5,0,1
194585,-100,4,1,2,100,0,1
195140,-100,4,1,2,5,0,1
195251,-127.388535031847,4,2,99,50,0,0
195929,666.666666666667,4,2,2,50,1,0
196095,-125,4,2,2,50,0,0
197928,666.666666666667,4,2,2,50,1,0
197928,-125,4,2,2,50,0,0
200594,-125,4,2,2,35,0,0
201928,784.313725490196,4,2,2,35,1,0
202712,833.333333333333,4,2,2,35,1,0
203740,833.333333333333,4,2,2,15,1,0
207073,-100,4,2,2,5,0,0

[Colours]
Combo1 : 191,97,85
Combo2 : 126,109,85
Combo3 : 216,163,117
Combo4 : 142,142,123

[HitObjects]
56,40,596,6,0,L|48:192,1,128
4,244,1596,1,0,0:0:0:0:
56,316,1929,2,0,P|70:344|78:375,1,64
160,336,2596,2,0,L|232:332,1,64
304,376,3262,2,0,L|431:368,1,128
500,308,4262,1,0,0:0:0:0:
412,284,4596,2,0,P|368:272|332:244,1,64
308,184,5262,2,0,B|304:152|304:152|324:100,1,64
396,80,5929,6,0,P|464:84|512:20,2,128
344,4,7596,1,0,0:0:0:0:
288,76,7929,2,0,L|292:152,1,64
360,200,8596,2,0,L|353:327,1,128
268,360,9596,1,0,0:0:0:0:
184,328,9929,2,0,P|116:324|60:380,1,128
70,358,11262,6,0,B|84:312|84:312|70:226,1,128,2|0,0:0|0:0,0:0:0:0:
8,168,12262,1,0,0:0:0:0:
72,104,12596,2,0,L|135:110,1,64
243,25,13262,2,0,L|180:32,1,64
276,112,13929,2,0,P|332:108|372:36,1,128
448,100,14929,2,0,P|460:144|472:168,1,64
512,240,15596,2,0,L|500:368,1,128
420,324,16596,6,0,P|352:316|300:360,2,128
500,367,18262,1,0,0:0:0:0:
500,276,18596,2,0,P|484:212|484:184,1,64
408,168,19262,2,0,L|264:180,1,128
192,156,20262,1,0,0:0:0:0:
256,92,20596,2,0,P|272:28|272:0,1,64
192,156,21262,2,0,P|197:187|207:217,1,64
248,320,21929,6,0,L|104:312,1,128,2|0,0:0|0:0,0:0:0:0:
44,364,22929,1,0,0:0:0:0:
0,284,23262,2,0,L|8:196,1,64
79,113,23929,2,0,L|84:176,1,64
112,284,24596,2,0,P|160:284|216:216,1,128
288,280,25596,2,0,B|284:316|284:316|296:368,1,64
372,376,26262,2,0,L|512:364,1,128
456,288,27262,6,0,B|440:240|440:240|456:148,1,128
500,88,28262,1,0,0:0:0:0:
432,28,28596,2,0,L|344:40,1,64
310,116,29262,2,0,P|342:116|372:128,1,64
408,212,29929,2,0,L|400:348,2,128
468,144,31596,1,0,0:0:0:0:
496,228,31929,2,0,P|500:264|512:300,1,64
444,360,32586,6,0,P|380:340|320:380,1,136.000002593994,6|0,0:0|0:0,0:0:0:0:
252,312,33586,1,0,0:0:0:0:
332,260,33919,2,0,L|320:180,1,68.0000012969971
240,144,34586,2,0,L|252:64,1,68.0000012969971
328,24,35252,2,0,B|376:40|376:40|464:24,2,136.000002593994
250,76,36919,1,0,0:0:0:0:
172,24,37252,2,0,L|100:28,1,68.0000012969971
28,84,37919,6,0,P|3:146|25:208,1,136.000002593994
100,147,38919,1,0,0:0:0:0:
172,207,39252,2,0,B|176:243|176:243|160:279,1,68.0000012969971
124,360,39919,2,0,L|200:368,1,68.0000012969971
272,316,40586,2,0,P|324:312|384:368,2,136.000002593994
191,367,42252,1,0,0:0:0:0:
120,304,42586,1,0,0:0:0:0:
160,216,42919,1,0,0:0:0:0:
260,228,43252,6,0,L|416:216,1,143.999995605469,6|0,0:0|0:0,0:0:0:0:
472,292,44252,1,0,0:0:0:0:
504,196,44586,2,0,B|488:128|488:128|488:80|498:54,1,143.999995605469,8|0,0:0|0:0,0:0:0:0:
408,8,45586,1,0,0:0:0:0:
332,72,45919,2,0,L|247:66,1,71.9999978027344,8|0,0:0|0:0,0:0:0:0:
171,15,46586,2,0,P|101:20|48:67,1,143.999995605469,0|8,0:0|0:0,0:0:0:0:
16,164,47586,1,0,0:0:0:0:
48,260,47919,2,0,P|60:304|64:348,1,71.9999978027344
160,364,48586,6,0,L|172:196,1,143.999995605469,8|0,0:0|0:0,0:0:0:0:
168,120,49586,1,0,0:0:0:0:
256,168,49919,2,0,P|312:164|336:60,1,143.999995605469,8|0,0:0|0:0,0:0:0:0:
284,16,50919,1,0,0:0:0:0:
192,56,51252,2,0,L|48:48,1,143.999995605469,8|0,0:0|0:0,0:0:0:0:
0,136,52252,1,0,0:0:0:0:
0,136,54252,6,0,L|12:200,1,35.9999989013672
76,208,54586,2,0,L|69:243,1,35.9999989013672
0,284,54919,2,0,L|12:348,1,35.9999989013672
76,372,55252,6,0,L|240:360,1,160,6|8,0:0|0:0,0:0:0:0:
324,308,56252,1,0,0:0:0:0:
232,256,56585,2,0,P|212:208|208:152,1,80,2|0,0:0|0:0,0:0:0:0:
128,84,57252,2,0,P|120:123|103:159,1,80,8|0,0:0|0:0,0:0:0:0:
40,28,57918,2,0,B|100:48|100:48|204:28,1,160,2|8,0:0|0:0,0:0:0:0:
288,76,58918,1,0,0:0:0:0:
380,28,59252,2,0,L|464:40,1,80,2|0,0:0|0:0,0:0:0:0:
508,132,59918,2,0,P|464:134|424:144,1,80,8|0,0:0|0:0,0:0:0:0:
376,232,60585,6,0,P|388:300|472:344,2,160,2|8|2,0:0|0:0|0:0,0:0:0:0:
429,142,62252,1,0,0:0:0:0:
388,48,62585,2,0,B|352:64|352:64|300:52,1,80,8|0,0:0|0:0,0:0:0:0:
216,16,63252,2,0,L|52:24,1,160,2|8,0:0|0:0,0:0:0:0:
0,112,64252,2,0,P|84:124|104:204,1,160
64,280,65252,2,0,P|59:319|67:358,1,80,8|0,0:0|0:0,0:0:0:0:
172,368,65918,6,0,B|220:360|220:360|280:376|280:376|340:368,1,160,2|8,0:0|0:0,0:0:0:0:
424,332,66918,1,0,0:0:0:0:
348,260,67252,2,0,L|340:180,1,80,2|0,0:0|0:0,0:0:0:0:
452,84,67918,2,0,L|444:164,1,80,8|0,0:0|0:0,0:0:0:0:
347,259,68585,2,0,P|264:256|228:184,1,160,2|8,0:0|0:0,0:0:0:0:
216,92,69585,1,0,0:0:0:0:
136,156,69918,2,0,P|92:172|52:172,1,80,2|0,0:0|0:0,0:0:0:0:
24,272,70585,2,0,P|63:274|100:288,1,80,8|0,0:0|0:0,0:0:0:0:
176,360,71252,6,0,P|220:292|316:320,1,160,2|8,0:0|0:0,0:0:0:0:
372,360,72252,1,0,0:0:0:0:
392,256,72585,2,0,B|376:220|376:220|384:164,1,80,2|0,0:0|0:0,0:0:0:0:
432,88,73252,2,0,L|512:84,1,80,8|0,0:0|0:0,0:0:0:0:
348,28,73918,2,0,L|188:20,1,160,2|8,0:0|0:0,0:0:0:0:
84,8,74918,1,0,0:0:0:0:
4,76,75252,2,0,L|20:208,1,133.333333333333
52,192,75918,2,0,B|68:240|68:240|52:340,1,133.333333333333
20,332,76585,6,0,L|216:324,1,160,6|8,0:0|0:0,0:0:0:0:
272,372,77585,1,0,0:0:0:0:
352,308,77918,2,0,P|372:256|376:212,1,80,2|0,0:0|0:0,0:0:0:0:
448,116,78585,2,0,P|456:155|472:192,1,80,8|0,0:0|0:0,0:0:0:0:
495,291,79252,2,0,P|419:298|387:367,1,160,2|8,0:0|0:0,0:0:0:0:
296,320,80252,1,0,0:0:0:0:
295,319,80585,2,0,P|296:280|307:241,1,80,2|0,0:0|0:0,0:0:0:0:
204,368,81252,2,0,L|192:288,1,80,8|0,0:0|0:0,0:0:0:0:
132,204,81918,6,0,P|52:200|12:284,2,160,2|8|2,0:0|0:0|0:0,0:0:0:0:
192,288,83585,1,0,0:0:0:0:
132,372,83918,2,0,L|45:365,1,80,8|0,0:0|0:0,0:0:0:0:
192,288,84585,2,0,B|308:280|308:280|347:299,1,160,2|8,0:0|0:0,0:0:0:0:
424,372,85585,1,0,0:0:0:0:
500,300,85918,2,0,B|512:128,1,160,2|8,0:0|0:0,0:0:0:0:
484,40,86918,1,0,0:0:0:0:
412,116,87252,6,0,P|340:136|264:84,1,160,2|8,0:0|0:0,0:0:0:0:
208,12,88252,1,0,0:0:0:0:
164,104,88585,2,0,B|160:148|160:148|176:196,1,80,2|0,0:0|0:0,0:0:0:0:
104,264,89252,2,0,L|24:256,1,80,8|0,0:0|0:0,0:0:0:0:
148,360,89918,2,0,B|200:348|200:348|256:360|256:360|304:350,1,160,2|8,0:0|0:0,0:0:0:0:
356,260,90918,1,0,0:0:0:0:
404,352,91252,2,0,P|455:367|508:284,1,160,2|8,0:0|0:0,0:0:0:0:
416,248,92252,1,0,0:0:0:0:
500,188,92585,6,0,B|516:84|516:84|504:30,1,160,2|8,0:0|0:0,0:0:0:0:
404,8,93585,1,0,0:0:0:0:
308,48,93918,2,0,L|214:43,1,80,2|0,0:0|0:0,0:0:0:0:
133,132,94585,2,0,P|173:137|211:148,1,80,8|0,0:0|0:0,0:0:0:0:
276,232,95252,2,0,P|256:284|152:248,1,160,2|8,0:0|0:0,0:0:0:0:
92,204,96252,1,0,0:0:0:0:
44,296,96585,2,0,L|50:378,1,80,2|0,0:0|0:0,0:0:0:0:
144,328,97252,2,0,L|153:192,1,133.333333333333,8|0,0:0|0:0,0:0:0:0:
176,172,97918,5,6,0:0:0:0:
176,172,108585,6,0,L|40:183,1,136.000002593994,2|0,0:0|0:0,0:0:0:0:
0,272,109585,1,0,0:0:0:0:
40,356,109918,2,0,B|76:364|76:364|116:348,1,68.0000012969971
180,292,110585,2,0,P|232:316|252:332,1,68.0000012969971
320,372,111252,2,0,B|368:356|368:356|452:372,1,136.000002593994
512,296,112252,1,0,0:0:0:0:
452,224,112585,2,0,L|440:96,1,113.333335494995
424,88,113252,2,0,P|436:40|456:8,1,68.0000012969971
340,52,113918,6,0,P|268:56|228:8,1,136.000002593994
144,52,114918,1,0,0:0:0:0:
192,132,115252,2,0,P|192:158|184:199,1,68.0000012969971
104,252,115918,1,0,0:0:0:0:
104,252,116252,1,0,0:0:0:0:
188,296,116585,2,0,L|324:284,1,136.000002593994
404,232,117585,1,0,0:0:0:0:
472,300,117918,2,0,P|478:333|480:384,1,68.0000012969971
404,232,118585,2,0,P|406:198|412:164,1,68.0000012969971
468,88,119252,6,0,B|328:76,1,136.000002593994,6|0,0:0|0:0,0:0:0:0:
260,16,120252,1,0,0:0:0:0:
196,84,120585,2,0,L|204:172,1,68.0000012969971
260,228,121252,2,0,L|252:316,1,68.0000012969971
188,364,121918,2,0,P|104:364|68:324,2,136.000002593994
253,295,123585,1,0,0:0:0:0:
316,364,123918,2,0,L|386:358,1,68.0000012969971
476,336,124585,6,0,B|456:288|456:288|476:192,1,136.000002593994
424,124,125585,1,0,0:0:0:0:
348,180,125918,2,0,L|353:247,1,68.0000012969971
288,316,126585,2,0,P|233:308|189:342,1,113.333335494995
204,372,127252,2,0,L|60:360,1,136.000002593994
0,184,128585,2,0,L|72:178,1,68.0000012969971
148,228,129252,2,0,P|188:160|176:112,1,113.333335494995
164,100,129918,6,0,P|208:128|296:88,1,143.999995605469,6|0,0:0|0:0,0:0:0:0:
324,4,130918,1,0,0:0:0:0:
400,72,131252,2,0,B|384:120|384:120|384:168|401:211,1,143.999995605469,8|0,0:0|0:0,0:0:0:0:
472,284,132252,1,0,0:0:0:0:
404,360,132585,2,0,L|244:348,1,143.999995605469,8|0,0:0|0:0,0:0:0:0:
160,372,133585,1,0,0:0:0:0:
96,296,133918,2,0,P|104:261|122:230,1,71.9999978027344,8|0,0:0|0:0,0:0:0:0:
16,360,134585,2,0,L|4:288,1,71.9999978027344
60,208,135252,6,0,P|128:240|196:188,1,143.999995605469,8|0,0:0|0:0,0:0:0:0:
172,108,136252,1,0,0:0:0:0:
76,76,136585,2,0,L|4:72,1,71.9999978027344,8|0,0:0|0:0,0:0:0:0:
152,8,137252,2,0,L|232:4,1,71.9999978027344
292,76,137918,2,0,B|332:84|332:84|396:72|396:72|460:84,1,143.999995605469,8|0,0:0|0:0,0:0:0:0:
504,8,138918,1,0,0:0:0:0:
512,104,139252,2,0,L|504:180,1,71.9999978027344,8|0,0:0|0:0,0:0:0:0:
424,236,139918,2,0,P|428:288|468:356,1,119.999996337891
492,356,140585,6,0,L|348:367,1,143.999995605469,8|8,0:0|0:0,0:0:0:0:
252,340,141585,2,0,L|213:337,1,35.9999989013672
176,368,141918,2,0,B|196:320|196:320|177:229,1,143.999995605469,8|8,0:0|0:0,0:0:0:0:
96,172,142918,1,8,0:0:0:0:
12,228,143252,6,0,L|4:320,1,71.9999978027344,8|0,0:0|0:0,0:0:0:0:
96,172,143918,2,0,P|96:120|52:64,1,107.999996704102,8|0,0:0|0:0,0:0:0:0:
84,28,144585,2,0,P|146:55|202:14,1,143.999995605469,8|8,0:0|0:0,0:0:0:0:
272,88,145585,1,0,0:0:0:0:
200,156,145918,6,0,L|128:150,1,71.9999978027344,8|0,0:0|0:0,0:0:0:0:
16,238,146585,2,0,L|88:244,1,71.9999978027344,8|0,0:0|0:0,0:0:0:0:
249,282,147252,1,8,0:0:0:0:
98,339,147585,1,0,0:0:0:0:
183,207,147918,1,8,0:0:0:0:
195,378,148252,1,0,0:0:0:0:
88,244,148585,6,0,L|79:192,3,35.9999989013672,8|0|0|0,0:0|0:0|0:0|0:0,0:0:0:0:
28,152,149252,2,0,L|36:100,3,35.9999989013672,8|0|0|0,0:0|0:0|0:0|0:0,0:0:0:0:
60,44,149918,2,0,P|110:56|152:24,1,107.999996704102,8|0,0:0|0:0,0:0:0:0:
216,72,150585,1,8,0:0:0:0:
320,24,150918,1,0,0:0:0:0:
320,24,151585,6,0,L|332:88,1,35.9999989013672
396,96,151918,2,0,L|389:131,1,35.9999989013672
320,172,152252,2,0,L|332:236,1,35.9999989013672
396,264,152585,6,0,P|344:252|300:356,1,160,6|8,0:0|0:0,0:0:0:0:
384,372,153585,1,0,0:0:0:0:
480,328,153918,2,0,L|492:240,1,80,2|0,0:0|0:0,0:0:0:0:
428,168,154585,2,0,P|418:127|416:80,1,80,8|0,0:0|0:0,0:0:0:0:
504,36,155251,2,0,B|396:52|396:52|324:36,1,160,2|8,0:0|0:0,0:0:0:0:
252,0,156251,1,0,0:0:0:0:
192,84,156585,2,0,P|204:148|216:172,1,80,2|0,0:0|0:0,0:0:0:0:
192,264,157251,2,0,P|130:256|76:312,1,133.333333333333,8|0,0:0|0:0,0:0:0:0:
60,332,157918,6,0,L|44:164,1,160,2|8,0:0|0:0,0:0:0:0:
0,80,158918,1,0,0:0:0:0:
88,24,159251,2,0,L|170:31,1,80,2|0,0:0|0:0,0:0:0:0:
316,123,159918,2,0,L|184:136,1,133.333333333333,8|0,0:0|0:0,0:0:0:0:
156,116,160585,2,0,P|88:128|72:228,1,160,2|8,0:0|0:0,0:0:0:0:
120,292,161585,2,0,B|184:308|184:308|280:292,1,160
380,292,162585,2,0,P|401:325|411:364,1,80,8|0,0:0|0:0,0:0:0:0:
324,204,163251,6,0,L|327:44,1,160,2|8,0:0|0:0,0:0:0:0:
232,4,164251,1,0,0:0:0:0:
136,44,164585,2,0,P|96:52|52:56,1,80,2|0,0:0|0:0,0:0:0:0:
8,148,165251,2,0,L|92:152,1,80,8|0,0:0|0:0,0:0:0:0:
180,200,165918,2,0,P|168:252|64:228,1,160,2|8,0:0|0:0,0:0:0:0:
0,324,166918,1,0,0:0:0:0:
92,372,167251,2,0,L|192:364,1,80,2|0,0:0|0:0,0:0:0:0:
260,312,167918,2,0,P|304:313|348:344,1,80,8|0,0:0|0:0,0:0:0:0:
432,372,168585,6,0,B|421:312|421:312|444:204,1,160,2|8,0:0|0:0,0:0:0:0:
500,128,169585,1,0,0:0:0:0:
444,40,169918,2,0,P|400:56|348:60,1,80,2|0,0:0|0:0,0:0:0:0:
228,142,170585,2,0,P|293:132|351:163,1,133.333333333333,8|0,0:0|0:0,0:0:0:0:
359,195,171251,2,0,P|367:103|447:59,1,160,2|8,0:0|0:0,0:0:0:0:
455,159,172251,1,0,0:0:0:0:
440,264,172585,2,0,L|304:280,1,133.333333333333
276,264,173251,2,0,P|224:260|168:316,1,133.333333333333
172,348,173918,6,0,L|156:164,1,160,6|8,0:0|0:0,0:0:0:0:
84,116,174918,1,0,0:0:0:0:
156,40,175251,2,0,P|192:35|240:56,1,80,2|0,0:0|0:0,0:0:0:0:
84,116,175918,2,0,P|48:112|12:80,1,80,8|0,0:0|0:0,0:0:0:0:
24,188,176585,2,0,B|30:234|30:234|20:296|20:296|32:360,1,160,2|8,0:0|0:0,0:0:0:0:
128,376,177585,1,0,0:0:0:0:
224,340,177918,2,0,L|316:332,1,80,2|0,0:0|0:0,0:0:0:0:
400,376,178585,2,0,P|448:356|460:264,1,133.333333333333,8|0,0:0|0:0,0:0:0:0:
444,256,179251,6,8,B|392:248|392:248|340:260|340:260|264:248,1,160,2|8,0:0|0:0,0:0:0:0:
196,200,180251,1,0,0:0:0:0:
284,144,180585,2,0,P|300:96|304:48,1,80,2|0,0:0|0:0,0:0:0:0:
396,20,181251,2,0,L|408:100,1,80,8|0,0:0|0:0,0:0:0:0:
476,176,181918,2,0,P|408:180|372:268,1,160,2|8,0:0|0:0,0:0:0:0:
456,316,182918,1,0,0:0:0:0:
364,364,183251,2,0,B|260:348|260:348|204:364,1,160,2|8,0:0|0:0,0:0:0:0:
120,304,184251,1,0,0:0:0:0:
35,363,184585,6,0,P|17:288|57:220,1,160,2|8,0:0|0:0,0:0:0:0:
152,180,185585,1,0,0:0:0:0:
248,220,185918,2,0,L|356:216,1,80,2|0,0:0|0:0,0:0:0:0:
447,314,186585,2,0,L|368:312,1,80,8|0,0:0|0:0,0:0:0:0:
272,352,187251,2,0,B|188:372|188:332|113:349,1,160,2|8,0:0|0:0,0:0:0:0:
12,368,188251,1,0,0:0:0:0:
48,272,188585,2,0,B|61:219|61:219|41:115,1,160,2|8,0:0|0:0,0:0:0:0:
8,16,189585,1,0,0:0:0:0:
112,36,189918,6,0,L|276:28,1,160,2|8,0:0|0:0,0:0:0:0:
372,4,190918,1,0,0:0:0:0:
444,76,191251,2,0,P|448:120|432:176,1,80,2|0,0:0|0:0,0:0:0:0:
356,216,191918,2,0,B|316:220|316:220|277:201,1,80,8|0,0:0|0:0,0:0:0:0:
176,216,192585,2,0,P|132:284|152:368,1,160,2|8,0:0|0:0,0:0:0:0:
236,304,193585,1,0,0:0:0:0:
324,360,193918,2,0,L|456:348,1,133.333333333333,2|0,0:0|0:0,0:0:0:0:
488,360,194585,2,0,B|500:312|500:312|488:224,1,133.333333333333,8|0,0:0|0:0,0:0:0:0:
468,208,195251,6,0,P|432:168|456:80,1,128,6|0,0:0|0:0,0:0:0:0:
508,36,196262,1,0,0:0:0:0:
420,12,196595,2,0,L|344:20,1,64
288,76,197262,2,0,P|324:96|344:120,1,64
392,184,197928,2,0,P|464:187|504:128,2,128
339,112,199594,1,0,0:0:0:0:
256,140,199928,1,0,0:0:0:0:
256,228,200261,1,0,0:0:0:0:
340,256,200594,6,0,L|467:248,1,128
512,168,201594,1,0,0:0:0:0:
468,92,201928,2,0,P|452:52|448:12,1,80
360,48,202712,2,0,P|355:87|339:124,1,80
256,192,203740,5,0,0:0:0:0:
256,192,203948,12,0,207073,0:0:0:0:
