osu file format v14

[General]
AudioFilename: audio.mp3
AudioLeadIn: 1500
PreviewTime: 76585
Countdown: 0
SampleSet: Soft
StackLeniency: 0.7
Mode: 0
LetterboxInBreaks: 0
EpilepsyWarning: 1
WidescreenStoryboard: 1

[Editor]
DistanceSpacing: 1.1
BeatDivisor: 4
GridSize: 4
TimelineZoom: 1

[Metadata]
Title:Faded
TitleUnicode:Faded
Artist:Alan Walker
ArtistUnicode:Alan Walker
Creator:HootOwlStar
Version:BoatKrab's Light
Source:
Tags:single electronic ballad edm Iselin Solheim fade remastered BoatKrab Arcubin RyoKazuka ReFaller
BeatmapID:1004197
BeatmapSetID:461191

[Difficulty]
HPDrainRate:2
CircleSize:3
OverallDifficulty:2
ApproachRate:2
SliderMultiplier:1
SliderTickRate:1

[Events]
//Background and Video events
0,0,"bg.jpg",0,0
Video,40,"Alan Walker - Faded.avi"
//Break Periods
2,98118,107025
//Storyboard Layer 0 (Background)
//Storyboard Layer 1 (Fail)
//Storyboard Layer 2 (Pass)
//Storyboard Layer 3 (Foreground)
//Storyboard Sound Samples

[TimingPoints]
596,666.666666666667,4,2,2,50,1,0
596,-100,4,2,2,50,0,0
11262,-100,4,2,2,70,0,0
32586,666.666666666667,4,2,2,85,1,0
43252,-100,4,2,2,85,0,0
55252,666.666666666667,4,1,2,100,1,1
63918,-100,4,1,3,100,0,1
64585,-100,4,1,2,100,0,1
69252,-100,4,1,3,100,0,1
69918,-100,4,1,2,100,0,1
74585,-100,4,1,3,100,0,1
75252,-100,4,1,2,100,0,0
76585,-100,4,1,2,100,0,1
85252,-100,4,1,3,100,0,1
85918,-100,4,1,2,100,0,1
90585,-100,4,1,3,100,0,1
91252,-100,4,1,2,100,0,1
95918,-100,4,1,3,100,0,1
96585,-100,4,1,2,100,0,1
97918,-100,4,2,2,70,0,0
129918,-100,4,2,2,85,0,0
152585,666.666666666667,4,1,2,100,1,1
155918,-100,4,1,3,100,0,1
156585,-100,4,1,2,100,0,1
166585,-100,4,1,3,100,0,1
167251,-100,4,1,2,100,0,1
171918,-100,4,1,3,100,0,1
172585,-100,4,1,2,100,0,0
173918,-100,4,1,2,100,0,1
179918,-100,4,1,3,100,0,1
180585,-100,4,1,2,100,0,1
195251,-100,4,2,2,50,0,0
195929,666.666666666667,4,2,2,50,1,0
197928,666.666666666667,4,2,2,50,1,0
201928,784.313725490196,4,2,2,50,1,0
202712,833.333333333333,4,2,2,50,1,0
203740,833.333333333333,4,2,2,50,1,0

[Colours]
Combo1 : 191,97,85
Combo2 : 126,109,85
Combo3 : 216,163,117
Combo4 : 142,142,123

[HitObjects]
216,328,596,6,0,P|167:333|123:311,1,100
144,204,1929,2,0,P|192:198|236:220,1,100
316,296,3262,2,0,L|415:288,1,100
448,180,4596,2,0,L|348:187,1,100
243,151,5929,6,0,P|231:104|243:56,1,100
344,104,7262,2,0,P|356:151|343:199,1,100
240,244,8596,2,0,L|136:252,1,100
192,348,9929,2,0,L|291:340,1,100
400,364,11262,6,0,P|490:332|506:238,1,200,2|0,0:0|0:0,0:0:0:0:
420,168,13262,1,0,0:0:0:0:
328,228,13929,2,0,L|229:220,1,100
160,132,15262,2,0,L|259:124,1,100
344,56,16596,6,0,P|394:138|362:229,1,200
272,292,18596,1,0,0:0:0:0:
180,236,19262,2,0,L|81:244,2,100
244,144,21262,1,0,0:0:0:0:
340,200,21929,6,0,B|400:192|400:192|456:240|430:319,1,200,2|0,0:0|0:0,0:0:0:0:
328,360,23929,1,0,0:0:0:0:
232,304,24596,2,0,P|186:288|136:291,1,100
32,332,25929,1,0,0:0:0:0:
40,224,26596,1,0,0:0:0:0:
128,160,27262,6,0,B|172:136|224:164|224:164|248:124|309:124,1,200
364,28,29262,1,0,0:0:0:0:
420,124,29929,2,0,L|412:228,1,100
304,204,31262,2,0,L|311:303,1,100
396,368,32586,5,6,0:0:0:0:
464,284,33252,1,0,0:0:0:0:
380,216,33919,1,0,0:0:0:0:
311,303,34586,1,0,0:0:0:0:
232,228,35252,2,0,L|132:216,2,100
296,140,37252,1,0,0:0:0:0:
220,60,37919,6,0,P|172:47|125:63,1,100
48,140,39252,2,0,L|56:245,1,100
128,320,40586,1,0,0:0:0:0:
208,244,41252,1,0,0:0:0:0:
288,320,41919,1,0,0:0:0:0:
368,244,42586,1,0,0:0:0:0:
288,168,43252,6,0,P|248:140|196:136,1,100,6|0,0:0|0:0,0:0:0:0:
108,200,44586,2,0,L|112:300,1,100,8|0,0:0|0:0,0:0:0:0:
208,356,45919,2,0,L|204:256,1,100,8|0,0:0|0:0,0:0:0:0:
292,188,47252,1,8,0:0:0:0:
308,296,47919,1,0,0:0:0:0:
388,224,48586,6,0,L|486:238,1,100,8|0,0:0|0:0,0:0:0:0:
468,128,49919,2,0,L|369:113,1,100,8|0,0:0|0:0,0:0:0:0:
284,184,51252,2,0,P|238:199|191:185,1,100,8|0,0:0|0:0,0:0:0:0:
256,192,52586,12,6,55252,0:0:0:0:
364,96,56585,6,0,L|264:88,1,100,2|8,0:0|0:0,0:0:0:0:
163,131,57918,2,0,P|148:177|158:226,1,100,2|8,0:0|0:0,0:0:0:0:
260,184,59252,1,2,0:0:0:0:
252,292,59918,1,8,0:0:0:0:
348,348,60585,6,0,P|394:363|442:352,1,100,2|8,0:0|0:0,0:0:0:0:
496,252,61918,2,0,P|448:236|400:248,1,100,2|8,0:0|0:0,0:0:0:0:
348,348,63252,2,0,P|255:370|185:305,1,200,2|2,0:0|0:0,0:0:0:0:
224,200,65252,1,8,0:0:0:0:
164,108,65918,6,0,L|64:116,1,100,2|8,0:0|0:0,0:0:0:0:
44,224,67252,2,0,L|144:216,1,100,2|8,0:0|0:0,0:0:0:0:
240,164,68585,2,0,P|288:248|248:344,1,200,2|2,0:0|0:0,0:0:0:0:
180,256,70585,1,8,0:0:0:0:
112,344,71252,6,0,L|8:336,1,100,2|8,0:0|0:0,0:0:0:0:
80,248,72585,2,0,L|180:256,1,100,2|8,0:0|0:0,0:0:0:0:
260,332,73918,6,0,P|347:370|427:316,1,200,2|0,0:0|0:0,0:0:0:0:
328,120,76585,6,0,L|324:20,1,100,6|8,0:0|0:0,0:0:0:0:
232,84,77918,2,0,L|236:184,1,100,2|8,0:0|0:0,0:0:0:0:
152,256,79252,2,0,P|102:254|61:227,2,100,2|8|2,0:0|0:0|0:0,0:0:0:0:
244,192,81252,1,8,0:0:0:0:
336,128,81918,6,0,L|436:136,2,100,2|8|2,0:0|0:0|0:0,0:0:0:0:
244,68,83918,1,8,0:0:0:0:
164,144,84585,2,0,P|78:186|76:281,1,200,2|2,0:0|0:0,0:0:0:0:
168,344,86585,1,8,0:0:0:0:
252,272,87252,6,0,L|352:280,1,100,2|8,0:0|0:0,0:0:0:0:
447,223,88585,2,0,P|463:273|452:330,1,100,2|8,0:0|0:0,0:0:0:0:
356,360,89918,2,0,P|286:296|193:322,1,200,2|2,0:0|0:0,0:0:0:0:
88,356,91918,1,8,0:0:0:0:
108,248,92585,6,0,L|100:148,1,100,2|8,0:0|0:0,0:0:0:0:
172,64,93918,2,0,P|220:52|268:64,1,100,2|8,0:0|0:0,0:0:0:0:
304,168,95252,2,0,P|424:160|360:32,1,300,2|8,0:0|0:0,0:0:0:0:
268,64,97918,5,6,0:0:0:0:
436,84,108585,6,0,L|337:68,1,100,2|0,0:0|0:0,0:0:0:0:
235,116,109918,2,0,P|219:162|230:210,1,100
328,264,111252,2,0,P|248:319|156:291,1,200
72,220,113252,1,0,0:0:0:0:
152,144,113918,6,0,L|144:40,1,100
248,84,115252,2,0,L|255:183,1,100
332,264,116585,1,0,0:0:0:0:
416,192,117252,1,0,0:0:0:0:
484,276,117918,1,0,0:0:0:0:
400,348,118585,1,0,0:0:0:0:
332,260,119252,6,0,P|250:207|159:239,1,200,6|0,0:0|0:0,0:0:0:0:
72,308,121252,1,0,0:0:0:0:
60,200,121918,2,0,L|52:100,1,100
156,60,123252,2,0,L|164:160,1,100
144,268,124585,6,0,P|225:320|316:288,1,200
280,184,126585,1,0,0:0:0:0:
376,132,127252,2,0,L|476:132,2,100
280,184,129252,1,0,0:0:0:0:
200,108,129918,6,0,P|151:99|103:113,1,100,6|0,0:0|0:0,0:0:0:0:
48,208,131252,2,0,P|95:222|144:213,1,100,8|0,0:0|0:0,0:0:0:0:
248,244,132585,2,0,L|244:344,1,100,8|0,0:0|0:0,0:0:0:0:
348,308,133918,2,0,L|352:208,1,100,8|0,0:0|0:0,0:0:0:0:
424,124,135252,6,0,P|380:100|324:104,1,100,8|0,0:0|0:0,0:0:0:0:
252,180,136585,2,0,P|203:193|150:176,1,100,8|0,0:0|0:0,0:0:0:0:
204,80,137918,1,8,0:0:0:0:
108,28,138585,1,0,0:0:0:0:
60,128,139252,1,8,0:0:0:0:
156,180,139918,1,0,0:0:0:0:
68,248,140585,6,0,L|76:348,1,100,10|8,0:0|0:0,0:0:0:0:
163,279,141918,2,0,L|155:179,1,100,8|8,0:0|0:0,0:0:0:0:
252,128,143252,2,0,P|296:148|346:144,1,100,10|8,0:0|0:0,0:0:0:0:
412,56,144585,2,0,P|367:35|317:39,1,100,10|8,0:0|0:0,0:0:0:0:
252,128,145918,6,0,L|260:228,1,100,10|8,0:0|0:0,0:0:0:0:
372,224,147252,2,0,L|364:324,1,100,10|8,0:0|0:0,0:0:0:0:
256,344,148585,1,8,0:0:0:0:
256,192,149252,12,0,151252,0:0:0:0:
411,152,152585,6,0,P|366:168|320:152,1,100,6|8,0:0|0:0,0:0:0:0:
232,84,153918,2,0,P|186:67|140:84,1,100,2|8,0:0|0:0,0:0:0:0:
56,152,155251,2,0,L|76:356,1,200,2|2,0:0|0:0,0:0:0:0:
164,284,157251,1,8,0:0:0:0:
263,331,157918,6,0,P|310:347|358:335,1,100,2|8,0:0|0:0,0:0:0:0:
440,264,159251,1,2,0:0:0:0:
352,200,159918,1,8,0:0:0:0:
416,112,160585,2,0,L|420:12,2,100,2|8|2,0:0|0:0|0:0,0:0:0:0:
348,200,162585,1,8,0:0:0:0:
255,139,163251,6,0,P|207:127|159:139,1,100,2|8,0:0|0:0,0:0:0:0:
80,216,164585,2,0,L|87:315,1,100,2|8,0:0|0:0,0:0:0:0:
196,343,165918,2,0,P|259:273|352:294,1,200,2|2,0:0|0:0,0:0:0:0:
440,360,167918,1,8,0:0:0:0:
452,252,168585,6,0,L|444:152,1,100,2|8,0:0|0:0,0:0:0:0:
356,84,169918,2,0,P|308:71|260:85,1,100,2|8,0:0|0:0,0:0:0:0:
248,191,171251,2,0,P|126:249|70:126,1,300,2|0,0:0|0:0,0:0:0:0:
160,64,173918,6,0,P|206:44|255:49,1,100,6|8,0:0|0:0,0:0:0:0:
332,128,175251,1,2,0:0:0:0:
404,44,175918,1,8,0:0:0:0:
468,136,176585,2,0,L|464:236,1,100,2|8,0:0|0:0,0:0:0:0:
372,296,177918,2,0,L|376:196,1,100,2|8,0:0|0:0,0:0:0:0:
311,111,179251,6,0,P|222:77|146:134,1,200,2|2,0:0|0:0,0:0:0:0:
200,232,181251,1,8,0:0:0:0:
104,284,181918,2,0,P|56:304|-4:292,2,100,2|8|2,0:0|0:0|0:0,0:0:0:0:
44,192,183918,1,8,0:0:0:0:
128,120,184585,6,0,L|227:116,1,100,2|8,0:0|0:0,0:0:0:0:
308,40,185918,2,0,L|407:36,1,100,2|8,0:0|0:0,0:0:0:0:
484,116,187251,2,0,P|496:168|484:216,1,100,2|8,0:0|0:0,0:0:0:0:
432,308,188585,1,2,0:0:0:0:
340,248,189251,1,8,0:0:0:0:
268,332,189918,6,0,L|168:339,2,100,2|8|2,0:0|0:0|0:0,0:0:0:0:
340,248,191918,1,8,0:0:0:0:
240,200,192585,2,0,P|227:152|239:103,1,100,2|8,0:0|0:0,0:0:0:0:
316,28,193918,2,0,L|415:24,1,100,2|8,0:0|0:0,0:0:0:0:
500,96,195251,5,6,0:0:0:0:
412,160,195929,1,0,0:0:0:0:
480,248,196595,1,0,0:0:0:0:
392,312,197262,1,0,0:0:0:0:
324,224,197929,2,0,L|220:216,2,100,2|2|2,0:0|0:0|0:0,0:0:0:0:
412,160,199928,1,2,0:0:0:0:
256,192,200594,12,2,203740,0:0:0:0:
