osu file format v14

[General]
AudioFilename: audio.mp3
AudioLeadIn: 0
PreviewTime: 42105
Countdown: 0
SampleSet: Normal
StackLeniency: 0.7
Mode: 0
LetterboxInBreaks: 0
WidescreenStoryboard: 1

[Editor]
Bookmarks: 42105
DistanceSpacing: 2.2
BeatDivisor: 4
GridSize: 4
TimelineZoom: 1

[Metadata]
Title:Faded (DFM remix)
TitleUnicode:Faded (DFM remix)
Artist:Alan Walker
ArtistUnicode:Alan Walker
Creator:FadingAway
Version:Insane
Source:
Tags:
BeatmapID:978144
BeatmapSetID:456429

[Difficulty]
HPDrainRate:8
CircleSize:4.2
OverallDifficulty:7
ApproachRate:8
SliderMultiplier:1.59999990463257
SliderTickRate:1

[Events]
//Background and Video events
0,0,"devushka_blue_eyes_bryunetka_sleza_1920x1200.jpg",0,0
//Break Periods
2,76511,91994
//Storyboard Layer 0 (Background)
//Storyboard Layer 1 (Fail)
//Storyboard Layer 2 (Pass)
//Storyboard Layer 3 (Foreground)
//Storyboard Sound Samples

[TimingPoints]
43154,526.315789473684,4,1,0,100,1,0
43417,526.315789473684,4,1,0,100,1,1
59995,526.315789473684,4,1,0,100,1,0
119994,526.315789473684,4,1,0,100,1,1
136572,526.315789473684,4,1,0,100,1,0

[HitObjects]
136,248,8680,6,0,P|176:292|224:304,1,79.9999952316285
308,228,9206,1,0,0:0:0:0:
352,104,9469,1,0,0:0:0:0:
388,288,9732,2,0,B|432:256|440:220,1,79.9999952316285
284,60,10259,1,0,0:0:0:0:
144,168,10522,1,0,0:0:0:0:
244,312,10785,1,0,0:0:0:0:
340,300,11048,6,0,L|400:248,1,79.9999952316283
452,180,11575,1,0,0:0:0:0:
392,104,11838,2,0,P|304:72|160:144,1,239.999985694885
144,228,12890,2,0,L|120:308,1,79.9999952316285
192,68,13417,2,0,L|284:68,1,79.9999952316285
376,136,13943,5,0,0:0:0:0:
328,284,14206,1,0,0:0:0:0:
208,160,14469,2,0,P|164:156|124:128,1,79.9999952316283
108,48,14996,1,0,0:0:0:0:
108,272,15259,1,0,0:0:0:0:
372,272,15522,2,0,L|408:196,1,79.9999952316283
132,104,16048,1,0,0:0:0:0:
380,104,16311,1,0,0:0:0:0:
356,264,16575,2,0,L|284:204,1,79.9999952316285
108,128,17101,6,0,P|104:196|116:224,1,79.9999952316285
144,304,17627,1,0,0:0:0:0:
144,304,17890,1,0,0:0:0:0:
292,304,18153,2,0,P|340:296|368:264,1,79.9999952316285
428,168,18680,1,0,0:0:0:0:
308,72,18943,1,0,0:0:0:0:
140,128,19206,2,0,L|172:172,1,39.9999976158142
164,184,19469,6,0,P|168:236|200:252,1,79.9999952316285
288,284,19996,1,0,0:0:0:0:
404,140,20259,1,0,0:0:0:0:
408,288,20522,1,0,0:0:0:0:
272,152,20785,1,0,0:0:0:0:
96,84,21048,5,0,0:0:0:0:
256,312,21575,1,0,0:0:0:0:
404,88,22101,1,0,0:0:0:0:
256,168,22364,2,0,L|256:264,1,79.9999952316285
256,248,22890,1,0,0:0:0:0:
256,248,23153,1,0,0:0:0:0:
256,248,23680,1,0,0:0:0:0:
256,248,24206,1,0,0:0:0:0:
360,320,24469,5,0,0:0:0:0:
416,72,24732,1,0,0:0:0:0:
320,304,24996,1,0,0:0:0:0:
376,72,25259,1,0,0:0:0:0:
248,180,25522,1,0,0:0:0:0:
96,172,25785,2,0,L|144:100,1,79.9999952316285
192,284,26311,2,0,L|240:204,1,79.9999952316285
340,244,26838,2,0,L|384:168,1,79.9999952316285
268,76,27364,5,0,0:0:0:0:
328,176,27627,1,0,0:0:0:0:
268,76,27890,1,0,0:0:0:0:
192,176,28153,1,0,0:0:0:0:
268,76,28417,1,0,0:0:0:0:
128,96,28680,5,0,0:0:0:0:
164,308,28943,1,0,0:0:0:0:
168,88,29206,1,0,0:0:0:0:
200,296,29469,1,0,0:0:0:0:
368,224,29996,2,0,L|320:308,1,79.9999952316285
340,84,30522,2,0,L|284:176,1,79.9999952316285
204,120,31048,2,0,L|140:212,1,79.9999952316285
224,320,31575,5,0,0:0:0:0:
224,320,32101,1,0,0:0:0:0:
224,320,32627,1,0,0:0:0:0:
416,80,32890,6,0,L|356:148,1,79.9999952316285
424,320,33417,2,0,L|360:268,1,79.9999952316285
116,328,34469,1,0,0:0:0:0:
216,56,34732,1,0,0:0:0:0:
344,272,35785,1,0,0:0:0:0:
360,80,36575,1,0,0:0:0:0:
232,272,36838,1,0,0:0:0:0:
404,244,37101,6,0,P|368:296|336:288,1,79.9999952316285
196,100,37627,1,0,0:0:0:0:
108,304,37890,1,0,0:0:0:0:
244,184,38680,2,0,P|272:160|324:152,1,79.9999952316285
368,76,39206,1,0,0:0:0:0:
396,232,39469,1,0,0:0:0:0:
204,280,39732,2,0,P|160:232|168:188,3,79.9999952316285
188,52,40785,1,0,0:0:0:0:
256,192,41048,12,0,42101,0:0:0:0:
193,225,42364,5,0,0:0:0:0:
222,129,42627,1,0,0:0:0:0:
318,158,42890,1,0,0:0:0:0:
289,254,43153,1,0,0:0:0:0:
144,248,43680,2,0,L|152:164,1,79.9999952316285
256,84,44206,1,0,0:0:0:0:
428,200,44469,1,0,0:0:0:0:
376,324,44732,2,0,P|320:324|300:304,1,79.9999952316285
116,260,45259,1,0,0:0:0:0:
116,260,45522,1,0,0:0:0:0:
224,96,45785,6,0,P|288:76|316:104,1,79.9999952316285
344,264,46311,1,0,0:0:0:0:
144,140,46575,1,0,0:0:0:0:
136,328,46838,1,0,0:0:0:0:
364,320,47101,2,0,L|424:228,1,79.9999952316285
128,80,47890,1,0,0:0:0:0:
408,252,48417,1,0,0:0:0:0:
176,276,48680,6,0,B|144:236|124:200,1,79.9999952316285
204,84,49206,1,0,0:0:0:0:
204,84,49469,2,0,P|292:60|312:116,2,159.999990463257
220,304,50785,5,0,0:0:0:0:
384,140,51048,1,0,0:0:0:0:
348,296,51311,1,0,0:0:0:0:
208,112,51575,2,0,P|164:144|136:188,1,79.9999952316285
184,316,52101,2,0,P|264:296|288:272,1,79.9999952316285
320,44,52627,1,0,0:0:0:0:
459,130,52890,5,0,0:0:0:0:
372,269,53153,1,0,0:0:0:0:
233,183,53417,1,0,0:0:0:0:
100,72,53680,2,0,P|84:168|136:208,3,159.999990463257
432,196,55522,6,0,P|400:136|360:136,1,79.9999952316285
168,136,56048,2,0,P|148:176|164:208,1,79.9999952316285
432,196,56575,2,0,P|416:152|392:132,1,79.9999952316285
168,136,57101,2,0,P|148:176|168:212,1,79.9999952316285
240,308,57627,1,0,0:0:0:0:
240,308,57890,2,0,B|308:328|344:308|384:300|416:264,2,159.999990463257
240,308,59469,1,0,0:0:0:0:
412,72,59996,6,0,P|440:140|428:156,1,79.9999952316285
360,308,60522,1,0,0:0:0:0:
168,252,60785,1,0,0:0:0:0:
248,72,61048,2,0,B|288:64|344:104,1,79.9999952316285
116,256,61573,1,0,0:0:0:0:
120,264,61706,1,0,0:0:0:0:
124,272,61838,1,0,0:0:0:0:
128,280,61969,1,0,0:0:0:0:
132,288,62101,2,0,B|196:332|196:332|296:292,3,159.999990463257
96,120,64206,5,0,0:0:0:0:
264,256,64469,1,0,0:0:0:0:
392,84,64732,2,0,P|328:72|288:100,1,79.9999952316285
156,288,65259,1,0,0:0:0:0:
316,76,65522,1,0,0:0:0:0:
256,184,65785,1,0,0:0:0:0:
256,224,65917,1,0,0:0:0:0:
256,256,66048,1,0,0:0:0:0:
256,296,66180,1,0,0:0:0:0:
256,332,66311,1,0,0:0:0:0:
256,68,66573,5,0,0:0:0:0:
256,68,66838,1,0,0:0:0:0:
132,284,67101,2,0,P|116:216|148:196,1,79.9999952316285
264,268,67627,1,0,0:0:0:0:
356,76,67890,2,0,L|392:164,1,79.9999952316285
392,276,68417,5,0,0:0:0:0:
396,284,68680,1,0,0:0:0:0:
256,80,68943,1,0,0:0:0:0:
260,88,69206,1,0,0:0:0:0:
152,276,69469,1,0,0:0:0:0:
156,284,69732,1,0,0:0:0:0:
156,104,69996,2,0,L|204:140,1,39.9999976158142
328,232,70259,2,0,L|372:264,1,39.9999976158142
412,100,70522,1,0,0:0:0:0:
188,320,70785,6,0,L|196:232,1,79.9999952316285
76,128,71311,1,0,0:0:0:0:
76,128,71573,1,0,0:0:0:0:
336,80,71838,1,0,0:0:0:0:
336,80,72101,2,0,B|420:148|420:148|428:224,3,159.999990463257
104,328,73943,2,0,B|156:272|152:268|152:248|168:240|168:252,1,79.9999952316285
208,100,74469,2,0,L|288:72,1,79.9999952316285
420,256,74996,1,0,0:0:0:0:
172,312,75259,1,0,0:0:0:0:
264,124,75522,1,0,0:0:0:0:
388,296,75785,1,0,0:0:0:0:
96,80,76311,5,0,0:0:0:0:
104,296,92890,6,0,L|104:208,1,79.9999952316285
396,60,93417,2,0,L|396:152,1,79.9999952316285
429,214,94206,6,0,B|396:264|396:264|356:280,1,79.9999952316285
100,268,94732,1,0,0:0:0:0:
376,264,94996,1,0,0:0:0:0:
372,112,95259,2,0,P|324:96|312:96,3,39.9999976158142
335,97,95785,1,0,0:0:0:0:
416,284,96048,2,0,L|444:208,1,79.9999952316285
212,120,96573,1,0,0:0:0:0:
212,120,96838,1,0,0:0:0:0:
432,336,97101,6,0,L|368:280,1,79.9999952316285
64,56,97627,2,0,L|152:124,1,79.9999952316285
371,283,98153,1,0,0:0:0:0:
256,88,98417,1,0,0:0:0:0:
160,276,98680,1,0,0:0:0:0:
432,164,98943,1,0,0:0:0:0:
116,168,99206,1,0,0:0:0:0:
300,76,99469,2,0,L|324:136,3,39.9999976158142
316,112,99996,5,0,0:0:0:0:
408,232,100259,2,0,P|392:288|344:304,1,79.9999952316285
140,296,100785,2,0,P|116:256|124:216,1,79.9999952316285
168,84,101311,5,0,0:0:0:0:
400,48,101573,1,0,0:0:0:0:
404,244,101838,2,0,P|380:296|352:308,1,79.9999952316285
104,296,102364,1,0,0:0:0:0:
192,132,102627,1,0,0:0:0:0:
428,92,102890,2,0,P|390:79|352:68,1,79.9999952316285
424,244,103417,5,0,0:0:0:0:
256,328,103680,1,0,0:0:0:0:
72,244,103943,1,0,0:0:0:0:
204,64,104206,1,0,0:0:0:0:
360,88,104469,1,0,0:0:0:0:
360,88,104732,1,0,0:0:0:0:
360,88,104994,1,0,0:0:0:0:
424,324,105259,6,0,L|324:324,1,79.9999952316285
96,320,105785,2,0,L|96:236,1,79.9999952316285
128,68,106311,1,0,0:0:0:0:
320,44,106573,1,0,0:0:0:0:
452,184,106838,1,0,0:0:0:0:
388,304,107101,2,0,P|328:344|300:336,1,79.9999952316285
116,288,107627,5,0,0:0:0:0:
116,288,107890,1,0,0:0:0:0:
116,288,108153,2,0,L|116:208,1,79.9999952316285
224,48,108680,1,0,0:0:0:0:
428,104,108943,1,0,0:0:0:0:
316,316,109206,2,0,L|224:316,1,79.9999952316285
236,316,109732,1,0,0:0:0:0:
240,320,109994,1,0,0:0:0:0:
124,88,110522,6,0,L|212:88,1,79.9999952316285
208,192,111048,2,0,L|288:192,1,79.9999952316285
292,280,111573,2,0,L|380:280,1,79.9999952316285
416,80,112101,1,0,0:0:0:0:
416,84,112232,1,0,0:0:0:0:
416,88,112364,1,0,0:0:0:0:
416,92,112494,1,0,0:0:0:0:
416,92,112627,6,0,L|320:92,1,79.9999952316285
336,176,113153,2,0,L|252:176,1,79.9999952316285
256,260,113680,2,0,L|156:260,1,79.9999952316285
96,120,114206,1,0,0:0:0:0:
176,260,114469,1,0,0:0:0:0:
100,144,114732,6,0,P|160:100|192:96,1,79.9999952316285
304,96,115259,1,0,0:0:0:0:
304,96,115522,1,0,0:0:0:0:
420,228,115785,2,0,P|400:284|356:296,1,79.9999952316285
196,300,116311,1,0,0:0:0:0:
196,300,116573,1,0,0:0:0:0:
112,172,116838,5,0,0:0:0:0:
120,156,116969,1,0,0:0:0:0:
128,144,117101,1,0,0:0:0:0:
136,132,117232,1,0,0:0:0:0:
144,120,117364,5,0,0:0:0:0:
156,108,117494,1,0,0:0:0:0:
168,96,117627,1,0,0:0:0:0:
180,88,117759,1,0,0:0:0:0:
196,80,117890,5,0,0:0:0:0:
212,76,118022,1,0,0:0:0:0:
228,72,118153,1,0,0:0:0:0:
244,72,118285,1,0,0:0:0:0:
260,76,118417,5,0,0:0:0:0:
276,84,118548,1,0,0:0:0:0:
288,92,118680,1,0,0:0:0:0:
300,104,118811,1,0,0:0:0:0:
256,192,118942,12,0,119994,0:0:0:0:
384,132,120257,6,0,P|384:188|368:228,1,79.9999952316285
328,332,120783,1,0,0:0:0:0:
72,224,121046,1,0,0:0:0:0:
252,44,121309,1,0,0:0:0:0:
408,172,121572,2,0,L|408:236,3,39.9999976158142
408,212,122099,1,0,0:0:0:0:
228,312,122362,6,0,P|184:324|132:312,1,79.9999952316285
80,136,122888,2,0,P|80:84|120:40,1,79.9999952316285
356,56,123415,2,0,L|436:104,1,79.9999952316285
408,272,123941,2,0,P|388:320|336:320,1,79.9999952316285
152,320,124467,1,0,0:0:0:0:
80,104,124730,1,0,0:0:0:0:
264,48,124994,1,0,0:0:0:0:
400,120,125257,1,0,0:0:0:0:
400,120,125520,6,0,P|408:180|392:192,1,79.9999952316285
400,188,126046,1,0,0:0:0:0:
256,328,126309,1,0,0:0:0:0:
104,296,126572,2,0,L|88:200,1,79.9999952316285
148,100,127099,1,0,0:0:0:0:
272,208,127362,1,0,0:0:0:0:
352,84,127625,6,0,L|404:144,1,79.9999952316285
176,324,128151,2,0,L|108:244,1,79.9999952316285
140,92,128678,1,0,0:0:0:0:
140,92,128941,1,0,0:0:0:0:
408,268,129204,2,0,P|424:220|408:172,1,79.9999952316285
420,192,129730,1,0,0:0:0:0:
280,68,129994,5,0,0:0:0:0:
236,80,130125,1,0,0:0:0:0:
204,116,130257,1,0,0:0:0:0:
196,164,130388,1,0,0:0:0:0:
200,208,130520,1,0,0:0:0:0:
308,304,130783,6,0,L|376:256,1,79.9999952316285
376,124,131309,2,0,L|288:76,1,79.9999952316285
128,104,131836,1,0,0:0:0:0:
92,268,132099,1,0,0:0:0:0:
256,324,132362,5,0,0:0:0:0:
256,324,132625,1,0,0:0:0:0:
448,120,132888,2,0,P|432:88|384:56,1,79.9999952316285
256,324,133415,1,0,0:0:0:0:
256,324,133678,1,0,0:0:0:0:
64,120,133941,2,0,P|80:88|128:56,1,79.9999952316285
256,168,134467,2,0,L|256:248,1,79.9999952316285
404,268,134994,2,0,P|428:212|416:192,1,79.9999952316285
184,76,135520,6,0,P|136:108|144:144,1,79.9999952316285
164,320,136046,1,0,0:0:0:0:
400,312,136309,1,0,0:0:0:0:
312,104,136572,1,0,0:0:0:0:
164,320,136835,6,0,P|136:308|120:256,1,79.9999952316285
140,96,137361,1,0,0:0:0:0:
332,152,137624,1,0,0:0:0:0:
328,316,137887,2,0,P|264:328|236:304,1,79.9999952316285
128,308,138414,5,0,0:0:0:0:
96,276,138545,1,0,0:0:0:0:
88,232,138677,1,0,0:0:0:0:
104,192,138808,1,0,0:0:0:0:
136,168,138940,1,0,0:0:0:0:
292,160,139203,2,0,P|348:156|372:132,1,79.9999952316285
288,160,139729,2,0,P|248:208|248:240,1,79.9999952316285
244,224,140256,2,0,P|236:288|204:288,1,79.9999952316285
400,304,140782,1,0,0:0:0:0:
432,128,141045,6,0,B|420:92|420:92|420:92|364:80,1,79.9999952316285
128,64,141572,1,0,0:0:0:0:
104,296,141835,1,0,0:0:0:0:
332,316,142098,2,0,B|368:312|368:312|400:272,1,79.9999952316285
424,148,142624,5,0,0:0:0:0:
404,112,142756,1,0,0:0:0:0:
368,96,142887,1,0,0:0:0:0:
328,96,143019,1,0,0:0:0:0:
296,112,143150,1,0,0:0:0:0:
156,308,143414,1,0,0:0:0:0:
156,308,143677,1,0,0:0:0:0:
392,296,143940,6,0,P|436:272|436:240,1,79.9999952316285
244,220,144466,2,0,P|288:172|320:164,1,79.9999952316285
452,100,144993,1,0,0:0:0:0:
324,56,145256,6,0,P|260:56|212:80,1,79.9999952316285
132,180,145782,2,0,P|124:256|140:280,1,79.9999952316285
304,320,146308,2,0,P|364:296|384:260,1,79.9999952316285
396,152,146835,1,0,0:0:0:0:
396,152,146966,1,0,0:0:0:0:
396,152,147098,1,0,0:0:0:0:
396,152,147229,1,0,0:0:0:0:
396,152,147361,1,0,0:0:0:0:
216,160,147624,6,0,P|172:200|172:240,1,79.9999952316285
304,320,148150,2,0,P|352:284|352:252,1,79.9999952316285
416,112,148677,1,0,0:0:0:0:
96,104,148940,2,0,B|96:156|96:156|128:184|128:184|128:256,3,159.999990463257
392,312,150782,2,0,P|420:272|416:236,1,79.9999952316285
408,108,151308,2,0,P|384:68|352:48,1,79.9999952316285
112,68,151835,1,0,0:0:0:0:
108,264,152098,1,0,0:0:0:0:
336,304,152361,5,0,0:0:0:0:
336,304,152624,1,0,0:0:0:0:
336,304,152887,2,0,P|392:284|416:248,2,79.9999952316285
336,304,153150,1,0,0:0:0:0:
