osu file format v14

[General]
AudioFilename: Faded - Alan Walker_ Iselin Solheim [MP3 128kbps].mp3
AudioLeadIn: 0
PreviewTime: 150955
Countdown: 0
SampleSet: Normal
StackLeniency: 0.3
Mode: 0
LetterboxInBreaks: 0
EpilepsyWarning: 1
WidescreenStoryboard: 1

[Editor]
Bookmarks: 10793,32111,108110,138777,151110,194776
DistanceSpacing: 1.4
BeatDivisor: 4
GridSize: 4
TimelineZoom: 0.7

[Metadata]
Title:Faded
TitleUnicode:Faded
Artist:Alan Walker
ArtistUnicode:Alan Walker
Creator:Astarte
Version:Turtle's Standard
Source:
Tags:Iselin Solheim EDM electro ballad house pop _DT3 HydroCannon13 dtm9 nowa
BeatmapID:987642
BeatmapSetID:396077

[Difficulty]
HPDrainRate:3
CircleSize:3.2
OverallDifficulty:3
ApproachRate:4
SliderMultiplier:1.21
SliderTickRate:2

[Events]
//Background and Video events
0,0,"bg.jpg",0,0
//Break Periods
2,118989,125469
//Storyboard Layer 0 (Background)
//Storyboard Layer 1 (Fail)
//Storyboard Layer 2 (Pass)
//Storyboard Layer 3 (Foreground)
Sprite,Foreground,Centre,"sb\gd.png",320,340 F,2,140000,140126,0,1 MX,0,140000,140126,520,540 MY,0,140000,147959,420 S,0,140000,149459,0.8 MX,0,140126,147959,540,560 F,1,147959,148126,1,0 MX,0,147959,148126,560,580
Sprite,Foreground,Centre,"sb\by4.png",320,340 F,2,142626,142792,0,1 MX,0,142626,142792,580,560 MX,0,142626,149292,560,540 MY,0,142626,149292,415 S,0,142626,149459,0.7 F,1,149292,149459,1,0 MX,0,149292,149459,540,520
//Storyboard Sound Samples

[TimingPoints]
130,666.666666666667,4,2,10,15,1,0
10796,-100,4,2,10,45,0,0
11130,-100,4,2,10,35,0,0
32123,666.666666666667,4,2,11,55,1,0
32789,-100,4,2,11,45,0,0
42789,-100,4,2,12,60,0,0
43456,-100,4,2,12,45,0,0
53789,-100,4,3,12,75,0,0
54789,666.666666666667,4,1,14,85,1,1
55122,-100,4,1,14,75,0,1
65455,-100,4,1,14,85,0,1
65789,-100,4,1,14,75,0,1
73455,-100,4,1,14,65,0,1
74789,-100,4,2,11,55,0,0
76122,-100,4,1,14,85,0,1
76455,-100,4,1,14,75,0,1
86789,-100,4,1,14,85,0,1
87122,-100,4,1,14,75,0,1
94789,-100,4,1,14,65,0,1
96123,-100,4,1,14,55,0,1
97455,-100,4,1,11,55,0,0
97789,-100,4,1,11,45,0,0
118789,-100,4,1,11,55,0,0
126789,-100,4,1,11,30,0,0
127123,-100,4,1,11,35,0,0
127456,-100,4,1,11,40,0,0
127789,-100,4,1,11,45,0,0
128123,-100,4,1,11,50,0,0
129455,-100,4,2,12,55,0,0
130122,-100,4,2,12,45,0,0
140122,-100,4,2,15,65,0,0
145455,-100,4,2,15,70,0,0
151122,-100,4,3,12,75,0,0
152122,666.666666666667,4,1,14,85,1,1
152455,-100,4,1,14,75,0,1
162788,-100,4,1,14,85,0,1
163122,-100,4,1,14,75,0,1
170788,-100,4,1,14,65,0,1
172122,-100,4,2,11,55,0,0
173455,-100,4,1,14,85,0,1
173788,-100,4,1,14,75,0,1
184122,-100,4,1,14,85,0,1
184455,-100,4,1,14,75,0,1
189455,-100,4,1,14,85,0,1
189788,-100,4,1,14,75,0,1
192122,-100,4,1,14,65,0,1
193455,-100,4,1,14,55,0,1
194802,666.666666666667,4,2,11,45,1,0
201468,789.473684210526,4,2,11,30,1,0
202257,833.333333333333,4,2,11,25,1,0
202673,1200,4,2,11,20,1,0
203273,1200,4,2,11,20,1,0
203873,-100,4,2,11,20,0,0
204473,-100,4,2,11,20,0,0
205073,-100,4,2,11,15,0,0
205673,-100,4,2,11,10,0,0
206273,-100,4,2,11,5,0,0

[Colours]
Combo1 : 106,106,106
Combo2 : 0,130,255
Combo3 : 125,60,240
Combo4 : 0,102,117
Combo5 : 180,180,180

[HitObjects]
125,151,10796,5,6,0:0:0:0:
180,215,11130,2,0,L|240:215,2,60.5000018463135,0|2|0,0:0|0:0|0:0,0:0:0:0:
112,266,12130,2,0,P|107:295|112:325,1,60.5000018463135,2|0,0:0|0:0,0:0:0:0:
184,369,12796,2,0,L|245:369,1,60.5000018463135,2|0,0:0|0:0,0:0:0:0:
318,326,13463,6,0,B|350:318|378:326|378:326|406:334|442:326,1,121.000003692627,2|2,0:0|0:0,0:0:0:0:
493,263,14463,2,0,L|493:194,1,60.5000018463135
445,132,15130,2,0,B|414:125|414:125|358:141|358:141|326:133,1,121.000003692627
255,90,16130,6,0,P|196:75|138:90,2,121.000003692627,2|2|2,0:0|0:0|0:0,0:0:0:0:
301,160,17796,2,0,L|301:220,1,60.5000018463135,0|2,0:0|0:0,0:0:0:0:
255,292,18463,1,0,0:0:0:0:
316,349,18796,38,0,B|348:357|376:349|376:349|436:349,1,121.000003692627,2|2,0:0|0:0,0:0:0:0:
491,284,19796,1,0,0:0:0:0:
436,218,20130,2,0,P|430:188|435:158,1,60.5000018463135,2|0,0:0|0:0,0:0:0:0:
491,94,20796,1,2,0:0:0:0:
314,93,21463,5,6,0:0:0:0:
243,140,21796,2,0,L|182:140,2,60.5000018463135,0|2|0,0:0|0:0|0:0,0:0:0:0:
314,185,22796,2,0,P|319:214|313:244,1,60.5000018463135,2|0,0:0|0:0,0:0:0:0:
250,301,23463,2,0,P|244:330|250:360,1,60.5000018463135,2|0,0:0|0:0,0:0:0:0:
328,328,24130,6,0,B|357:320|357:320|413:336|413:336|445:329,1,121.000003692627,2|2,0:0|0:0,0:0:0:0:
500,265,25130,1,0,0:0:0:0:
500,180,25463,1,2,0:0:0:0:
445,115,25796,2,0,P|386:100|328:115,1,121.000003692627
270,176,26796,38,0,B|238:183|210:175|210:175|182:167|150:175,2,121.000003692627,2|2|2,0:0|0:0|0:0,0:0:0:0:
329,115,28463,2,0,L|329:55,2,60.5000018463135,0|2|0,0:0|0:0|0:0,0:0:0:0:
387,176,29463,6,0,B|387:236|387:236|395:264|387:296,2,121.000003692627,2|2|2,0:0|0:0|0:0,0:0:0:0:
329,115,31130,2,0,P|299:109|270:115,2,60.5000018463135,0|2|0,0:0|0:0|0:0,0:0:0:0:
387,176,32123,6,0,P|446:190|504:176,1,121.000003692627,6|2,0:0|0:0,0:0:0:0:
504,6,33456,2,0,P|445:-8|387:6,1,121.000003692627,2|2,0:0|0:0,0:0:0:0:
324,63,34456,1,0,0:0:0:0:
264,123,34789,38,0,B|232:130|204:122|204:122|176:114|144:122,2,121.000003692627,2|2|2,0:0|0:0|0:0,0:0:0:0:
324,63,36456,2,0,B|384:63,2,60.5000018463135,0|2|0,0:0|0:0|0:0,0:0:0:0:
265,123,37456,6,0,L|265:245,1,121.000003692627,2|2,0:0|0:0,0:0:0:0:
418,315,38789,2,0,L|418:193,1,121.000003692627,2|2,0:0|0:0,0:0:0:0:
362,129,39789,1,0,0:0:0:0:
306,64,40123,6,0,B|274:57|274:57|218:73|218:73|189:65,2,121.000003692627,2|2|2,0:0|0:0|0:0,0:0:0:0:
362,129,41789,2,0,B|424:129,2,60.5000018463135,0|2|0,0:0|0:0|0:0,0:0:0:0:
306,193,42789,38,0,P|291:251|306:309,1,121.000003692627,6|0,0:0|0:0,0:0:0:0:
383,344,43789,1,0,0:0:0:0:
459,309,44123,2,0,P|474:251|460:193,1,121.000003692627,8|0,0:0|0:0,0:0:0:0:
383,158,45123,1,0,0:0:0:0:
306,193,45456,6,0,B|274:201|246:193|246:193|186:193,2,121.000003692627,2|0|8,0:0|0:0|0:0,0:0:0:0:
383,158,47123,2,0,L|383:95,2,60.5000018463135
459,192,48123,6,0,B|452:224|460:252|460:252|468:280|460:312,1,121.000003692627,2|0,0:0|0:0,0:0:0:0:
383,344,49123,1,0,0:0:0:0:
306,312,49456,2,0,B|298:280|306:252|306:252|314:224|307:192,1,121.000003692627,8|0,0:0|0:0,0:0:0:0:
229,158,50456,1,0,0:0:0:0:
149,192,50789,38,0,P|94:212|38:191,1,121,2|0,0:0|0:0,0:0:0:0:
95,128,51789,1,0,0:0:0:0:
150,197,53789,5,10,0:0:0:0:
205,132,54123,1,10,0:0:0:0:
289,132,54456,1,10,0:0:0:0:
343,196,54789,6,0,L|343:256,1,60.5000018463135,6|0,0:0|0:0,0:0:0:0:
289,321,55456,2,0,P|259:327|230:321,1,60.5000018463135,8|0,0:0|0:0,0:0:0:0:
175,256,56123,2,0,B|143:248|115:256|115:256|87:264|55:256,1,121.000003692627,2|8,0:0|0:0,0:0:0:0:
9,185,57123,1,0,0:0:0:0:
62,119,57456,38,0,P|91:113|120:119,1,60.5000018463135,2|0,0:0|0:0,0:0:0:0:
173,185,58123,2,0,P|202:190|231:184,1,60.5000018463135,8|0,0:0|0:0,0:0:0:0:
287,119,58789,2,0,B|317:111|317:111|373:127|373:127|404:120,1,121.000003692627,2|8,0:0|0:0,0:0:0:0:
466,62,59789,1,0,0:0:0:0:
404,3,60123,6,0,L|343:3,1,60.5000018463135,2|0,0:0|0:0,0:0:0:0:
283,62,60789,2,0,L|222:62,1,60.5000018463135,8|0,0:0|0:0,0:0:0:0:
162,121,61456,2,0,B|102:121|102:121|74:113|42:121,1,121.000003692627,2|8,0:0|0:0,0:0:0:0:
0,195,62456,1,0,0:0:0:0:
42,268,62789,6,0,P|101:282|159:268,1,121.000003692627,2|8,0:0|0:0,0:0:0:0:
203,195,63789,2,0,P|262:181|320:195,1,121.000003692627
362,268,64789,2,0,L|362:328,1,60.5000018463135,8|0,0:0|0:0,0:0:0:0:
446,329,65456,38,0,L|446:268,1,60.5000018463135,6|0,0:0|0:0,0:0:0:0:
403,194,66123,2,0,L|403:133,1,60.5000018463135,8|0,0:0|0:0,0:0:0:0:
360,59,66789,2,0,B|328:51|300:59|300:59|240:59,1,121.000003692627,2|8,0:0|0:0,0:0:0:0:
154,59,67789,1,0,0:0:0:0:
89,114,68123,6,0,P|82:143|89:172,1,60.5000018463135,2|0,0:0|0:0,0:0:0:0:
155,224,68789,2,0,P|159:254|153:284,1,60.5000018463135,8|0,0:0|0:0,0:0:0:0:
89,339,69456,2,0,L|210:339,1,121.000003692627,2|8,0:0|0:0,0:0:0:0:
274,284,70456,1,0,0:0:0:0:
210,227,70789,6,0,P|203:197|208:167,1,60.5000018463135,2|0,0:0|0:0,0:0:0:0:
248,94,71456,2,0,P|255:64|250:34,1,60.5000018463135,8|0,0:0|0:0,0:0:0:0:
164,35,72123,2,0,P|160:64|166:94,1,60.5000018463135,2|0,0:0|0:0,0:0:0:0:
206,167,72789,2,0,P|211:197|205:227,1,60.5000018463135,8|0,0:0|0:0,0:0:0:0:
165,301,73456,38,0,B|133:309|105:301|105:301|45:301,1,121.000003692627,2|8,0:0|0:0,0:0:0:0:
1,227,74456,1,0,0:0:0:0:
45,154,74789,2,0,B|105:154|105:154|133:146|165:154,1,121.000003692627,2|2,0:0|0:0,0:0:0:0:
165,154,76123,6,0,P|194:160|223:154,1,60.5000018463135,6|0,0:0|0:0,0:0:0:0:
276,88,76789,2,0,P|305:83|334:89,1,60.5000018463135,8|0,0:0|0:0,0:0:0:0:
380,160,77456,2,0,B|372:188|380:220|380:220|388:248|380:281,1,121.000003692627,2|8,0:0|0:0,0:0:0:0:
315,335,78456,1,0,0:0:0:0:
248,281,78789,6,0,L|188:281,1,60.5000018463135,2|0,0:0|0:0,0:0:0:0:
188,196,79456,2,0,L|248:196,1,60.5000018463135,8|0,0:0|0:0,0:0:0:0:
248,111,80123,2,0,B|188:111|188:111|160:103|128:111,1,121.000003692627,2|8,0:0|0:0,0:0:0:0:
67,170,81123,1,0,0:0:0:0:
128,227,81456,38,0,L|128:287,1,60.5000018463135,2|0,0:0|0:0,0:0:0:0:
184,351,82123,2,0,P|213:357|242:351,1,60.5000018463135,8|0,0:0|0:0,0:0:0:0:
300,288,82789,2,0,P|358:275|417:288,1,121.000003692627,2|8,0:0|0:0,0:0:0:0:
477,349,83789,1,0,0:0:0:0:
501,267,84123,6,0,L|501:146,1,121.000003692627,2|8,0:0|0:0,0:0:0:0:
441,85,85123,1,0,0:0:0:0:
382,146,85456,2,0,B|351:153|351:153|295:137|295:137|265:145,1,121.000003692627,2|8,0:0|0:0,0:0:0:0:
200,200,86456,1,0,0:0:0:0:
264,253,86789,6,0,P|270:283|264:312,1,60.5000018463135,6|0,0:0|0:0,0:0:0:0:
200,367,87456,2,0,L|140:367,1,60.5000018463135,8|0,0:0|0:0,0:0:0:0:
73,313,88123,2,0,B|73:253|73:253|65:225|73:193,1,121.000003692627,2|8,0:0|0:0,0:0:0:0:
140,140,89123,1,0,0:0:0:0:
205,193,89456,38,0,L|266:193,1,60.5000018463135,2|0,0:0|0:0,0:0:0:0:
326,252,90123,2,0,L|387:252,1,60.5000018463135,8|0,0:0|0:0,0:0:0:0:
418,330,90789,2,0,L|296:330,1,121.000003692627,2|8,0:0|0:0,0:0:0:0:
231,275,91789,1,0,0:0:0:0:
165,221,92123,6,0,P|159:192|163:163,1,60.5000018463135,2|0,0:0|0:0,0:0:0:0:
225,105,92789,2,0,B|285:105,1,60.5,8|0,0:0|0:0,0:0:0:0:
346,163,93456,2,0,B|377:155|405:163|405:163|437:171|465:163,1,121.000003692627,2|8,0:0|0:0,0:0:0:0:
436,83,94456,1,0,0:0:0:0:
490,18,94789,6,0,P|435:-3|380:18,1,121.000003692627,2|8,0:0|0:0,0:0:0:0:
352,98,95789,1,0,0:0:0:0:
324,177,96123,2,0,P|269:199|214:178,1,121.000003692627,2|8,0:0|0:0,0:0:0:0:
109,44,97456,37,6,0:2:0:0:
59,113,97789,2,0,L|-5:113,2,60.5000018463135
109,180,98789,2,0,P|115:209|110:239,1,60.5000018463135,2|0,0:2|0:0,0:0:0:0:
44,290,99456,2,0,P|37:320|43:349,1,60.5000018463135
126,360,100123,6,0,L|247:360,1,121.000003692627,2|0,0:2|0:0,0:0:0:0:
314,309,101123,2,0,L|314:235,1,60.5000018463135,0|2,0:0|0:2,0:0:0:0:
245,198,101789,2,0,B|217:190|185:198|185:198|153:206|124:198,1,121.000003692627
78,128,102789,6,0,B|86:68|86:68|78:7,2,121.000003692627,2|0|2,0:2|0:0|0:2,0:0:0:0:
31,198,104456,2,0,B|27:228|31:258,2,60.5000018463135,0|0|0,0:0|0:2|0:0,0:0:0:0:
78,128,105456,38,0,B|107:120|107:120|163:136|163:136|195:129,1,121.000003692627,2|0,0:2|0:0,0:0:0:0:
252,66,106456,1,0,0:0:0:0:
309,128,106789,2,0,L|309:208,1,60.5000018463135,2|0,0:2|0:0,0:0:0:0:
366,250,107456,2,0,L|366:310,1,60.5000018463135
287,343,108123,5,2,0:2:0:0:
208,310,108456,2,0,L|147:310,2,60.5000018463135
260,243,109456,2,0,B|264:216|260:182,1,60.5000018463135,2|0,0:2|0:0,0:0:0:0:
195,127,110123,2,0,B|191:100|195:66,1,60.5000018463135
262,15,110789,6,0,P|323:0|386:18,1,121,2|0,0:2|0:0,0:0:0:0:
435,77,111789,1,0,0:0:0:0:
370,132,112123,2,0,B|342:140|310:132|310:132|282:124|251:132,1,121.000003692627,2|0,0:2|0:0,0:0:0:0:
209,206,113123,1,0,0:0:0:0:
251,280,113456,38,0,B|282:288|310:280|310:280|342:272|370:280,1,121.000003692627,2|0,0:2|0:0,0:0:0:0:
432,337,114456,1,0,0:0:0:0:
468,262,114789,2,0,L|468:141,1,121.000003692627,2|0,0:2|0:0,0:0:0:0:
404,85,115789,1,0,0:0:0:0:
341,141,116123,6,2,B|310:148|310:148|254:132|254:132|224:140,2,121.000003692627,2|0|2,0:2|0:0|0:2,0:2:0:0:
404,85,117789,2,0,L|404:23,2,60.5000018463135
468,141,118789,5,6,0:2:0:0:
424,111,126789,70,2,B|360:125|360:125|248:93|248:93|190:109,1,242.000007385254,0|0,0:0|0:0,0:2:0:0:
138,175,128456,1,0,0:0:0:0:
189,240,128789,2,0,P|219:247|248:240,1,60.5000018463135
320,195,129456,54,0,P|378:182|437:195,1,121.000003692627,6|0,0:0|0:0,0:0:0:0:
495,257,130456,1,0,0:0:0:0:
437,318,130789,2,0,P|378:330|319:318,1,121.000003692627,8|0,0:0|0:0,0:0:0:0:
261,257,131789,1,0,0:0:0:0:
320,195,132123,54,0,B|352:188|380:196|380:196|408:204|440:196,2,121.000003692627,2|0|8,0:0|0:0|0:0,0:0:0:0:
261,257,133789,1,0,0:0:0:0:
203,195,134123,2,0,L|203:134,1,60.5000018463135
268,80,134789,22,0,B|298:72|298:72|354:88|354:88|385:81,1,121.000003692627,2|0,0:0|0:0,0:0:0:0:
457,124,135789,1,0,0:0:0:0:
385,169,136123,2,0,B|354:176|354:176|298:160|298:160|268:168,1,121.000003692627,8|0,0:0|0:0,0:0:0:0:
207,227,137123,1,0,0:0:0:0:
145,169,137456,54,0,P|133:110|145:51,2,121.000003692627,2|0|8,0:0|0:0|0:0,0:0:0:0:
313,155,139456,2,0,P|343:148|372:155,1,60.5000018463135
400,235,140123,38,0,B|392:267|400:295|400:295|408:323|401:355,1,121.000003692627,8|8,0:0|0:0,0:0:0:0:
318,373,141123,1,0,0:0:0:0:
248,325,141456,2,0,L|188:325,1,60.5000018463135,8|0,0:0|0:0,0:0:0:0:
123,268,142123,2,0,L|63:268,1,60.5000018463135,8|0,0:0|0:0,0:0:0:0:
22,193,142789,54,0,B|30:163|30:163|14:107|14:107|21:76,1,121.000003692627,8|8,0:0|0:0,0:0:0:0:
98,42,143789,1,0,0:0:0:0:
162,99,144123,2,0,L|222:99,1,60.5000018463135,8|0,0:0|0:0,0:0:0:0:
287,156,144789,2,0,L|347:156,1,60.5000018463135,8|0,0:0|0:0,0:0:0:0:
412,213,145456,6,0,P|418:242|411:271,1,60.5000018463135,8|8,0:0|0:0,0:0:0:0:
331,302,146123,2,0,P|325:272|331:243,1,60.5000018463135,8|8,0:0|0:0,0:0:0:0:
412,213,146789,2,0,L|472:213,1,60.5000018463135,8|8,0:0|0:0,0:0:0:0:
472,128,147456,2,0,L|412:128,1,60.5000018463135,8|8,0:0|0:0,0:0:0:0:
353,66,148123,54,0,B|285:66,2,60.5,8|8|8,0:0|0:0|0:0,0:0:0:0:
411,128,149123,1,8,0:0:0:0:
353,190,149456,2,0,B|329:194|329:194|287:182|287:182|266:188,2,90.7500027694703
353,190,151123,53,10,0:0:0:0:
418,245,151456,1,10,0:0:0:0:
418,329,151789,1,10,0:0:0:0:
344,371,152122,54,0,L|284:371,1,60.5000018463135,6|0,0:0|0:0,0:0:0:0:
218,316,152788,2,0,P|212:287|218:258,1,60.5000018463135,8|0,0:0|0:0,0:0:0:0:
284,203,153455,2,0,P|295:144|283:85,1,121.000003692627,2|8,0:0|0:0,0:0:0:0:
218,31,154455,1,0,0:0:0:0:
153,85,154788,6,0,P|147:114|153:143,1,60.5000018463135,2|0,0:0|0:0,0:0:0:0:
219,196,155455,2,0,P|224:225|218:254,1,60.5000018463135,8|0,0:0|0:0,0:0:0:0:
189,335,156122,2,0,B|221:343|249:335|249:335|277:327|309:334,1,121.000003692627,2|8,0:0|0:0,0:0:0:0:
388,363,157122,1,0,0:0:0:0:
439,295,157455,38,0,L|439:235,1,60.5000018463135,2|0,0:0|0:0,0:0:0:0:
369,185,158122,2,0,L|369:125,1,60.5000018463135,8|0,0:0|0:0,0:0:0:0:
305,68,158788,2,0,B|275:60|275:60|219:76|219:76|188:69,1,121.000003692627,2|8,0:0|0:0,0:0:0:0:
117,22,159788,1,0,0:0:0:0:
45,68,160122,6,0,B|38:100|46:128|46:128|54:156|46:188,1,121.000003692627,2|8,0:0|0:0,0:0:0:0:
19,268,161122,2,0,B|51:275|79:267|79:267|107:259|139:267,1,121.000003692627
207,316,162122,2,0,P|237:322|266:316,1,60.5000018463135,8|0,0:0|0:0,0:0:0:0:
336,269,162788,6,0,L|396:269,1,60.5000018463135,6|0,0:0|0:0,0:0:0:0:
396,184,163455,2,0,L|336:184,1,60.5000018463135,8|0,0:0|0:0,0:0:0:0:
285,115,164122,2,0,B|225:115|225:115|197:107|165:115,1,121.000003692627,2|8,0:0|0:0,0:0:0:0:
115,184,165122,1,0,0:0:0:0:
165,248,165455,38,0,P|194:254|223:248,1,60.5000018463135,2|0,0:0|0:0,0:0:0:0:
276,182,166122,2,0,P|305:177|334:183,1,60.5000018463135,8|0,0:0|0:0,0:0:0:0:
392,245,166788,2,0,L|392:124,1,121.000003692627,2|8,0:0|0:0,0:0:0:0:
331,63,167788,1,0,0:0:0:0:
272,124,168122,6,0,L|212:124,1,60.5000018463135,2|0,0:0|0:0,0:0:0:0:
147,181,168788,2,0,L|87:181,1,60.5000018463135,8|0,0:0|0:0,0:0:0:0:
87,265,169455,2,0,L|147:265,1,60.5000018463135,2|0,0:0|0:0,0:0:0:0:
212,322,170122,2,0,L|272:322,1,60.5000018463135,8|0,0:0|0:0,0:0:0:0:
335,265,170788,6,0,P|348:207|335:148,1,121.000003692627,2|8,0:0|0:0,0:0:0:0:
273,90,171788,1,0,0:0:0:0:
212,148,172122,2,0,P|200:207|212:266,1,121.000003692627,2|2,0:0|0:0,0:0:0:0:
212,265,173455,38,0,L|149:265,1,60.5000018463135,6|0,0:0|0:0,0:0:0:0:
92,204,174122,2,0,P|86:174|92:145,1,60.5000018463135,8|0,0:0|0:0,0:0:0:0:
157,91,174788,2,0,B|189:83|217:91|217:91|245:99|277:92,1,121.000003692627,2|8,0:0|0:0,0:0:0:0:
334,29,175788,1,0,0:0:0:0:
390,92,176122,6,0,L|390:155,1,60.5000018463135,2|0,0:0|0:0,0:0:0:0:
459,200,176788,2,0,L|459:263,1,60.5000018463135,8|0,0:0|0:0,0:0:0:0:
390,310,177455,2,0,B|360:318|360:318|304:302|304:302|273:309,1,121.000003692627,2|8,0:0|0:0,0:0:0:0:
200,352,178455,1,0,0:0:0:0:
126,310,178788,6,0,L|65:310,1,60.5000018463135,2|0,0:0|0:0,0:0:0:0:
66,225,179455,2,0,L|126:225,1,60.5000018463135,8|0,0:0|0:0,0:0:0:0:
134,140,180122,2,0,B|74:140|74:140|46:148|14:140,1,121.000003692627,2|8,0:0|0:0,0:0:0:0:
43,60,181122,1,0,0:0:0:0:
127,60,181455,38,0,L|251:60,1,121.000003692627,2|8,0:0|0:0,0:0:0:0:
325,94,182455,1,0,0:0:0:0:
254,141,182788,2,0,B|222:148|194:140|194:140|166:132|134:140,1,121.000003692627,2|8,0:0|0:0,0:0:0:0:
64,186,183788,1,0,0:0:0:0:
134,233,184122,6,0,B|194:233,1,60.5,6|0,0:0|0:0,0:0:0:0:
262,279,184788,2,0,B|322:279,1,60.5,8|0,0:0|0:0,0:0:0:0:
384,334,185455,2,0,P|404:279|384:223,1,121.000003692627,2|8,0:0|0:0,0:0:0:0:
320,167,186455,1,0,0:0:0:0:
247,210,186788,6,0,P|217:215|187:208,1,60.5000018463135,2|0,0:0|0:0,0:0:0:0:
188,125,187455,2,0,P|217:118|247:123,1,60.5000018463135,8|0,0:0|0:0,0:0:0:0:
320,167,188122,2,0,P|378:179|437:167,1,121.000003692627,2|8,0:0|0:0,0:0:0:0:
478,92,189122,1,0,0:0:0:0:
438,17,189455,38,0,L|377:17,1,60.5000018463135,2|0,0:0|0:0,0:0:0:0:
324,82,190122,2,0,L|263:82,1,60.5000018463135,8|0,0:0|0:0,0:0:0:0:
210,147,190788,2,0,B|180:155|180:155|124:139|124:139|93:146,1,121.000003692627,2|8,0:0|0:0,0:0:0:0:
33,206,191788,1,0,0:0:0:0:
93,264,192122,6,0,B|125:272|153:264|153:264|181:256|213:263,1,121.000003692627,2|8,0:0|0:0,0:0:0:0:
284,308,193122,1,0,0:0:0:0:
357,265,193455,2,0,L|357:141,1,121.000003692627,2|8,0:0|0:0,0:0:0:0:
357,144,194802,22,0,P|298:132|239:143,1,121.000003692627,2|2,0:0|0:0,0:0:0:0:
239,274,196135,1,2,0:0:0:0:
239,143,196802,1,2,0:0:0:0:
239,274,197468,6,0,P|180:286|121:275,2,121.000003692627,2|2|2,0:0|0:0|0:0,0:0:0:0:
353,208,199468,1,2,0:0:0:0:
236,143,200135,54,0,B|204:135|176:143|176:143|148:151|116:142,1,121,2|2,0:0|0:0,0:0:0:0:
116,254,201468,2,0,B|80:266|56:254|56:254|32:242|-4:254,1,121,2|2,0:0|0:0,0:0:0:0:
256,192,203272,12,0,206272,0:0:0:0:
