osu file format v14

[General]
AudioFilename: Faded - Alan Walker_ Iselin Solheim [MP3 128kbps].mp3
AudioLeadIn: 0
PreviewTime: 150955
Countdown: 0
SampleSet: Soft
StackLeniency: 0.3
Mode: 0
LetterboxInBreaks: 0
EpilepsyWarning: 1
WidescreenStoryboard: 1

[Editor]
Bookmarks: 10777,32111,138777,151111
DistanceSpacing: 1.6
BeatDivisor: 6
GridSize: 8
TimelineZoom: 1.2

[Metadata]
Title:Faded
TitleUnicode:Faded
Artist:Alan Walker
ArtistUnicode:Alan Walker
Creator:Astarte
Version:HC's Hard
Source:
Tags:Iselin Solheim EDM electro ballad house pop _DT3 HydroCannon13 dtm9 nowa
BeatmapID:1119817
BeatmapSetID:396077

[Difficulty]
HPDrainRate:6
CircleSize:4
OverallDifficulty:6
ApproachRate:7
SliderMultiplier:2.6
SliderTickRate:1

[Events]
//Background and Video events
0,0,"bg.jpg",0,0
//Break Periods
2,118989,125222
//Storyboard Layer 0 (Background)
//Storyboard Layer 1 (Fail)
//Storyboard Layer 2 (Pass)
//Storyboard Layer 3 (Foreground)
Sprite,Foreground,Centre,"sb\gd.png",320,340 F,2,140000,140126,0,1 MX,0,140000,140126,520,540 MY,0,140000,147959,420 S,0,140000,149459,0.8 MX,0,140126,147959,540,560 F,1,147959,148126,1,0 MX,0,147959,148126,560,580
Sprite,Foreground,Centre,"sb\by2.png",320,340 F,2,142626,142792,0,1 MX,0,142626,142792,580,560 MX,0,142626,149292,560,540 MY,0,142626,149292,410 S,0,142626,149459,0.7 F,1,149292,149459,1,0 MX,0,149292,149459,540,520
//Storyboard Sound Samples

[TimingPoints]
130,666.666666666667,4,2,10,15,1,0
10796,-200,4,2,10,35,0,0
21463,-200,4,2,10,35,0,0
32123,666.666666666667,4,2,11,60,1,0
32123,-200,4,2,11,60,0,0
32789,-200,4,2,11,45,0,0
42789,-200,4,2,12,60,0,0
43456,-200,4,2,12,45,0,0
53789,-133.333333333333,4,3,12,75,0,0
54789,666.666666666667,4,1,14,75,1,1
54789,-133.333333333333,4,1,14,75,0,1
65455,-133.333333333333,4,1,14,85,0,1
65789,-133.333333333333,4,1,14,75,0,1
74789,-200,4,2,11,55,0,0
76122,-133.333333333333,4,1,14,85,0,1
76455,-133.333333333333,4,1,14,75,0,1
86789,-133.333333333333,4,1,14,85,0,1
87122,-133.333333333333,4,1,14,75,0,1
94789,-133.333333333333,4,1,14,65,0,1
96122,-133.333333333333,4,1,14,55,0,1
97455,-200,4,1,11,55,0,0
98122,-200,4,1,11,45,0,0
107705,-200,4,1,11,5,0,0
107789,-200,4,1,11,45,0,0
108039,-200,4,1,11,5,0,0
108122,-200,4,1,11,45,0,0
118789,-200,4,2,10,55,0,0
129455,-200,4,2,12,55,0,0
130122,-200,4,2,12,45,0,0
140122,-161.290322580645,4,2,15,65,0,0
145455,-161.290322580645,4,2,15,70,0,0
151122,-133.333333333333,4,3,12,75,0,0
152122,666.666666666667,4,1,14,85,1,1
152122,-133.333333333333,4,1,14,85,0,1
152455,-133.333333333333,4,1,14,75,0,1
162788,-133.333333333333,4,1,14,85,0,1
163122,-133.333333333333,4,1,14,75,0,1
172122,-200,4,2,11,60,0,0
173455,-133.333333333333,4,1,14,85,0,1
173788,-133.333333333333,4,1,14,75,0,1
184122,-133.333333333333,4,1,14,85,0,1
184455,-133.333333333333,4,1,14,75,0,1
192122,-133.333333333333,4,1,14,65,0,1
193455,-133.333333333333,4,1,14,55,0,1
194802,666.666666666667,4,2,11,45,1,0
194802,-200,4,2,11,45,0,0
198802,-200,4,2,11,45,0,0
200802,-200,4,2,11,35,0,0
201468,789.473684210526,4,2,11,30,1,0
201468,-200,4,2,11,30,0,0
202257,833.333333333333,4,2,11,25,1,0
202673,1200,4,2,11,20,1,0
203273,1200,4,2,11,20,1,0
203873,-200,4,2,11,17,0,0
204473,-200,4,2,11,14,0,0
205073,-200,4,2,11,11,0,0
205673,-200,4,2,11,8,0,0
206273,-200,4,2,11,5,0,0

[Colours]
Combo1 : 106,106,106
Combo2 : 0,130,255
Combo3 : 125,60,240
Combo4 : 0,102,117
Combo5 : 180,180,180

[HitObjects]
176,136,10796,6,0,B|240:120|240:152|304:136,1,130,6|2,0:0|0:0,0:0:0:0:
388,101,11796,1,0,0:0:0:0:
435,178,12130,2,0,P|432:219|438:252,1,65,2|0,0:0|0:0,0:0:0:0:
484,319,12796,2,0,P|487:351|484:383,1,65,2|0,0:0|0:0,0:0:0:0:
399,350,13463,6,0,P|353:325|322:242,1,130,2|2,0:0|0:0,0:0:0:0:
347,169,14463,1,0,0:0:0:0:
409,235,14796,1,2,0:0:0:0:
321,256,15130,2,0,B|289:264|262:256|262:256|262:264|262:264|233:256|200:262,1,130,0|0,0:0|0:0,0:0:0:0:
113,287,16130,6,0,P|157:241|163:178,2,130,2|2|2,0:0|0:0|0:0,0:0:0:0:
75,205,17796,1,0,0:0:0:0:
108,120,18130,2,0,P|149:99|177:98,1,65,2|0,0:0|0:0,0:0:0:0:
248,137,18796,38,0,P|299:155|372:118,1,130,2|2,0:0|0:0,0:0:0:0:
300,61,19796,1,0,0:0:0:0:
248,137,20130,2,0,L|253:206,1,65,2|0,0:0|0:0,0:0:0:0:
261,292,20796,1,2,0:0:0:0:
263,305,21463,6,0,P|325:318|384:293,1,130,6|2,0:0|0:0,0:0:0:0:
445,224,22463,1,0,0:0:0:0:
371,174,22796,2,0,L|301:165,1,65,2|0,0:0|0:0,0:0:0:0:
237,225,23463,2,0,L|172:233,1,65,2|0,0:0|0:0,0:0:0:0:
87,267,24130,6,0,B|71:203|103:203|87:139,1,130,2|2,0:0|0:0,0:0:0:0:
2,173,25130,1,0,0:0:0:0:
87,205,25463,1,2,0:0:0:0:
172,173,25796,2,0,B|196:166|228:174|228:174|228:166|228:166|260:174|292:166,1,130,0|0,0:0|0:0,0:0:0:0:
373,123,26796,38,0,P|339:177|342:241,2,130,2|2|2,0:0|0:0|0:0,0:0:0:0:
440,62,28463,1,0,0:0:0:0:
364,11,28796,2,0,L|284:15,1,65,2|0,0:0|0:0,0:0:0:0:
225,67,29463,6,0,B|159:74|159:74|92:60,2,130,2|2|2,0:0|0:0|0:0,0:0:0:0:
284,136,31130,2,0,P|277:173|254:209,2,65,0|2|0,0:0|0:0|0:0,0:0:0:0:
197,150,32123,6,0,P|182:211|215:265,2,130,6|2|2,0:0|0:0|0:0,0:0:0:0:
332,28,34123,1,2,0:0:0:0:
339,211,34789,2,0,L|331:349,2,130,2|2|2,0:0|0:0|0:0,0:0:0:0:
428,220,36456,2,0,P|457:232|500:232,2,65,0|2|0,0:0|0:0|0:0,0:0:0:0:
478,145,37456,38,0,L|469:13,2,130,2|2|2,0:0|0:0|0:0,0:0:0:0:
312,222,39456,1,2,0:0:0:0:
177,100,40123,2,0,B|114:83|114:83|41:92,2,130,2|2|2,0:0|0:0|0:0,0:0:0:0:
211,183,41789,2,0,P|173:188|145:184,2,65,0|2|0,0:0|0:0|0:0,0:0:0:0:
296,151,42789,6,0,P|298:217|252:263,1,130,6|0,0:0|0:0,0:0:0:0:
258,82,44123,2,0,P|324:80|370:125,1,130,8|0,0:0|0:0,0:0:0:0:
387,210,45123,1,0,0:0:0:0:
367,300,45456,2,0,P|303:302|256:260,2,130,2|0|8,0:0|0:0|0:0,0:0:0:0:
334,214,47123,1,0,0:0:0:0:
251,176,47456,2,0,P|217:182|191:205,1,65,0|0,0:0|0:0,0:0:0:0:
148,279,48123,6,0,L|141:149,1,130,2|0,0:0|0:0,0:0:0:0:
278,30,49456,2,0,L|284:159,1,130,8|0,0:0|0:0,0:0:0:0:
335,235,50456,1,0,0:0:0:0:
282,309,50789,2,0,P|243:314|212:306,1,65,2|0,0:0|0:0,0:0:0:0:
152,245,51456,2,0,P|120:239|88:244,1,65,0|0,0:0|0:0,0:0:0:0:
60,152,53789,38,0,L|63:97,1,48.750001859665,10|0,0:0|0:0,0:0:0:0:
114,210,54123,2,0,L|117:265,1,48.750001859665,10|0,0:0|0:0,0:0:0:0:
157,148,54456,2,0,L|160:93,1,48.750001859665,10|0,0:0|0:0,0:0:0:0:
217,201,54789,6,0,P|266:208|313:199,1,97.50000371933,6|0,0:0|0:0,0:0:0:0:
421,87,55455,2,0,L|424:153,1,65.0000024795533,8|0,0:0|0:0,0:0:0:0:
427,204,55789,1,0,0:0:0:0:
485,344,56122,2,0,B|438:355|438:355|390:344,1,97.50000371933,2|0,0:0|0:0,0:0:0:0:
246,282,56789,2,0,L|243:215,1,65.0000024795533,8|0,0:0|0:0,0:0:0:0:
266,170,57122,2,0,L|263:103,1,65.0000024795533,0|0,0:0|0:0,0:0:0:0:
269,53,57455,6,0,P|315:37|363:41,1,97.50000371933,2|0,0:0|0:0,0:0:0:0:
464,161,58122,2,0,L|460:231,1,65.0000024795533,8|0,0:0|0:0,0:0:0:0:
456,277,58455,1,0,0:0:0:0:
329,185,58789,2,0,L|218:189,1,97.50000371933,2|0,0:0|0:0,0:0:0:0:
133,309,59455,1,8,0:0:0:0:
231,357,59677,1,0,0:0:0:0:
235,360,59789,2,0,P|268:346|298:311,1,65.0000024795533,0|0,0:0|0:0,0:0:0:0:
294,274,60122,38,0,P|333:308|381:318,1,97.50000371933,2|0,0:0|0:0,0:0:0:0:
401,163,60789,2,0,P|395:129|361:83,1,65.0000024795533,8|0,0:0|0:0,0:0:0:0:
339,70,61122,1,0,0:0:0:0:
184,87,61455,2,0,B|151:123|151:123|132:182,1,97.50000371933,2|0,0:0|0:0,0:0:0:0:
183,317,62122,1,8,0:0:0:0:
266,255,62344,1,0,0:0:0:0:
266,255,62455,2,0,L|313:310,1,65.0000024795533,0|0,0:0|0:0,0:0:0:0:
360,309,62789,6,0,P|416:289|469:294,2,97.50000371933,2|0|8,0:0|0:0|0:0,0:0:0:0:
217,373,63789,2,0,B|186:335|186:335|165:277,1,97.50000371933,0|2,0:0|0:0,0:0:0:0:
123,121,64455,2,0,L|187:115,1,65.0000024795533,0|0,0:0|0:0,0:0:0:0:
235,92,64789,2,0,L|299:98,1,65.0000024795533,8|0,0:0|0:0,0:0:0:0:
350,106,65122,2,0,P|336:147|337:175,1,65.0000024795533,0|0,0:0|0:0,0:0:0:0:
349,218,65455,6,0,P|358:271|331:326,1,97.50000371933,6|0,0:0|0:0,0:0:0:0:
197,254,66122,2,0,P|166:243|134:239,1,65.0000024795533,8|0,0:0|0:0,0:0:0:0:
82,240,66455,1,0,0:0:0:0:
203,338,66789,1,2,0:0:0:0:
270,197,67122,2,0,P|269:154|238:97,1,97.50000371933,0|8,0:0|0:0,0:0:0:0:
158,49,67677,1,0,0:0:0:0:
158,49,67789,2,0,L|106:89,1,65.0000024795533,0|0,0:0|0:0,0:0:0:0:
77,132,68122,38,0,B|53:177|53:177|48:244,1,97.50000371933,2|0,0:0|0:0,0:0:0:0:
101,366,68789,2,0,L|165:363,1,65.0000024795533,8|0,0:0|0:0,0:0:0:0:
217,360,69122,1,0,0:0:0:0:
335,259,69455,2,0,L|237:263,1,97.50000371933,2|0,0:0|0:0,0:0:0:0:
82,279,70122,1,8,0:0:0:0:
68,175,70344,1,0,0:0:0:0:
68,175,70455,2,0,P|106:163|142:164,1,65.0000024795533,0|0,0:0|0:0,0:0:0:0:
178,187,70789,6,0,P|221:192|275:176,1,97.50000371933,2|0,0:0|0:0,0:0:0:0:
406,99,71455,2,0,P|359:84|311:89,1,97.50000371933,8|0,0:0|0:0,0:0:0:0:
186,183,72122,1,2,0:0:0:0:
69,80,72455,1,0,0:0:0:0:
207,7,72789,2,0,L|211:87,1,65.0000024795533,8|0,0:0|0:0,0:0:0:0:
216,123,73122,1,0,0:0:0:0:
189,223,73344,1,0,0:0:0:0:
189,223,73455,6,0,P|243:208|301:221,2,97.50000371933,2|0|8,0:0|0:0|0:0,0:0:0:0:
135,312,74455,1,0,0:0:0:0:
238,326,74789,2,0,B|302:310|302:342|366:326,1,130,2|2,0:0|0:0,0:0:0:0:
489,223,76122,38,0,L|387:217,1,97.50000371933,6|0,0:0|0:0,0:0:0:0:
235,208,76789,2,0,P|227:167|232:134,1,65.0000024795533,8|0,0:0|0:0,0:0:0:0:
239,93,77122,1,0,0:0:0:0:
315,228,77455,2,0,L|307:341,1,97.50000371933,2|0,0:0|0:0,0:0:0:0:
167,256,78122,1,8,0:0:0:0:
83,317,78344,1,0,0:0:0:0:
83,317,78455,2,0,P|74:274|60:246,1,65.0000024795533,0|0,0:0|0:0,0:0:0:0:
30,215,78789,6,0,L|118:171,1,97.50000371933,2|0,0:0|0:0,0:0:0:0:
252,94,79455,1,8,0:0:0:0:
388,170,79789,2,0,L|384:241,1,65.0000024795533,0|0,0:0|0:0,0:0:0:0:
376,286,80122,2,0,P|328:271|236:334,1,162.500006198883,2|0,0:0|0:0,0:0:0:0:
221,376,80789,2,0,P|174:370|136:340,1,97.50000371933,8|0,0:0|0:0,0:0:0:0:
57,204,81455,6,0,B|108:200|108:200|165:168,1,97.50000371933,2|0,0:0|0:0,0:0:0:0:
281,95,82122,2,0,L|331:148,1,65.0000024795533,8|0,0:0|0:0,0:0:0:0:
360,181,82455,1,0,0:0:0:0:
381,335,82789,2,0,L|314:264,1,97.50000371933,2|0,0:0|0:0,0:0:0:0:
207,150,83455,2,0,P|184:193|160:212,1,65.0000024795533,8|0,0:0|0:0,0:0:0:0:
123,223,83789,1,0,0:0:0:0:
150,323,84011,1,0,0:0:0:0:
150,323,84122,38,0,B|199:314|199:314|245:325,2,97.50000371933,2|0|8,0:0|0:0|0:0,0:0:0:0:
2,373,85122,1,0,0:0:0:0:
104,255,85455,2,0,P|122:199|48:124,1,162.500006198883,2|0,0:0|0:0,0:0:0:0:
9,112,86122,2,0,L|89:57,1,97.50000371933,8|0,0:0|0:0,0:0:0:0:
245,57,86789,6,0,P|278:79|341:81,1,97.50000371933,6|0,0:0|0:0,0:0:0:0:
489,66,87455,2,0,L|485:142,1,65.0000024795533,8|0,0:0|0:0,0:0:0:0:
483,183,87789,1,0,0:0:0:0:
352,268,88122,2,0,B|302:272|302:272|249:261,1,97.50000371933,2|0,0:0|0:0,0:0:0:0:
134,163,88789,1,8,0:0:0:0:
224,111,89011,1,0,0:0:0:0:
224,111,89122,2,0,L|294:114,1,65.0000024795533,0|0,0:0|0:0,0:0:0:0:
340,119,89455,6,0,P|354:73|401:25,2,97.50000371933,2|0|8,0:0|0:0|0:0,0:0:0:0:
296,245,90455,2,0,B|260:235|260:235|216:209,1,65.0000024795533,0|0,0:0|0:0,0:0:0:0:
202,180,90789,2,0,P|126:160|68:212,1,162.500006198883,2|0,0:0|0:0,0:0:0:0:
72,264,91455,2,0,P|90:301|148:335,1,97.50000371933,8|0,0:0|0:0,0:0:0:0:
269,251,92122,38,0,B|318:249|318:249|369:261,1,97.50000371933,2|0,0:0|0:0,0:0:0:0:
492,350,92789,2,0,P|497:308|492:282,1,65.0000024795533,8|0,0:0|0:0,0:0:0:0:
478,236,93122,1,0,0:0:0:0:
372,125,93455,2,0,P|405:92|463:84,1,97.50000371933,2|0,0:0|0:0,0:0:0:0:
392,226,94122,2,0,P|358:226|317:213,1,65.0000024795533,8|0,0:0|0:0,0:0:0:0:
285,188,94455,1,0,0:0:0:0:
194,239,94677,1,0,0:0:0:0:
194,239,94789,6,0,L|199:343,2,97.50000371933,2|0|8,0:0|0:0|0:0,0:0:0:0:
117,102,95789,1,0,0:0:0:0:
255,31,96122,2,0,P|316:55|410:29,1,162.500006198883,2|0,0:0|0:0,0:0:0:0:
454,9,96789,2,0,B|464:60|464:60|458:107,1,97.50000371933,8|0,0:0|0:0,0:0:0:0:
349,148,97455,6,0,L|209:142,1,130,6|0,0:2|0:0,0:0:0:0:
133,112,98455,1,0,0:0:0:0:
54,156,98789,2,0,P|49:193|57:229,1,65,2|0,0:2|0:0,0:0:0:0:
92,301,99455,2,0,P|121:323|156:334,1,65,0|0,0:0|0:0,0:0:0:0:
221,279,100122,38,0,P|264:260|345:289,1,130,2|0,0:2|0:2,0:0:0:0:
367,370,101122,1,0,0:0:0:0:
277,356,101455,1,2,0:2:0:0:
282,265,101789,2,0,B|290:233|282:201|282:201|290:201|290:201|282:169|290:137,1,130,0|0,0:0|0:0,0:0:0:0:
310,55,102789,6,0,P|264:99|201:107,2,130,2|0|2,0:2|0:0|0:2,0:0:0:0:
384,3,104455,1,0,0:0:0:0:
444,70,104789,2,0,L|448:136,1,65,0|0,0:0|0:0,0:0:0:0:
419,221,105455,6,0,P|405:281|441:344,1,130,2|0,0:2|0:0,0:0:0:0:
495,270,106455,1,0,0:0:0:0:
419,221,106789,2,0,L|344:224,1,65,2|0,0:2|0:0,0:0:0:0:
263,226,107455,2,0,P|225:229|204:224,1,48.75,0|0,0:0|0:0,0:0:0:0:
194,210,107789,2,0,P|191:185|195:161,1,48.75,0|0,0:0|0:0,0:0:0:0:
220,137,108122,38,0,P|165:169|103:155,1,130,2|0,0:2|0:0,0:0:0:0:
151,78,109122,1,0,0:0:0:0:
239,58,109455,2,0,P|279:80|291:97,1,65,2|0,0:2|0:0,0:0:0:0:
294,186,110122,2,0,P|315:210|344:223,1,65,0|0,0:0|0:0,0:0:0:0:
419,275,110789,6,0,L|282:280,1,130,2|0,0:2|0:0,0:0:0:0:
206,319,111789,1,0,0:0:0:0:
139,255,112122,2,0,P|122:194|142:133,1,130,2|0,0:2|0:0,0:0:0:0:
221,87,113122,1,0,0:0:0:0:
302,128,113455,5,2,0:2:0:0:
256,192,113622,12,2,118789,0:2:0:0:
256,192,126122,12,0,128789,0:0:0:0:
315,142,129455,38,0,P|368:124|434:149,1,130,6|0,0:0|0:0,0:0:0:0:
489,222,130455,1,0,0:0:0:0:
439,298,130789,2,0,B|399:306|399:306|351:290|351:290|311:298,1,130,8|0,0:0|0:0,0:0:0:0:
226,325,131789,1,0,0:0:0:0:
251,237,132122,6,0,P|255:208|247:165,2,65,2|0|0,0:0|0:0|0:0,0:0:0:0:
167,201,133122,2,0,P|161:169|166:137,1,65,0|8,0:0|0:0,0:0:0:0:
241,83,133789,1,0,0:0:0:0:
314,136,134122,2,0,P|348:141|380:136,1,65,0|0,0:0|0:0,0:0:0:0:
461,101,134789,6,0,P|425:152|442:213,1,130,2|0,0:0|0:0,0:0:0:0:
498,284,135789,1,0,0:0:0:0:
424,337,136122,1,8,0:0:0:0:
367,265,136455,1,0,0:0:0:0:
287,308,136789,2,0,L|219:306,1,65,0|0,0:0|0:0,0:0:0:0:
139,266,137455,38,0,P|121:210|146:135,1,130,2|0,0:0|0:0,0:0:0:0:
223,107,138455,1,0,0:0:0:0:
307,143,138789,2,0,P|325:204|307:265,1,130,8|0,0:0|0:0,0:0:0:0:
240,327,139789,1,0,0:0:0:0:
171,260,140122,37,8,0:0:0:0:
171,260,140289,2,0,P|131:254|88:261,1,80.5999968023683,0|0,0:0|0:0,0:0:0:0:
17,275,140789,2,0,L|15:187,1,80.5999968023683,8|0,0:0|0:0,0:0:0:0:
23,122,141289,2,0,B|32:84|32:84|60:50,1,80.5999968023683,0|0,0:0|0:0,0:0:0:0:
120,13,141789,1,0,0:0:0:0:
162,151,142122,2,0,P|184:173|207:188,1,53.7333312015789,8|0,0:0|0:0,0:0:0:0:
248,200,142455,2,0,P|266:180|289:164,1,53.7333312015789,8|0,0:0|0:0,0:0:0:0:
330,141,142789,5,8,0:0:0:0:
334,139,142955,2,0,P|376:139|418:163,1,80.5999968023683,0|0,0:0|0:0,0:0:0:0:
447,219,143455,2,0,P|432:259|425:301,1,80.5999968023683,8|0,0:0|0:0,0:0:0:0:
397,363,143955,2,0,L|302:343,1,80.5999968023683,0|0,0:0|0:0,0:0:0:0:
245,355,144455,1,0,0:0:0:0:
199,221,144789,2,0,P|195:182|199:160,1,53.7333312015789,8|0,0:0|0:0,0:0:0:0:
224,128,145122,2,0,P|226:101|222:74,1,53.7333312015789,8|0,0:0|0:0,0:0:0:0:
205,29,145455,53,8,0:0:0:0:
110,139,145789,1,8,0:0:0:0:
1,42,146122,1,8,0:0:0:0:
3,187,146455,1,8,0:0:0:0:
145,160,146789,5,8,0:0:0:0:
255,255,147122,1,8,0:0:0:0:
371,169,147455,2,0,P|375:130|371:108,1,53.7333312015789,8|0,0:0|0:0,0:0:0:0:
346,76,147789,2,0,P|343:49|347:22,1,53.7333312015789,8|0,0:0|0:0,0:0:0:0:
256,192,148122,12,8,150455,0:0:0:0:
391,215,151122,6,0,P|370:228|334:236,1,48.750001859665,10|0,0:0|0:0,0:0:0:0:
414,138,151455,2,0,P|435:149|460:176,1,48.750001859665,10|0,0:0|0:0,0:0:0:0:
336,154,151789,2,0,P|335:129|346:94,1,48.750001859665,10|0,0:0|0:0,0:0:0:0:
276,204,152122,6,0,P|226:217|173:204,1,97.50000371933,6|0,0:0|0:0,0:0:0:0:
53,119,152788,2,0,L|61:51,1,65.0000024795533,8|0,0:0|0:0,0:0:0:0:
69,2,153122,1,0,0:0:0:0:
185,105,153455,2,0,L|173:201,1,97.50000371933,2|0,0:0|0:0,0:0:0:0:
125,350,154122,2,0,B|157:346|157:346|189:349,1,65.0000024795533,8|0,0:0|0:0,0:0:0:0:
237,370,154455,2,0,B|269:374|269:374|301:370,1,65.0000024795533,0|0,0:0|0:0,0:0:0:0:
346,343,154788,6,0,P|357:296|344:249,1,97.50000371933,2|0,0:0|0:0,0:0:0:0:
230,142,155455,2,0,L|129:147,2,97.50000371933,8|0|2,0:0|0:0|0:0,0:0:0:0:
386,134,156455,1,0,0:0:0:0:
329,279,156788,1,8,0:0:0:0:
231,242,157010,1,0,0:0:0:0:
231,242,157122,2,0,P|188:257|165:281,1,65.0000024795533,0|0,0:0|0:0,0:0:0:0:
139,308,157455,38,0,L|122:198,1,97.50000371933,2|0,0:0|0:0,0:0:0:0:
197,73,158122,2,0,P|238:64|275:70,1,65.0000024795533,8|0,0:0|0:0,0:0:0:0:
309,83,158455,1,0,0:0:0:0:
402,207,158788,2,0,P|446:206|496:178,2,97.50000371933,2|0|8,0:0|0:0|0:0,0:0:0:0:
303,173,159677,1,0,0:0:0:0:
303,173,159788,2,0,L|298:260,1,65.0000024795533,0|0,0:0|0:0,0:0:0:0:
297,290,160122,6,0,B|332:323|332:323|387:344,2,97.50000371933,2|0|8,0:0|0:0|0:0,0:0:0:0:
202,165,161122,2,0,L|124:239,1,97.50000371933,0|2,0:0|0:0,0:0:0:0:
156,78,161788,2,0,P|197:68|234:72,1,65.0000024795533,0|0,0:0|0:0,0:0:0:0:
269,84,162122,2,0,P|301:84|332:74,1,65.0000024795533,8|0,0:0|0:0,0:0:0:0:
379,52,162455,2,0,L|390:125,1,65.0000024795533,0|0,0:0|0:0,0:0:0:0:
396,167,162788,6,0,B|355:198|355:198|334:241,1,97.50000371933,6|0,0:0|0:0,0:0:0:0:
487,207,163455,2,0,P|494:175|491:143,1,65.0000024795533,8|0,0:0|0:0,0:0:0:0:
470,96,163788,1,0,0:0:0:0:
335,16,164122,1,2,0:0:0:0:
256,149,164455,2,0,P|208:157|162:142,1,97.50000371933,0|8,0:0|0:0,0:0:0:0:
81,76,165010,1,0,0:0:0:0:
81,76,165122,2,0,L|57:143,1,65.0000024795533,0|0,0:0|0:0,0:0:0:0:
47,187,165455,38,0,P|40:248|57:292,2,97.50000371933,2|0|8,0:0|0:0|0:0,0:0:0:0:
197,227,166455,2,0,P|209:273|200:321,2,97.50000371933,0|2|0,0:0|0:0|0:0,0:0:0:0:
114,94,167455,1,8,0:0:0:0:
198,33,167677,1,0,0:0:0:0:
198,33,167788,2,0,L|274:37,1,65.0000024795533,0|0,0:0|0:0,0:0:0:0:
315,41,168122,6,0,P|381:28|419:36,1,97.50000371933,2|0,0:0|0:0,0:0:0:0:
356,179,168788,2,0,P|307:183|260:171,1,97.50000371933,8|0,0:0|0:0,0:0:0:0:
127,89,169455,1,2,0:0:0:0:
266,18,169788,1,0,0:0:0:0:
260,171,170122,2,0,L|250:247,1,65.0000024795533,8|0,0:0|0:0,0:0:0:0:
244,286,170455,1,0,0:0:0:0:
152,237,170677,1,0,0:0:0:0:
152,237,170788,6,0,P|96:235|50:254,2,97.50000371933,2|0|8,0:0|0:0|0:0,0:0:0:0:
268,340,171788,1,0,0:0:0:0:
386,238,172122,2,0,B|402:174|370:174|386:110,1,130,2|2,0:0|0:0,0:0:0:0:
389,106,173122,1,0,0:0:0:0:
250,35,173455,38,0,L|148:41,1,97.50000371933,6|0,0:0|0:0,0:0:0:0:
45,154,174122,2,0,P|37:197|46:231,1,65.0000024795533,8|0,0:0|0:0,0:0:0:0:
62,264,174455,1,0,0:0:0:0:
205,202,174788,2,0,P|252:182|312:189,1,97.50000371933,2|0,0:0|0:0,0:0:0:0:
437,253,175455,1,8,0:0:0:0:
482,159,175677,1,0,0:0:0:0:
482,159,175788,2,0,L|477:84,1,65.0000024795533,0|0,0:0|0:0,0:0:0:0:
471,42,176122,6,0,P|426:61|378:59,1,97.50000371933,2|0,0:0|0:0,0:0:0:0:
230,12,176788,1,8,0:0:0:0:
289,156,177122,2,0,P|288:190|275:232,1,65.0000024795533,0|0,0:0|0:0,0:0:0:0:
249,261,177455,2,0,P|303:241|397:287,1,162.500006198883,2|0,0:0|0:0,0:0:0:0:
421,326,178122,2,0,L|449:230,1,97.50000371933,8|0,0:0|0:0,0:0:0:0:
501,86,178788,6,0,B|454:92|454:92|401:79,1,97.50000371933,2|0,0:0|0:0,0:0:0:0:
258,34,179455,2,0,P|233:74|229:99,1,65.0000024795533,8|0,0:0|0:0,0:0:0:0:
228,142,179788,1,0,0:0:0:0:
279,289,180122,2,0,B|230:297|230:297|180:289,1,97.50000371933,2|0,0:0|0:0,0:0:0:0:
309,199,180788,2,0,L|382:204,1,65.0000024795533,8|0,0:0|0:0,0:0:0:0:
425,209,181122,1,0,0:0:0:0:
393,109,181344,1,0,0:0:0:0:
393,109,181455,38,0,P|385:72|407:12,2,97.50000371933,2|0|8,0:0|0:0|0:0,0:0:0:0:
473,242,182455,1,0,0:0:0:0:
356,345,182788,2,0,L|184:335,1,162.500006198883,2|0,0:0|0:0,0:0:0:0:
141,330,183455,2,0,P|125:288|138:234,1,97.50000371933,8|0,0:0|0:0,0:0:0:0:
187,90,184122,6,0,B|136:82|136:82|88:91,1,97.50000371933,6|0,0:0|0:0,0:0:0:0:
205,196,184788,2,0,L|276:191,1,65.0000024795533,8|0,0:0|0:0,0:0:0:0:
322,188,185122,1,0,0:0:0:0:
457,115,185455,2,0,L|359:108,1,97.50000371933,2|0,0:0|0:0,0:0:0:0:
217,43,186122,1,8,0:0:0:0:
162,131,186344,1,0,0:0:0:0:
162,131,186455,2,0,L|166:210,1,65.0000024795533,0|0,0:0|0:0,0:0:0:0:
166,247,186788,6,0,P|126:289|86:298,2,97.50000371933,2|0|8,0:0|0:0|0:0,0:0:0:0:
259,122,187788,2,0,P|276:151|306:173,1,65.0000024795533,0|0,0:0|0:0,0:0:0:0:
351,180,188122,2,0,P|410:158|493:203,1,162.500006198883,2|0,0:0|0:0,0:0:0:0:
508,252,188788,2,0,L|495:357,1,97.50000371933,8|0,0:0|0:0,0:0:0:0:
359,273,189455,38,0,B|309:268|309:268|259:278,1,97.50000371933,2|0,0:0|0:0,0:0:0:0:
125,352,190122,2,0,L|131:275,1,65.0000024795533,8|0,0:0|0:0,0:0:0:0:
136,235,190455,1,0,0:0:0:0:
216,101,190788,2,0,P|171:85|109:99,1,97.50000371933,2|0,0:0|0:0,0:0:0:0:
242,193,191455,2,0,L|318:188,1,65.0000024795533,8|0,0:0|0:0,0:0:0:0:
358,183,191788,1,0,0:0:0:0:
449,133,192010,1,0,0:0:0:0:
449,133,192122,6,0,P|462:189|444:236,2,97.50000371933,2|0|8,0:0|0:0|0:0,0:0:0:0:
330,31,193122,1,0,0:0:0:0:
228,149,193455,2,0,P|172:170|79:135,1,162.500006198883,2|0,0:0|0:0,0:0:0:0:
39,102,194122,2,0,B|37:153|37:153|16:198,1,97.50000371933,8|0,0:0|0:0,0:0:0:0:
115,306,194802,22,0,P|177:319|239:302,1,130,2|2,0:0|0:0,0:0:0:0:
305,190,196135,2,0,P|242:176|179:193,1,130,2|2,0:0|0:0,0:0:0:0:
58,241,197468,2,0,L|66:111,2,130,2|2|2,0:0|0:0|0:0,0:0:0:0:
167,170,199467,1,0,0:0:0:0:
281,229,200135,6,0,L|415:223,1,130,2|2,0:0|0:0,0:0:0:0:
489,145,201468,1,2,0:0:0:0:
382,82,202256,1,2,0:0:0:0:
334,182,203272,53,0,0:0:0:0:
256,192,203572,12,0,206273,0:0:0:0:
