osu file format v14

[General]
AudioFilename: Faded - Alan Walker_ Iselin Solheim [MP3 128kbps].mp3
AudioLeadIn: 0
PreviewTime: 150955
Countdown: 0
SampleSet: Soft
StackLeniency: 0.3
Mode: 0
LetterboxInBreaks: 0
EpilepsyWarning: 1
WidescreenStoryboard: 1

[Editor]
Bookmarks: 32123,42789,108122,129455,140122
DistanceSpacing: 1.3
BeatDivisor: 6
GridSize: 32
TimelineZoom: 1.1

[Metadata]
Title:Faded
TitleUnicode:Faded
Artist:Alan Walker
ArtistUnicode:Alan Walker
Creator:Astarte
Version:Advanced
Source:
Tags:Iselin Solheim EDM electro ballad house pop _DT3 HydroCannon13 dtm9 nowa
BeatmapID:947405
BeatmapSetID:396077

[Difficulty]
HPDrainRate:5
CircleSize:3.7
OverallDifficulty:5
ApproachRate:6
SliderMultiplier:1.6
SliderTickRate:1

[Events]
//Background and Video events
0,0,"bg.jpg",0,0
//Break Periods
2,97779,106789
//Storyboard Layer 0 (Background)
//Storyboard Layer 1 (Fail)
//Storyboard Layer 2 (Pass)
//Storyboard Layer 3 (Foreground)
//Storyboard Sound Samples

[TimingPoints]
130,666.666666666667,4,2,10,15,1,0
10796,-111.111111111111,4,2,10,45,0,0
11463,-111.111111111111,4,2,10,35,0,0
32123,666.666666666667,4,2,11,35,1,0
32789,-100,4,2,11,45,0,0
42789,-100,4,2,12,60,0,0
43456,-100,4,2,12,45,0,0
53789,-100,4,3,12,75,0,0
54789,666.666666666667,4,1,14,85,1,1
54789,-90.9090909090909,4,1,14,85,0,1
55122,-90.9090909090909,4,1,14,75,0,1
65455,-90.9090909090909,4,1,14,85,0,1
65789,-90.9090909090909,4,1,14,75,0,1
73455,-90.9090909090909,4,1,14,65,0,1
74789,-90.9090909090909,4,2,11,55,0,0
76122,-90.9090909090909,4,1,14,85,0,1
76455,-90.9090909090909,4,1,14,75,0,1
86789,-90.9090909090909,4,1,14,85,0,1
87122,-90.9090909090909,4,1,14,75,0,1
94789,-90.9090909090909,4,1,14,65,0,1
96122,-90.9090909090909,4,1,14,55,0,1
97455,-100,4,1,11,55,0,0
108122,-100,4,1,11,45,0,0
118789,-111.111111111111,4,1,11,55,0,0
119455,-111.111111111111,4,1,11,45,0,0
126789,-111.111111111111,4,1,11,30,0,0
127122,-111.111111111111,4,1,11,35,0,0
127455,-111.111111111111,4,1,11,40,0,0
127789,-111.111111111111,4,1,11,45,0,0
128122,-111.111111111111,4,1,11,50,0,0
129455,-111.111111111111,4,2,12,55,0,0
130122,-111.111111111111,4,2,12,45,0,0
140122,-100,4,2,15,65,0,0
145455,-100,4,2,15,70,0,0
151122,-100,4,3,12,75,0,0
152122,666.666666666667,4,1,14,85,1,1
152122,-90.9090909090909,4,1,14,85,0,1
170788,-90.9090909090909,4,1,14,65,0,1
172122,-90.9090909090909,4,2,11,55,0,0
173455,-90.9090909090909,4,1,14,85,0,1
173788,-90.9090909090909,4,1,14,75,0,1
184122,-90.9090909090909,4,1,14,85,0,1
184455,-90.9090909090909,4,1,14,75,0,1
189455,-90.9090909090909,4,1,14,85,0,1
189788,-90.9090909090909,4,1,14,75,0,1
192122,-90.9090909090909,4,1,14,65,0,1
193455,-90.9090909090909,4,1,14,55,0,1
194802,666.666666666667,4,2,11,40,1,0
194802,-111.111111111111,4,2,11,40,0,0
201468,789.473684210526,4,2,11,40,1,0
202257,833.333333333333,4,2,11,40,1,0
202673,1200,4,2,11,40,1,0
203273,1200,4,2,11,40,1,0
203873,-100,4,2,11,25,0,0
204473,-100,4,2,11,20,0,0
205073,-100,4,2,11,15,0,0
205673,-100,4,2,11,10,0,0
206273,-100,4,2,11,5,0,0

[Colours]
Combo1 : 106,106,106
Combo2 : 0,130,255
Combo3 : 125,60,240
Combo4 : 0,102,117
Combo5 : 180,180,180

[HitObjects]
244,70,10796,6,0,L|249:220,1,143.999995605469,6|2,0:0|0:0,0:0:0:0:
205,296,11796,1,0,0:0:0:0:
280,351,12130,2,0,P|347:362|415:310,1,143.999995605469,2|2,0:0|0:0,0:0:0:0:
451,240,13130,1,0,0:0:0:0:
424,150,13463,6,0,L|275:137,1,143.999995605469,2|2,0:0|0:0,0:0:0:0:
197,93,14463,1,0,0:0:0:0:
154,175,14796,2,0,P|159:240|150:323,1,143.999995605469,2|2,0:0|0:0,0:0:0:0:
151,319,16130,6,0,L|299:311,1,143.999995605469,2|2,0:0|0:0,0:0:0:0:
450,207,17463,2,0,L|302:199,1,143.999995605469,2|2,0:0|0:0,0:0:0:0:
220,161,18463,1,0,0:0:0:0:
187,248,18796,38,0,P|124:279|59:245,1,143.999995605469,2|2,0:0|0:0,0:0:0:0:
33,159,19796,1,0,0:0:0:0:
85,80,20130,2,0,L|244:73,1,143.999995605469,2|2,0:0|0:0,0:0:0:0:
309,25,21130,1,0,0:0:0:0:
376,89,21463,6,0,B|373:141|373:141|380:180|380:180|376:237,1,143.999995605469,6|2,0:0|0:0,0:0:0:0:
341,319,22463,1,0,0:0:0:0:
265,263,22796,2,0,P|186:247|119:287,1,143.999995605469,2|2,0:0|0:0,0:0:0:0:
59,333,23796,1,0,0:0:0:0:
0,259,24130,6,0,L|7:104,1,143.999995605469,2|2,0:0|0:0,0:0:0:0:
50,32,25130,1,0,0:0:0:0:
124,88,25463,2,0,B|198:113|198:70|279:95,1,143.999995605469,2|2,0:0|0:0,0:0:0:0:
265,91,26796,38,0,P|312:144|394:121,1,143.999995605469,2|2,0:0|0:0,0:0:0:0:
497,280,28130,2,0,P|424:275|349:290,1,143.999995605469,2|2,0:0|0:0,0:0:0:0:
275,337,29130,1,0,0:0:0:0:
192,293,29463,6,0,L|184:146,1,143.999995605469,2|2,0:0|0:0,0:0:0:0:
328,29,30796,1,2,0:0:0:0:
390,99,31130,2,0,L|383:193,2,71.9999978027344,0|2|0,0:0|0:0|0:0,0:0:0:0:
298,139,32123,6,0,L|310:300,1,160,6|2,0:0|0:0,0:0:0:0:
233,369,33123,1,0,0:0:0:0:
134,337,33456,2,0,P|111:300|109:257,1,80,2|0,0:0|0:0,0:0:0:0:
180,190,34123,2,0,P|203:153|205:110,1,80,2|0,0:0|0:0,0:0:0:0:
121,57,34789,38,0,P|186:16|276:40,1,160,2|2,0:0|0:0,0:0:0:0:
360,69,35789,1,0,0:0:0:0:
398,165,36123,2,0,L|391:257,1,80,2|0,0:0|0:0,0:0:0:0:
307,305,36789,2,0,L|300:225,1,80,2|0,0:0|0:0,0:0:0:0:
262,128,37456,6,0,P|208:176|112:160,1,160,2|2,0:0|0:0,0:0:0:0:
54,92,38456,1,0,0:0:0:0:
131,22,38789,2,0,L|223:8,1,80,2|0,0:0|0:0,0:0:0:0:
299,64,39456,2,0,L|378:76,1,80,2|0,0:0|0:0,0:0:0:0:
468,128,40123,6,0,P|400:178|312:157,1,160,2|2,0:0|0:0,0:0:0:0:
236,120,41123,1,0,0:0:0:0:
151,179,41456,2,0,P|148:222|155:261,1,80,2|0,0:0|0:0,0:0:0:0:
249,299,42123,2,0,P|252:256|245:217,1,80,2|0,0:0|0:0,0:0:0:0:
151,179,42789,38,0,L|310:173,1,160,6|0,0:0|0:0,0:0:0:0:
394,236,43789,1,0,0:0:0:0:
488,191,44123,2,0,P|496:140|488:98,1,80,8|0,0:0|0:0,0:0:0:0:
418,39,44789,2,0,L|364:34,1,53.3333333333333
337,55,45123,2,0,L|283:60,1,53.3333333333333
253,42,45456,6,0,P|209:32|166:40,2,80,2|0|0,0:0|0:0|0:0,0:0:0:0:
208,136,46456,1,0,0:0:0:0:
111,174,46789,2,0,L|96:77,1,80,8|0,0:0|0:0,0:0:0:0:
17,160,47456,2,0,L|4:239,1,80
23,341,48123,6,0,P|102:310|188:338,1,160,2|0,0:0|0:0,0:0:0:0:
267,369,49123,1,0,0:0:0:0:
321,280,49456,2,0,P|366:280|425:289,1,80,8|0,0:0|0:0,0:0:0:0:
503,299,50123,2,0,L|498:240,1,53.3333333333333
473,221,50456,2,0,L|478:162,1,53.3333333333333
489,135,50789,38,0,P|439:136|396:129,1,80,2|0,0:0|0:0,0:0:0:0:
322,74,51456,1,0,0:0:0:0:
226,116,51789,1,0,0:0:0:0:
226,116,53789,6,0,L|222:71,2,40,10|0|10,0:0|0:0|0:0,0:0:0:0:
256,158,54289,2,0,L|252:197,2,40,0|10|0,0:0|0:0|0:0,0:0:0:0:
304,127,54789,6,0,P|347:121|390:129,1,88.000002685547,6|0,0:0|0:0,0:0:0:0:
436,233,55455,2,0,P|393:239|350:231,1,88.000002685547,8|0,0:0|0:0,0:0:0:0:
235,220,56122,2,0,L|151:255,1,88.000002685547,2|0,0:0|0:0,0:0:0:0:
41,276,56789,2,0,L|50:199,1,58.6666684570313,8|0,0:0|0:0,0:0:0:0:
23,188,57122,2,0,L|14:111,1,58.6666684570313
21,91,57455,38,0,P|77:102|126:95,1,88.000002685547,2|0,0:0|0:0,0:0:0:0:
216,67,58122,2,0,P|270:45|319:44,1,88.000002685547,8|0,0:0|0:0,0:0:0:0:
386,119,58789,2,0,P|455:133|484:127,2,88.000002685547,2|0|8,0:0|0:0|0:0,0:0:0:0:
299,42,59789,1,0,0:0:0:0:
245,142,60122,6,0,L|236:238,1,88.000002685547,2|0,0:0|0:0,0:0:0:0:
211,341,60789,2,0,P|240:335|300:336,1,88.000002685547,8|0,0:0|0:0,0:0:0:0:
409,361,61455,2,0,P|404:316|411:260,1,88.000002685547,2|0,0:0|0:0,0:0:0:0:
459,170,62122,2,0,L|400:164,1,58.6666684570313,8|0,0:0|0:0,0:0:0:0:
370,141,62455,2,0,L|311:146,1,58.6666684570313
285,174,62789,6,0,P|244:188|194:184,2,88.000002685547,2|0|8,0:0|0:0|0:0,0:0:0:0:
317,63,63789,2,0,P|358:49|408:53,2,88.000002685547,0|2|0,0:0|0:0|0:0,0:0:0:0:
285,174,64789,1,8,0:0:0:0:
178,131,65122,1,0,0:0:0:0:
83,195,65455,38,0,P|65:151|71:92,1,88.000002685547,6|0,0:0|0:0,0:0:0:0:
160,47,66122,2,0,P|177:87|177:130,1,88.000002685547,8|0,0:0|0:0,0:0:0:0:
83,195,66789,2,0,L|95:302,1,88.000002685547,2|0,0:0|0:0,0:0:0:0:
175,361,67455,2,0,L|235:357,1,58.6666684570313,8|0,0:0|0:0,0:0:0:0:
263,332,67789,2,0,L|321:335,1,58.6666684570313
354,355,68122,6,0,L|361:249,1,88.000002685547,2|0,0:0|0:0,0:0:0:0:
312,162,68789,2,0,P|367:162|414:146,1,88.000002685547,8|0,0:0|0:0,0:0:0:0:
499,100,69455,2,0,P|502:50|517:-4,2,88.000002685547,2|0|8,0:0|0:0|0:0,0:0:0:0:
512,214,70455,1,0,0:0:0:0:
429,293,70789,6,0,L|324:292,1,88.000002685547,2|0,0:0|0:0,0:0:0:0:
247,357,71455,2,0,P|227:295|232:251,1,88.000002685547,8|0,0:0|0:0,0:0:0:0:
297,182,72122,2,0,P|317:120|312:76,1,88.000002685547,2|0,0:0|0:0,0:0:0:0:
225,27,72789,2,0,L|149:36,1,58.6666684570313,8|0,0:0|0:0,0:0:0:0:
148,67,73122,2,0,L|72:58,1,58.6666684570313
54,46,73455,38,0,P|55:105|49:142,1,88.000002685547,2|0,0:0|0:0,0:0:0:0:
0,236,74122,2,0,L|105:229,1,88.000002685547,8|0,0:0|0:0,0:0:0:0:
188,175,74789,1,2,0:0:0:0:
253,268,75122,1,0,0:0:0:0:
346,201,75455,1,2,0:0:0:0:
411,294,75788,1,0,0:0:0:0:
508,233,76122,6,0,L|512:130,1,88.000002685547,6|0,0:0|0:0,0:0:0:0:
426,68,76789,2,0,L|422:155,1,88.000002685547,8|0,0:0|0:0,0:0:0:0:
391,266,77455,1,2,0:0:0:0:
276,260,77789,1,0,0:0:0:0:
169,303,78122,2,0,L|164:240,1,58.6666684570313,8|0,0:0|0:0,0:0:0:0:
189,215,78455,2,0,L|194:152,1,58.6666684570313
176,122,78789,6,0,P|221:125|286:118,1,88.000002685547,2|0,0:0|0:0,0:0:0:0:
346,43,79455,2,0,P|403:46|434:72,1,88.000002685547,8|0,0:0|0:0,0:0:0:0:
477,165,80122,2,0,L|484:261,2,88.000002685547,2|0|8,0:0|0:0|0:0,0:0:0:0:
426,63,81122,1,0,0:0:0:0:
324,115,81455,38,0,P|269:124|236:118,1,88.000002685547,2|0,0:0|0:0,0:0:0:0:
128,83,82122,2,0,P|124:126|136:172,1,88.000002685547,8|0,0:0|0:0,0:0:0:0:
127,283,82789,1,2,0:0:0:0:
239,304,83122,1,0,0:0:0:0:
288,200,83455,2,0,L|350:205,1,58.6666684570313,8|0,0:0|0:0,0:0:0:0:
373,232,83789,2,0,L|435:227,1,58.6666684570313
466,213,84122,6,0,P|462:263|470:303,1,88.000002685547,2|0,0:0|0:0,0:0:0:0:
371,359,84789,2,0,L|270:363,1,88.000002685547,8|0,0:0|0:0,0:0:0:0:
182,307,85455,2,0,P|137:312|100:341,2,88.000002685547,2|0|8,0:0|0:0|0:0,0:0:0:0:
283,362,86455,1,0,0:0:0:0:
352,270,86789,6,0,L|360:160,1,88.000002685547,6|0,0:0|0:0,0:0:0:0:
440,102,87455,2,0,L|448:212,1,88.000002685547,8|0,0:0|0:0,0:0:0:0:
464,302,88122,1,2,0:0:0:0:
358,347,88455,1,0,0:0:0:0:
253,300,88789,2,0,L|177:293,1,58.6666684570313,8|0,0:0|0:0,0:0:0:0:
165,318,89122,2,0,L|89:325,1,58.6666684570313
73,303,89455,38,0,P|59:243|69:204,1,88.000002685547,2|0,0:0|0:0,0:0:0:0:
159,155,90122,2,0,P|217:156|256:138,1,88.000002685547,8|0,0:0|0:0,0:0:0:0:
346,94,90789,2,0,L|354:186,2,88.000002685547,2|0|8,0:0|0:0|0:0,0:0:0:0:
262,15,91789,1,0,0:0:0:0:
163,72,92122,6,0,P|124:95|66:95,1,88.000002685547,2|0,0:0|0:0,0:0:0:0:
1,179,92789,2,0,L|6:281,1,88.000002685547,8|0,0:0|0:0,0:0:0:0:
98,332,93455,1,2,0:0:0:0:
193,268,93789,1,0,0:0:0:0:
172,156,94122,2,0,L|233:148,1,58.6666684570313,8|0,0:0|0:0,0:0:0:0:
254,177,94455,2,0,L|315:185,1,58.6666684570313
345,165,94789,6,0,P|371:118|364:68,1,88.000002685547,2|0,0:0|0:0,0:0:0:0:
273,24,95455,2,0,L|169:32,1,88.000002685547,8|0,0:0|0:0,0:0:0:0:
113,119,96122,2,0,L|25:112,2,88.000002685547,2|0|8,0:0|0:0|0:0,0:0:0:0:
211,177,97122,1,0,0:0:0:0:
281,101,97455,37,6,0:2:0:0:
281,101,108122,5,2,0:2:0:0:
199,165,108455,2,0,P|194:209|203:248,2,80
296,201,109455,2,0,P|301:245|292:284,1,80,2|0,0:2|0:0,0:0:0:0:
212,344,110122,2,0,L|155:349,1,53.3333333333333
129,330,110455,2,0,L|72:324,1,53.3333333333333
43,337,110789,6,0,P|46:306|43:244,1,80,2|0,0:2|0:0,0:0:0:0:
0,163,111455,2,0,P|2:107|20:75,1,80
103,34,112122,2,0,P|157:32|202:22,2,80,2|0|0,0:2|0:0|0:0,0:0:0:0:
12,86,113122,1,0,0:0:0:0:
76,167,113455,38,0,L|65:270,1,80,2|0,0:2|0:0,0:0:0:0:
41,347,114122,2,0,P|101:339|129:342,1,80
221,362,114789,2,0,P|260:363|300:355,1,80,2|0,0:2|0:0,0:0:0:0:
368,277,115455,2,0,L|373:221,1,53.3333333333333
398,200,115789,2,0,L|393:144,1,53.3333333333333
374,118,116122,6,0,P|331:113|294:118,1,80,2|0,0:2|0:0,0:0:0:0:
233,201,116789,2,0,P|204:169|192:115,1,80
175,32,117455,2,0,P|137:45|108:72,1,80,2|0,0:2|0:0,0:0:0:0:
6,91,118122,2,0,P|19:128|46:157,1,80
66,249,118789,5,6,0:2:0:0:
214,135,119455,2,0,L|305:124,1,71.9999978027344
372,91,120122,2,0,P|377:122|368:171,1,71.9999978027344,2|0,0:2|0:0,0:0:0:0:
294,216,120789,2,0,L|302:276,1,47.9999985351563
323,284,121122,2,0,L|315:344,1,47.9999985351563
293,352,121455,38,0,L|221:348,1,71.9999978027344,2|0,0:2|0:0,0:0:0:0:
137,304,122122,2,0,P|131:268|139:221,1,71.9999978027344
207,173,122789,2,0,P|213:137|205:90,1,71.9999978027344,2|0,0:2|0:0,0:0:0:0:
173,15,123455,2,0,L|244:11,1,71.9999978027344
331,48,124122,5,2,0:2:0:0:
394,224,124789,2,0,L|381:314,1,71.9999978027344
304,344,125455,2,0,L|293:272,1,71.9999978027344,2|0,0:2|0:0,0:0:0:0:
229,204,126122,2,0,L|180:205,1,47.9999985351563
158,226,126455,2,0,L|109:225,1,47.9999985351563
82,209,126789,6,0,P|73:166|78:118,1,71.9999978027344,2|0,0:2|0:0,0:0:0:0:
123,58,127455,2,0,L|195:64,1,71.9999978027344
263,127,128122,2,0,L|335:121,2,71.9999978027344,2|0|0,0:2|0:0|0:0,0:0:0:0:
175,161,129122,1,0,0:0:0:0:
232,234,129455,38,0,P|230:311|178:357,1,143.999995605469,6|0,0:0|0:0,0:0:0:0:
91,354,130455,1,0,0:0:0:0:
31,281,130789,2,0,B|29:228|29:228|37:188|37:188|34:125,1,143.999995605469,8|0,0:0|0:0,0:0:0:0:
72,51,131789,1,0,0:0:0:0:
151,100,132122,6,0,P|232:104|288:67,1,143.999995605469,2|0,0:0|0:0,0:0:0:0:
370,38,133122,1,0,0:0:0:0:
439,100,133455,2,0,L|444:254,1,143.999995605469,8|0,0:0|0:0,0:0:0:0:
406,329,134455,1,0,0:0:0:0:
316,300,134789,6,0,B|247:280|247:320|168:297,1,143.999995605469,2|0,0:0|0:0,0:0:0:0:
112,227,135789,1,0,0:0:0:0:
187,171,136122,2,0,P|204:129|153:43,1,143.999995605469,8|0,0:0|0:0,0:0:0:0:
71,18,137122,1,0,0:0:0:0:
10,89,137455,38,0,L|2:234,1,143.999995605469,2|0,0:0|0:0,0:0:0:0:
59,306,138455,1,0,0:0:0:0:
141,261,138789,2,0,P|229:269|252:317,1,143.999995605469,8|0,0:0|0:0,0:0:0:0:
251,311,140122,37,8,0:0:0:0:
346,269,140455,1,0,0:0:0:0:
326,167,140789,2,0,L|426:160,2,80,8|0|8,0:0|0:0|0:0,0:0:0:0:
236,114,141789,1,0,0:0:0:0:
151,174,142122,2,0,L|143:248,1,53.3333333333333,8|0,0:0|0:0,0:0:0:0:
126,256,142455,2,0,L|134:330,1,53.3333333333333
151,338,142789,5,8,0:0:0:0:
252,360,143122,1,0,0:0:0:0:
336,299,143455,2,0,P|334:255|336:219,2,80,8|0|8,0:0|0:0|0:0,0:0:0:0:
426,351,144455,1,0,0:0:0:0:
478,261,144789,2,0,L|483:204,1,53.3333333333333,8|0,0:0|0:0,0:0:0:0:
511,188,145122,2,0,L|506:131,1,53.3333333333333
482,109,145455,53,8,0:0:0:0:
380,84,145789,1,8,0:0:0:0:
308,9,146122,1,8,0:0:0:0:
206,33,146456,1,8,0:0:0:0:
245,129,146789,1,8,0:0:0:0:
220,231,147123,1,8,0:0:0:0:
292,305,147455,1,8,0:0:0:0:
190,330,147789,1,8,0:0:0:0:
88,306,148122,6,0,L|41:318,2,40,8|0|8,0:0|0:0|0:0,0:0:0:0:
163,233,148789,2,0,L|210:245,2,40,8|0|8,0:0|0:0|0:0,0:0:0:0:
101,149,149455,2,0,L|113:102,2,40,8|0|8,0:0|0:0|0:0,0:0:0:0:
10,200,150122,2,0,L|22:247,2,40,8|0|8,0:0|0:0|0:0,0:0:0:0:
189,95,151122,6,0,L|186:134,2,40,10|0|10,0:0|0:0|0:0,0:0:0:0:
224,57,151622,2,0,L|221:10,2,40,0|10|0,0:0|0:0|0:0,0:0:0:0:
274,86,152122,6,0,P|321:93|381:76,1,88.000002685547,6|0,0:0|0:0,0:0:0:0:
459,28,152788,2,0,L|463:117,1,88.000002685547,8|0,0:0|0:0,0:0:0:0:
413,219,153455,2,0,P|365:219|314:244,1,88.000002685547,2|0,0:0|0:0,0:0:0:0:
254,321,154122,2,0,L|168:314,1,58.6666684570313,8|0,0:0|0:0,0:0:0:0:
170,287,154455,2,0,L|84:294,1,58.6666684570313
75,304,154788,6,0,P|82:265|77:216,1,88.000002685547,2|0,0:0|0:0,0:0:0:0:
5,128,155455,2,0,P|46:106|108:105,1,88.000002685547,8|0,0:0|0:0,0:0:0:0:
174,175,156122,2,0,P|243:189|272:183,2,88.000002685547,2|0|8,0:0|0:0|0:0,0:0:0:0:
231,75,157122,1,0,0:0:0:0:
333,27,157455,38,0,L|428:41,1,88.000002685547,2|0,0:0|0:0,0:0:0:0:
493,127,158122,2,0,L|398:141,1,88.000002685547,8|0,0:0|0:0,0:0:0:0:
294,114,158788,2,0,P|294:166|314:210,1,88.000002685547,2|0,0:0|0:0,0:0:0:0:
346,306,159455,2,0,L|283:311,1,58.6666684570313,8|0,0:0|0:0,0:0:0:0:
253,328,159788,2,0,L|190:323,1,58.6666684570313
166,297,160122,6,0,P|145:254|141:207,2,88.000002685547,2|0|8,0:0|0:0|0:0,0:0:0:0:
255,225,161122,2,0,P|276:182|280:135,2,88.000002685547,0|2|0,0:0|0:0|0:0,0:0:0:0:
166,152,162122,1,8,0:0:0:0:
192,40,162455,1,0,0:0:0:0:
305,18,162788,6,0,L|412:33,1,88.000002685547,6|0,0:0|0:0,0:0:0:0:
484,98,163455,2,0,P|490:147|479:185,1,88.000002685547,8|0,0:0|0:0,0:0:0:0:
387,251,164122,2,0,P|339:246|291:254,1,88.000002685547,2|0,0:0|0:0,0:0:0:0:
195,298,164788,2,0,L|190:223,1,58.6666684570313,8|0,0:0|0:0,0:0:0:0:
214,208,165122,2,0,L|219:133,1,58.6666684570313
196,118,165455,38,0,P|238:123|295:109,1,88.000002685547,2|0,0:0|0:0,0:0:0:0:
369,39,166122,2,0,P|420:42|461:66,1,88.000002685547,8|0,0:0|0:0,0:0:0:0:
499,162,166788,2,0,L|478:250,2,88.000002685547,2|0|8,0:0|0:0|0:0,0:0:0:0:
452,58,167788,1,0,0:0:0:0:
354,118,168122,6,0,P|302:117|260:96,1,88.000002685547,2|0,0:0|0:0,0:0:0:0:
167,51,168788,2,0,L|171:149,1,88.000002685547,8|0,0:0|0:0,0:0:0:0:
144,250,169455,2,0,P|194:247|242:267,1,88.000002685547,2|0,0:0|0:0,0:0:0:0:
296,351,170122,2,0,L|372:340,1,58.6666684570313,8|0,0:0|0:0,0:0:0:0:
377,312,170455,2,0,L|453:323,1,58.6666684570313
469,337,170788,6,0,P|476:299|477:240,1,88.000002685547,2|0,0:0|0:0,0:0:0:0:
508,139,171455,2,0,L|414:124,1,88.000002685547,8|0,0:0|0:0,0:0:0:0:
338,204,172122,1,2,0:0:0:0:
273,111,172455,1,0,0:0:0:0:
180,178,172788,1,2,0:0:0:0:
115,85,173122,1,0,0:0:0:0:
16,143,173455,38,0,L|6:238,1,88.000002685547,6|0,0:0|0:0,0:0:0:0:
106,287,174122,2,0,L|96:199,1,88.000002685547,8|0,0:0|0:0,0:0:0:0:
115,85,174788,1,2,0:0:0:0:
223,120,175122,1,0,0:0:0:0:
289,28,175455,2,0,L|353:20,1,58.6666684570313,8|0,0:0|0:0,0:0:0:0:
371,49,175788,2,0,L|435:57,1,58.6666684570313,0|0,0:0|0:0,0:0:0:0:
463,39,176122,6,0,L|458:148,1,88.000002685547,2|0,0:0|0:0,0:0:0:0:
399,224,176788,2,0,P|347:217|311:223,1,88.000002685547,8|0,0:0|0:0,0:0:0:0:
212,279,177455,2,0,L|207:188,2,88.000002685547,2|0|8,0:0|0:0|0:0,0:0:0:0:
289,363,178455,1,0,0:0:0:0:
389,309,178788,6,0,P|400:273|397:218,1,88.000002685547,2|0,0:0|0:0,0:0:0:0:
315,156,179455,2,0,P|297:116|292:73,1,88.000002685547,8|0,0:0|0:0,0:0:0:0:
196,9,180122,1,2,0:0:0:0:
131,103,180455,1,0,0:0:0:0:
17,91,180788,2,0,L|21:154,1,58.6666684570313,8|0,0:0|0:0,0:0:0:0:
45,179,181122,2,0,L|40:241,1,58.6666684570313
24,272,181455,38,0,P|69:270|113:282,1,88.000002685547,2|0,0:0|0:0,0:0:0:0:
195,357,182122,2,0,L|282:348,1,88.000002685547,8|0,0:0|0:0,0:0:0:0:
384,296,182788,2,0,P|399:248|390:189,2,88.000002685547,2|0|8,0:0|0:0|0:0,0:0:0:0:
285,237,183788,1,0,0:0:0:0:
218,143,184122,6,0,L|212:48,1,88.000002685547,6|0,0:0|0:0,0:0:0:0:
323,26,184788,2,0,L|317:113,1,88.000002685547,8|0,0:0|0:0,0:0:0:0:
265,216,185455,1,2,0:0:0:0:
183,136,185788,1,0,0:0:0:0:
75,175,186122,2,0,L|77:239,1,58.6666684570313,8|0,0:0|0:0,0:0:0:0:
96,266,186455,2,0,L|94:330,1,58.6666684570313
78,359,186788,6,0,P|127:355|189:361,1,88.000002685547,2|0,0:0|0:0,0:0:0:0:
263,296,187455,2,0,P|324:308|370:294,1,88.000002685547,8|0,0:0|0:0,0:0:0:0:
451,253,188122,2,0,L|459:345,2,88.000002685547,2|0|8,0:0|0:0|0:0,0:0:0:0:
490,145,189122,1,0,0:0:0:0:
396,79,189455,38,0,L|296:69,1,88.000002685547,2|0,0:0|0:0,0:0:0:0:
201,28,190122,2,0,P|202:86|194:117,1,88.000002685547,8|0,0:0|0:0,0:0:0:0:
92,165,190788,1,2,0:0:0:0:
74,278,191122,1,0,0:0:0:0:
176,329,191455,2,0,L|237:321,1,58.6666684570313,8|0,0:0|0:0,0:0:0:0:
268,337,191788,2,0,L|329:345,1,58.6666684570313
357,322,192122,6,0,P|405:290|443:289,1,88.000002685547,2|0,0:0|0:0,0:0:0:0:
503,197,192788,2,0,L|510:104,1,88.000002685547,8|0,0:0|0:0,0:0:0:0:
412,49,193455,2,0,L|418:136,2,88.000002685547,2|0|8,0:0|0:0|0:0,0:0:0:0:
309,100,194455,1,0,0:0:0:0:
209,51,194802,22,0,P|198:117|237:187,1,143.999995605469,2|2,0:0|0:0,0:0:0:0:
376,303,196135,2,0,B|320:304|320:304|283:297|283:297|221:300,1,143.999995605469,2|2,0:0|0:0,0:0:0:0:
147,337,197135,1,0,0:0:0:0:
93,259,197468,6,0,B|74:188|119:188|101:112,1,143.999995605469,2|2,0:0|0:0,0:0:0:0:
289,127,198802,2,0,P|353:114|399:35,1,143.999995605469,2|2,0:0|0:0,0:0:0:0:
304,33,199802,1,0,0:0:0:0:
215,63,200135,54,0,L|193:210,1,143.999995605469,2|2,0:0|0:0,0:0:0:0:
94,351,201468,2,0,P|176:329|248:355,1,160,2|2,0:0|0:0,0:0:0:0:
256,192,203273,12,0,206273,0:0:0:0:
