osu file format v14

[General]
AudioFilename: audio.mp3
AudioLeadIn: 0
PreviewTime: -1
Countdown: 0
SampleSet: None
StackLeniency: 1
Mode: 0
LetterboxInBreaks: 0
WidescreenStoryboard: 0

[Editor]
DistanceSpacing: 1.2
BeatDivisor: 6
GridSize: 8
TimelineZoom: 2

[Metadata]
Title:Alone
TitleUnicode:Alone
Artist:Alan Walker
ArtistUnicode:Alan Walker
Creator:Pickkle
Version:Insane
Source:
Tags:
BeatmapID:1310193
BeatmapSetID:621392

[Difficulty]
HPDrainRate:5
CircleSize:4
OverallDifficulty:5
ApproachRate:7
SliderMultiplier:1.8
SliderTickRate:1

[Events]
//Background and Video events
0,0,"45943_anime_scenery_japan_temple_scenery.jpg",0,0
//Break Periods
2,14679,43580
//Storyboard Layer 0 (Background)
//Storyboard Layer 1 (Fail)
//Storyboard Layer 2 (Pass)
//Storyboard Layer 3 (Foreground)
//Storyboard Sound Samples

[TimingPoints]
-56,618.556701030928,4,1,0,100,1,0
4273,-133.333333333333,4,1,0,35,0,0
4892,-125,4,1,0,35,0,0
5820,-125,4,1,0,5,0,0
6129,-125,4,1,0,35,0,0
7057,-125,4,1,0,5,0,0
7366,-125,4,1,0,35,0,0
8294,-125,4,1,0,5,0,0
8603,-125,4,1,0,35,0,0
44480,-76.9230769230769,4,3,1,75,0,1
51902,-76.9230769230769,4,3,1,75,0,1
52315,-76.9230769230769,4,3,1,5,0,1
52521,-76.9230769230769,4,3,1,75,0,1
52933,-76.9230769230769,4,3,1,5,0,1
53139,-76.9230769230769,4,3,1,75,0,1
53552,-76.9230769230769,4,3,1,5,0,1
53758,-76.9230769230769,4,3,1,75,0,1
54789,-76.9230769230769,4,3,1,5,0,1
54995,-76.9230769230769,4,3,1,75,0,1
64273,-76.9230769230769,4,3,1,45,0,0
116232,-76.9230769230769,4,3,1,75,0,1
136026,-76.9230769230769,4,3,1,45,0,0
138500,-76.9230769230769,4,3,1,75,0,1
155820,-76.9230769230769,4,3,1,45,0,0

[Colours]
Combo1 : 253,99,77
Combo2 : 0,0,255
Combo3 : 255,119,187
Combo4 : 0,255,255

[HitObjects]
360,305,4273,6,0,P|349:256|355:220,1,67.5000025749208
398,162,4892,6,0,B|390:122|390:122|399:86|399:86|387:50|387:50|394:18|394:18|369:37|370:86,1,216
281,115,6129,2,0,B|213:103|213:103|148:148|148:148|165:165|218:140,1,216
81,90,7366,2,0,B|70:161|70:161|88:215|88:215|78:305,1,216
258,307,8603,2,0,P|274:261|216:322,1,288
403,317,11696,5,0,0:0:0:0:
369,229,12005,1,0,0:0:0:0:
411,151,12315,1,0,0:0:0:0:
170,157,14170,6,0,P|170:206|157:238,1,72
359,302,44480,6,0,L|383:121,1,155.999992858887
393,63,45098,1,0,0:0:0:0:
286,111,45407,1,0,0:0:0:0:
192,82,45717,2,0,P|150:69|108:80,1,77.9999964294435,0|0,2:0|0:0,0:0:0:0:
75,95,46026,2,0,L|84:182,1,77.9999964294435,0|0,2:0|0:0,0:0:0:0:
101,215,46335,1,0,2:0:0:0:
52,320,46645,1,0,2:0:0:0:
208,293,46954,6,0,B|179:207|238:206|199:115,1,155.999992858887
163,66,47572,2,0,P|213:46|277:68,1,116.999994644165
360,120,48191,2,0,L|366:216,1,77.9999964294435,0|0,2:0|0:0,0:0:0:0:
402,225,48500,2,0,L|390:320,1,77.9999964294435,0|0,2:0|0:0,0:0:0:0:
365,340,48809,2,0,P|296:322|246:341,1,116.999994644165,0|0,2:0|2:0,2:0:0:0:
114,352,49428,6,0,B|101:291|101:291|114:244|114:244|98:179,1,155.999992858887
73,111,50047,1,0,0:0:0:0:
23,225,50356,1,0,0:0:0:0:
168,213,50665,2,0,P|181:163|172:130,1,77.9999964294435,0|0,2:0|0:0,0:0:0:0:
155,96,50974,2,0,P|142:46|151:13,1,77.9999964294435,0|0,2:0|0:0,0:0:0:0:
193,11,51284,2,0,L|332:17,1,116.999994644165,0|0,2:0|2:0,2:0:0:0:
446,46,51902,6,0,B|426:111|426:111|441:223,1,155.999992858887
450,291,52521,2,0,B|385:271|385:271|273:286,1,155.999992858887
230,217,53139,2,0,B|250:152|250:152|235:40,1,155.999992858887
156,18,53758,1,0,0:0:0:0:
43,101,54067,1,0,0:0:0:0:
152,155,54376,6,0,B|145:215|145:215|152:279|152:279|143:335,1,155.999992858887
226,350,54995,2,0,P|284:333|346:352,1,116.999994644165
432,368,55614,2,0,L|424:280,1,77.9999964294435
403,242,55923,2,0,L|411:154,1,77.9999964294435
435,124,56232,2,0,B|448:83|448:83|442:2,1,116.999994644165
347,38,56851,6,0,P|292:29|203:87,1,155.999992858887
120,136,57469,2,0,L|132:10,1,116.999994644165
228,129,58088,2,0,P|234:171|218:211,1,77.9999964294435
189,237,58397,2,0,P|183:279|199:319,1,77.9999964294435
234,334,58706,2,0,P|168:326|124:359,1,116.999994644165
76,222,59325,6,0,B|94:164|94:164|83:44,1,155.999992858887
173,38,59944,2,0,P|215:22|302:42,1,116.999994644165
414,84,60562,2,0,P|408:131|424:164,1,77.9999964294435
445,197,60871,2,0,P|390:187|361:196,1,77.9999964294435
330,218,61181,2,0,L|343:350,1,116.999994644165
201,310,61799,6,0,B|133:320|133:320|89:311|89:311|15:326,2,175.499991966248
292,238,63036,6,0,L|304:126,1,77.9999964294435
214,85,63346,2,0,L|226:197,1,77.9999964294435
322,67,63655,2,0,P|263:59|208:90,2,116.999994644165
