osu file format v14

[General]
AudioFilename: Alone.mp3
AudioLeadIn: 0
PreviewTime: 21347
Countdown: 0
SampleSet: None
StackLeniency: 1
Mode: 3
LetterboxInBreaks: 0
SpecialStyle: 0
WidescreenStoryboard: 0

[Editor]
DistanceSpacing: 0.8
BeatDivisor: 4
GridSize: 4
TimelineZoom: 1.3

[Metadata]
Title:Alone
TitleUnicode:Alone
Artist:Alan Walker
ArtistUnicode:Alan Walker
Creator:Feerum
Version:Easy
Source:
Tags:Electro House ECHO Bror DJ Walkzz Olav Noonie Bao
BeatmapID:1353323
BeatmapSetID:637917

[Difficulty]
HPDrainRate:7
CircleSize:4
OverallDifficulty:7
ApproachRate:10
SliderMultiplier:1.4
SliderTickRate:1

[Events]
//Background and Video events
0,0,"BG.jpg",0,0
//Break Periods
//Storyboard Layer 0 (Background)
//Storyboard Layer 1 (Fail)
//Storyboard Layer 2 (Pass)
//Storyboard Layer 3 (Foreground)
//Storyboard Sound Samples

[TimingPoints]
381,616.649537512847,4,3,1,30,1,0
21963,-100,4,3,1,40,0,0
22580,-100,4,3,1,60,0,0
42313,-100,4,3,1,60,0,1
62045,-100,4,3,1,40,0,0
64512,-100,4,3,1,60,0,0
113844,-100,4,3,1,60,0,1
133577,-100,4,3,1,50,0,0
136043,-100,4,3,1,60,0,1
153310,-100,4,3,1,60,0,0

[HitObjects]
448,192,2847,128,0,5314:0:0:0:0:
192,192,5314,128,0,7780:0:0:0:0:
320,192,7780,128,0,10247:0:0:0:0:
64,192,10247,128,0,12713:0:0:0:0:
192,192,12713,128,0,15180:0:0:0:0:
448,192,15180,128,0,17647:0:0:0:0:
64,192,17647,128,0,20113:0:0:0:0:
320,192,20113,128,0,21963:0:0:0:0:
64,192,21963,128,8,22580:3:0:0:0:
192,192,22580,1,4,1:0:0:0:
448,192,22888,1,0,0:0:0:0:
448,192,23505,1,0,0:0:0:0:
448,192,24122,1,0,0:0:0:0:
448,192,24738,1,0,0:0:0:0:
64,192,25355,1,0,0:0:0:0:
64,192,25971,1,0,0:0:0:0:
64,192,26588,1,0,0:0:0:0:
64,192,27205,1,0,0:0:0:0:
448,192,27513,1,0,0:0:0:0:
320,192,27821,1,0,0:0:0:0:
320,192,28438,1,0,0:0:0:0:
320,192,29055,1,0,0:0:0:0:
320,192,29671,1,0,0:0:0:0:
192,192,30288,1,0,0:0:0:0:
192,192,30905,1,0,0:0:0:0:
192,192,31521,1,0,0:0:0:0:
192,192,32138,1,0,0:0:0:0:
448,192,32446,1,4,3:0:0:0:
64,192,32446,1,4,1:0:0:0:
192,192,33063,1,4,3:0:0:0:
448,192,33680,1,4,3:0:0:0:
192,192,34296,1,4,3:0:0:0:
320,192,34913,1,4,3:0:0:0:
64,192,35530,1,4,3:0:0:0:
320,192,36146,1,4,3:0:0:0:
64,192,36763,1,4,3:0:0:0:
192,192,37071,1,0,0:0:0:0:
448,192,37379,1,4,3:0:0:0:
64,192,37996,1,4,3:0:0:0:
448,192,38613,1,4,3:0:0:0:
64,192,39229,1,4,3:0:0:0:
320,192,39846,1,8,3:0:0:0:
192,192,40154,1,8,3:0:0:0:
448,192,40617,1,8,3:0:0:0:
64,192,41079,128,4,41696:3:0:0:0:
320,192,41696,128,4,42313:3:0:0:0:
192,192,42313,1,4,1:0:0:0:
64,192,42313,1,4,3:0:0:0:
448,192,42775,1,0,0:0:0:0:
64,192,43238,1,0,0:0:0:0:
320,192,43546,1,4,3:0:0:0:
192,192,43854,1,0,0:0:0:0:
320,192,44163,1,8,2:0:0:0:
448,192,44471,1,0,0:0:0:0:
64,192,44779,1,4,3:0:0:0:
320,192,45242,1,0,0:0:0:0:
448,192,45704,1,0,0:0:0:0:
64,192,46013,1,4,3:0:0:0:
320,192,46321,1,0,0:0:0:0:
64,192,46629,1,8,2:0:0:0:
192,192,46938,1,0,0:0:0:0:
448,192,47246,1,4,3:0:0:0:
320,192,47708,1,0,0:0:0:0:
64,192,48171,1,0,0:0:0:0:
448,192,48479,1,4,3:0:0:0:
192,192,48787,1,0,0:0:0:0:
448,192,49096,1,8,2:0:0:0:
320,192,49404,1,0,0:0:0:0:
64,192,49712,1,4,3:0:0:0:
192,192,50329,1,8,2:0:0:0:
320,192,50946,1,4,3:0:0:0:
448,192,51562,1,8,2:0:0:0:
320,192,52179,1,4,1:0:0:0:
64,192,52179,1,4,3:0:0:0:
192,192,52642,1,0,0:0:0:0:
448,192,53104,1,0,0:0:0:0:
64,192,53412,1,4,3:0:0:0:
320,192,53721,1,0,0:0:0:0:
64,192,54029,1,8,2:0:0:0:
192,192,54337,1,0,0:0:0:0:
448,192,54646,1,4,3:0:0:0:
320,192,55108,1,0,0:0:0:0:
64,192,55571,1,0,0:0:0:0:
192,192,55879,1,4,3:0:0:0:
320,192,56187,1,0,0:0:0:0:
192,192,56496,1,8,2:0:0:0:
448,192,56804,1,0,0:0:0:0:
64,192,57112,1,4,3:0:0:0:
320,192,57575,1,0,0:0:0:0:
64,192,58037,1,0,0:0:0:0:
448,192,58346,1,4,3:0:0:0:
192,192,58654,1,0,0:0:0:0:
448,192,58962,1,8,2:0:0:0:
320,192,59271,1,0,0:0:0:0:
192,192,59579,1,4,3:0:0:0:
64,192,60196,1,8,2:0:0:0:
448,192,60812,1,4,3:0:0:0:
192,192,61429,1,8,2:0:0:0:
320,192,62045,1,0,0:0:0:0:
192,192,62508,1,0,0:0:0:0:
64,192,62970,1,0,0:0:0:0:
448,192,63279,1,0,0:0:0:0:
320,192,63587,1,0,0:0:0:0:
192,192,63895,1,0,0:0:0:0:
448,192,64204,1,0,0:0:0:0:
64,192,64512,128,0,66979:0:0:0:0:
320,192,64512,1,4,3:0:0:0:
320,192,65129,1,4,3:0:0:0:
320,192,65745,1,4,3:0:0:0:
320,192,66362,1,4,3:0:0:0:
448,192,66979,128,0,69445:0:0:0:0:
192,192,66979,1,4,3:0:0:0:
192,192,67595,1,4,3:0:0:0:
192,192,68212,1,4,3:0:0:0:
192,192,68829,1,4,3:0:0:0:
320,192,69445,128,0,71912:0:0:0:0:
64,192,69445,1,4,3:0:0:0:
64,192,70062,1,4,3:0:0:0:
64,192,70679,1,4,3:0:0:0:
64,192,71295,1,4,3:0:0:0:
192,192,71912,128,0,74378:0:0:0:0:
448,192,71912,1,4,3:0:0:0:
448,192,72528,5,4,3:0:0:0:
448,192,73145,1,4,3:0:0:0:
448,192,73762,1,4,3:0:0:0:
320,192,74378,1,4,3:0:0:0:
192,192,74995,1,8,2:0:0:0:
448,192,74995,1,0,0:0:0:0:
320,192,75612,1,4,3:0:0:0:
192,192,76228,1,0,0:0:0:0:
448,192,76228,1,8,2:0:0:0:
192,192,76845,1,4,3:0:0:0:
320,192,77462,1,0,0:0:0:0:
64,192,77462,1,8,2:0:0:0:
192,192,78078,1,4,3:0:0:0:
320,192,78695,1,8,2:0:0:0:
64,192,78695,1,0,0:0:0:0:
448,192,79312,1,4,3:0:0:0:
192,192,79928,1,0,0:0:0:0:
64,192,79928,1,8,2:0:0:0:
448,192,80545,1,4,3:0:0:0:
192,192,81162,1,8,2:0:0:0:
64,192,81162,1,0,0:0:0:0:
64,192,81778,1,4,3:0:0:0:
320,192,82395,1,0,0:0:0:0:
448,192,82395,1,8,2:0:0:0:
64,192,83012,1,4,3:0:0:0:
320,192,83628,1,8,2:0:0:0:
448,192,83628,1,0,0:0:0:0:
192,192,84245,1,4,1:0:0:0:
64,192,84245,1,4,3:0:0:0:
448,192,85478,1,0,0:0:0:0:
64,192,85786,1,0,0:0:0:0:
320,192,86095,1,0,0:0:0:0:
448,192,86403,1,0,0:0:0:0:
192,192,86711,1,0,0:0:0:0:
192,192,87945,1,0,0:0:0:0:
64,192,88253,1,0,0:0:0:0:
448,192,88561,1,0,0:0:0:0:
192,192,88870,1,0,0:0:0:0:
320,192,89178,1,0,0:0:0:0:
192,192,89795,1,0,0:0:0:0:
64,192,90411,1,0,0:0:0:0:
448,192,91028,1,0,0:0:0:0:
192,192,91645,1,0,0:0:0:0:
192,192,93495,128,8,94111:3:0:0:0:
320,192,94111,5,4,1:0:0:0:
64,192,94420,1,0,0:0:0:0:
64,192,95036,1,0,0:0:0:0:
64,192,95653,1,0,0:0:0:0:
64,192,96270,1,0,0:0:0:0:
448,192,96886,1,0,0:0:0:0:
448,192,97503,1,0,0:0:0:0:
448,192,98119,1,0,0:0:0:0:
448,192,98736,1,0,0:0:0:0:
64,192,99044,1,0,0:0:0:0:
192,192,99353,1,0,0:0:0:0:
192,192,99969,1,0,0:0:0:0:
192,192,100586,1,0,0:0:0:0:
192,192,101203,1,0,0:0:0:0:
320,192,101819,1,0,0:0:0:0:
320,192,102436,1,0,0:0:0:0:
320,192,103053,1,0,0:0:0:0:
320,192,103669,1,0,0:0:0:0:
64,192,103978,1,4,3:0:0:0:
448,192,103978,1,4,1:0:0:0:
192,192,104594,1,8,2:0:0:0:
448,192,105211,1,4,3:0:0:0:
192,192,105828,1,8,2:0:0:0:
320,192,106444,1,4,3:0:0:0:
64,192,107061,1,8,2:0:0:0:
320,192,107678,1,4,3:0:0:0:
64,192,108294,1,8,2:0:0:0:
192,192,108602,1,0,0:0:0:0:
448,192,108911,1,4,3:0:0:0:
64,192,109527,1,8,2:0:0:0:
448,192,110144,1,4,3:0:0:0:
64,192,110761,1,8,2:0:0:0:
320,192,111377,1,8,3:0:0:0:
192,192,111686,1,8,3:0:0:0:
64,192,112148,1,8,3:0:0:0:
448,192,112611,128,4,113227:3:0:0:0:
192,192,113227,128,4,113844:3:0:0:0:
320,192,113844,1,4,1:0:0:0:
448,192,113844,1,4,3:0:0:0:
64,192,114307,1,0,0:0:0:0:
448,192,114769,1,0,0:0:0:0:
192,192,115077,1,4,3:0:0:0:
64,192,115386,1,0,0:0:0:0:
192,192,115694,1,8,2:0:0:0:
320,192,116002,1,0,0:0:0:0:
64,192,116311,1,4,3:0:0:0:
448,192,116773,1,0,0:0:0:0:
192,192,117236,1,0,0:0:0:0:
320,192,117544,1,4,3:0:0:0:
448,192,117852,1,0,0:0:0:0:
320,192,118161,1,8,2:0:0:0:
64,192,118469,1,0,0:0:0:0:
448,192,118777,1,4,3:0:0:0:
192,192,119240,1,0,0:0:0:0:
320,192,119702,1,0,0:0:0:0:
64,192,120011,1,4,3:0:0:0:
448,192,120319,1,0,0:0:0:0:
64,192,120627,1,8,2:0:0:0:
192,192,120935,1,0,0:0:0:0:
448,192,121244,1,4,3:0:0:0:
320,192,121860,1,8,2:0:0:0:
192,192,122477,1,4,3:0:0:0:
64,192,123094,1,8,2:0:0:0:
320,192,123710,1,4,1:0:0:0:
448,192,123710,1,4,3:0:0:0:
192,192,124173,1,0,0:0:0:0:
448,192,124635,1,0,0:0:0:0:
64,192,124944,1,4,3:0:0:0:
320,192,125252,1,0,0:0:0:0:
64,192,125560,1,8,2:0:0:0:
448,192,125869,1,0,0:0:0:0:
192,192,126177,1,4,3:0:0:0:
64,192,126639,1,0,0:0:0:0:
320,192,127102,1,0,0:0:0:0:
448,192,127410,1,4,3:0:0:0:
192,192,127719,1,0,0:0:0:0:
448,192,128027,1,8,2:0:0:0:
320,192,128335,1,0,0:0:0:0:
64,192,128644,1,4,3:0:0:0:
192,192,129106,1,0,0:0:0:0:
448,192,129569,1,0,0:0:0:0:
64,192,129877,1,4,3:0:0:0:
320,192,130185,1,0,0:0:0:0:
64,192,130494,1,8,2:0:0:0:
448,192,130802,1,0,0:0:0:0:
192,192,131110,1,4,3:0:0:0:
320,192,131727,1,8,2:0:0:0:
448,192,132344,1,4,3:0:0:0:
64,192,132960,1,8,2:0:0:0:
320,192,133577,1,0,0:0:0:0:
192,192,134039,1,0,0:0:0:0:
64,192,134502,1,0,0:0:0:0:
448,192,134810,1,0,0:0:0:0:
320,192,135118,1,0,0:0:0:0:
64,192,135427,1,0,1:0:0:0:
448,192,136043,1,4,1:0:0:0:
320,192,136043,1,4,3:0:0:0:
192,192,136506,1,0,0:0:0:0:
320,192,136968,1,0,0:0:0:0:
64,192,137277,1,4,3:0:0:0:
448,192,137585,1,0,0:0:0:0:
64,192,137893,1,8,2:0:0:0:
192,192,138202,1,0,0:0:0:0:
448,192,138510,1,4,3:0:0:0:
320,192,138972,1,0,0:0:0:0:
64,192,139435,1,0,0:0:0:0:
192,192,139743,1,4,3:0:0:0:
448,192,140052,1,0,0:0:0:0:
192,192,140360,1,8,2:0:0:0:
320,192,140668,1,0,0:0:0:0:
64,192,140977,1,4,3:0:0:0:
192,192,141593,1,8,2:0:0:0:
320,192,142210,1,4,3:0:0:0:
448,192,142827,1,8,2:0:0:0:
320,192,143443,1,4,1:0:0:0:
64,192,143443,1,4,3:0:0:0:
192,192,143906,1,0,0:0:0:0:
64,192,144368,1,0,0:0:0:0:
448,192,144676,1,4,3:0:0:0:
320,192,144985,1,0,0:0:0:0:
448,192,145293,1,8,2:0:0:0:
192,192,145601,1,0,0:0:0:0:
64,192,145910,1,4,3:0:0:0:
320,192,146372,1,0,0:0:0:0:
192,192,146835,1,0,0:0:0:0:
64,192,147143,1,4,3:0:0:0:
320,192,147451,1,0,0:0:0:0:
64,192,147760,1,8,2:0:0:0:
448,192,148068,1,0,0:0:0:0:
192,192,148376,1,4,3:0:0:0:
320,192,148839,1,0,0:0:0:0:
64,192,149301,1,0,0:0:0:0:
448,192,149610,1,4,3:0:0:0:
192,192,149918,1,0,0:0:0:0:
448,192,150226,1,8,2:0:0:0:
320,192,150535,1,0,0:0:0:0:
192,192,150843,1,4,3:0:0:0:
448,192,151460,1,8,2:0:0:0:
64,192,152076,1,4,3:0:0:0:
320,192,152693,1,8,2:0:0:0:
