osu file format v14

[General]
AudioFilename: audio.mp3
AudioLeadIn: 0
PreviewTime: 136006
Countdown: 1
SampleSet: Normal
StackLeniency: 0.8
Mode: 0
LetterboxInBreaks: 0
WidescreenStoryboard: 0

[Editor]
DistanceSpacing: 0.7
BeatDivisor: 8
GridSize: 8
TimelineZoom: 1

[Metadata]
Title:Alone
TitleUnicode:Alone
Artist:Alan Walker
ArtistUnicode:Alan Walker
Creator:Albatross
Version:You are not alone!
Source:
Tags:alan walker alone ncs edm
BeatmapID:1248601
BeatmapSetID:589908

[Difficulty]
HPDrainRate:7
CircleSize:4.2
OverallDifficulty:8
ApproachRate:9.2
SliderMultiplier:1.9
SliderTickRate:1

[Events]
//Background and Video events
0,0,"alan walker alone_osu.jpg",0,0
//Break Periods
2,86722,95200
//Storyboard Layer 0 (Background)
//Storyboard Layer 1 (Fail)
//Storyboard Layer 2 (Pass)
//Storyboard Layer 3 (Foreground)
//Storyboard Sound Samples

[TimingPoints]
4872.84549647314,618.556701030928,4,1,0,100,1,0
34563,-133.333333333333,4,1,0,100,0,0
44460,-58.8235294117647,4,1,0,100,0,1
64254,-166.666666666667,4,1,0,100,0,0
66728,-100,4,1,0,100,0,0
106303,-133.333333333333,4,1,0,100,0,0
116213,-58.8235294117647,4,1,0,100,0,1
136006,-200,4,1,0,100,0,0
138481,-58.8235294117647,4,1,0,100,0,1
155800,-200,4,1,0,100,0,0

[HitObjects]
109,168,4872,6,0,P|221:112|299:115,1,190
431,183,6109,2,0,P|359:277|277:303,1,190
98,112,7347,2,0,P|232:62|315:75,1,190
428,156,8584,1,0,0:0:0:0:
325,282,9202,1,0,0:0:0:0:
187,293,9821,6,0,P|158:165|200:86,3,190
247,172,11986,1,0,0:0:0:0:
257,247,12295,2,0,P|374:184|399:129,3,190
276,73,14460,1,0,0:0:0:0:
149,76,14769,6,0,P|190:162|293:221,1,190
350,171,16006,2,0,P|365:293|298:353,1,190
126,325,17243,6,0,P|174:234|275:201,1,190
378,237,18481,2,0,P|357:146|291:80,1,190
481,303,19718,6,0,P|397:343|305:318,3,190
189,239,21883,1,0,0:0:0:0:
256,192,22192,12,0,23429,0:0:0:0:
115,107,24048,5,0,0:0:0:0:
317,285,24254,1,0,0:0:0:0:
451,131,24460,1,0,0:0:0:0:
370,322,24666,6,0,L|300:257,1,95
141,90,25285,1,0,0:0:0:0:
47,234,25594,1,0,0:0:0:0:
215,330,25903,2,0,L|304:298,1,95
433,192,26522,1,0,0:0:0:0:
357,77,26831,1,0,0:0:0:0:
232,195,27140,6,0,L|125:131,1,95
55,85,27759,1,0,0:0:0:0:
222,49,27914,1,0,0:0:0:0:
138,208,28068,1,0,0:0:0:0:
243,328,28223,1,0,0:0:0:0:
420,315,28378,6,0,P|390:266|332:236,1,95
203,38,28996,1,0,0:0:0:0:
118,77,29151,2,0,P|77:97|72:133,1,47.5
43,201,29460,1,0,0:0:0:0:
66,323,29615,6,0,P|158:341|192:330,1,95
367,282,30233,2,0,P|421:213|423:163,1,95
398,58,30852,2,0,P|319:60|301:69,1,95
334,141,31470,2,0,P|280:153|237:124,1,95
360,305,32089,5,0,0:0:0:0:
219,345,32398,1,0,0:0:0:0:
133,276,32707,1,0,0:0:0:0:
234,186,33017,1,0,0:0:0:0:
163,106,33326,2,0,P|213:85|268:95,1,95
358,132,33945,1,0,0:0:0:0:
430,143,34099,1,0,0:0:0:0:
418,178,34176,1,0,0:0:0:0:
405,214,34254,1,0,0:0:0:0:
134,330,34563,6,0,L|213:330,1,71.2500027179719
378,228,35182,2,0,L|299:228,1,71.2500027179719
144,113,35800,2,0,L|228:113,1,71.2500027179719
332,31,36419,2,0,L|253:32,1,71.2500027179719
92,147,37037,6,0,P|130:179|170:179,1,71.2500027179719
218,149,37656,2,0,P|179:116|140:117,1,71.2500027179719
154,190,38274,2,0,P|192:222|232:222,1,71.2500027179719
276,186,38893,2,0,P|237:153|198:153,1,71.2500027179719
289,90,39512,5,0,0:0:0:0:
174,230,39821,1,0,0:0:0:0:
310,144,40129,1,0,0:0:0:0:
145,177,40439,1,0,0:0:0:0:
346,236,40749,5,0,0:0:0:0:
239,104,41057,1,0,0:0:0:0:
161,257,41367,1,0,0:0:0:0:
371,132,41676,1,0,0:0:0:0:
180,99,41986,5,0,0:0:0:0:
159,250,42295,2,0,L|120:290,1,35.625001358986
241,251,42759,2,0,L|282:295,1,35.625001358986
373,265,43223,6,0,L|344:225,1,35.625001358986
359,100,43532,2,0,L|296:92,1,35.625001358986
131,64,43841,1,0,0:0:0:0:
234,214,43996,1,0,0:0:0:0:
73,151,44151,1,0,0:0:0:0:
120,272,44305,1,0,0:0:0:0:
417,104,44460,6,0,P|386:78|335:71,1,80.750001540184
255,140,44769,1,0,0:0:0:0:
121,62,44924,1,0,0:0:0:0:
93,96,45001,1,0,0:0:0:0:
96,136,45079,2,0,P|128:167|151:202,1,80.750001540184
185,316,45388,2,0,L|262:289,1,80.750001540184
162,49,45697,6,0,L|213:132,1,80.750001540184
123,275,46006,1,0,0:0:0:0:
231,194,46161,1,0,0:0:0:0:
387,298,46316,2,0,L|357:215,1,80.750001540184
437,122,46625,1,0,0:0:0:0:
289,293,46780,1,0,0:0:0:0:
158,319,46934,6,0,L|98:263,1,80.750001540184
60,69,47243,1,0,0:0:0:0:
144,177,47398,1,0,0:0:0:0:
212,62,47553,2,0,L|294:101,1,80.750001540184
449,125,47862,2,0,L|381:182,1,80.750001540184
291,135,48171,5,0,0:0:0:0:
265,244,48326,1,0,0:0:0:0:
171,152,48481,1,0,0:0:0:0:
162,274,48713,1,0,0:0:0:0:
80,71,48945,1,0,0:0:0:0:
237,58,49099,2,0,P|282:51|324:50,1,80.750001540184
423,95,49408,6,0,P|447:156|444:178,1,80.750001540184
360,271,49718,1,0,0:0:0:0:
145,171,49872,1,0,0:0:0:0:
212,84,50027,2,0,P|253:75|292:81,1,80.750001540184
380,176,50336,1,0,0:0:0:0:
350,274,50491,1,0,0:0:0:0:
195,280,50646,6,0,L|118:242,1,80.750001540184
97,217,50878,1,0,0:0:0:0:
84,183,50955,2,0,L|119:95,1,80.750001540184
207,37,51264,1,0,0:0:0:0:
253,152,51419,1,0,0:0:0:0:
331,53,51573,2,0,L|370:123,1,80.750001540184
413,303,51883,6,0,P|370:310|320:293,1,80.750001540184
171,255,52192,1,0,0:0:0:0:
110,81,52347,2,0,P|150:71|190:79,1,80.750001540184
351,90,52656,1,0,0:0:0:0:
407,195,52810,2,0,P|343:209|324:210,1,80.750001540184
178,267,53120,2,0,L|136:198,1,80.750001540184
131,161,53352,1,0,0:0:0:0:
141,126,53429,2,0,P|185:118|235:126,1,80.750001540184
361,72,53738,1,0,0:0:0:0:
274,213,53893,1,0,0:0:0:0:
315,336,54048,2,0,P|363:301|369:267,1,80.750001540184
463,154,54357,6,0,P|399:144|299:167,1,161.500003080368
233,52,54821,1,0,0:0:0:0:
201,71,54899,1,0,0:0:0:0:
182,101,54975,2,0,P|158:144|158:178,1,80.750001540184
264,278,55285,2,0,P|282:243|283:189,1,80.750001540184
388,55,55594,6,0,P|348:68|314:103,1,80.750001540184
110,260,55903,2,0,L|245:196,1,80.750001540184
417,129,56213,2,0,P|404:197|381:216,1,80.750001540184
293,119,56522,1,0,0:0:0:0:
425,278,56677,1,0,0:0:0:0:
274,325,56831,6,0,P|230:324|187:295,1,80.750001540184
93,115,57140,1,0,0:0:0:0:
133,214,57295,1,0,0:0:0:0:
208,88,57450,2,0,P|248:94|290:127,1,80.750001540184
419,194,57759,2,0,P|384:217|330:204,1,80.750001540184
218,217,58068,5,0,0:0:0:0:
112,304,58223,1,0,0:0:0:0:
104,168,58378,1,0,0:0:0:0:
232,55,58532,1,0,0:0:0:0:
250,76,58610,1,0,0:0:0:0:
267,98,58687,2,0,P|289:139|320:162,1,80.750001540184
444,313,58996,2,0,P|409:335|364:336,1,80.750001540184
136,298,59305,6,0,P|112:237|115:215,1,80.750001540184
72,112,59615,1,0,0:0:0:0:
224,216,59769,1,0,0:0:0:0:
192,104,59924,2,0,P|241:101|272:110,1,80.750001540184
438,108,60233,2,0,P|426:159|399:184,1,80.750001540184
294,327,60543,6,0,P|254:329|206:302,1,80.750001540184
81,322,60852,2,0,P|66:294|65:235,1,80.750001540184
157,164,61161,2,0,P|107:140|87:114,1,80.750001540184
222,38,61470,2,0,P|250:70|243:121,1,80.750001540184
130,312,61780,6,0,P|176:323|222:307,1,80.750001540184
385,261,62089,1,0,0:0:0:0:
372,97,62244,2,0,P|333:90|294:99,1,80.750001540184
155,64,62553,1,0,0:0:0:0:
88,200,62707,2,0,P|130:207|172:206,1,80.750001540184
424,307,63017,2,0,P|445:270|433:227,1,80.750001540184
391,103,63326,2,0,P|354:82|297:103,1,80.750001540184
259,207,63635,2,0,P|210:155|187:142,1,80.750001540184
75,216,63945,2,0,P|106:246|152:255,1,80.750001540184,0|0,0:0|0:0,0:3:0:0:
367,271,64254,6,0,P|394:238|405:197,1,85.4999973907472
359,69,65182,1,0,0:0:0:0:
277,164,65491,2,0,L|244:197,3,28.4999991302491
193,293,66109,2,0,P|147:271|133:251,1,56.9999982604981
47,168,66728,6,0,P|69:119|111:79,1,95,0|0,0:0|3:0,0:0:0:0:
216,155,67347,1,0,0:0:0:0:
367,123,67656,1,0,0:0:0:0:
460,281,67965,2,0,P|419:291|354:274,1,95
205,231,68584,1,0,0:0:0:0:
158,115,68893,1,0,0:0:0:0:
335,69,69202,6,0,P|374:109|376:160,1,95
418,262,69821,2,0,P|354:292|298:302,1,95
246,215,70439,1,0,0:0:0:0:
132,146,70749,1,0,0:0:0:0:
260,73,71058,2,0,P|315:72|370:87,1,95
333,266,71676,5,0,0:0:0:0:
227,156,71986,1,0,0:0:0:0:
140,304,72295,1,0,0:0:0:0:
237,247,72604,1,0,0:0:0:0:
331,123,72914,5,0,0:0:0:0:
192,71,73223,1,0,0:0:0:0:
238,179,73532,1,0,0:0:0:0:
85,141,73841,1,0,0:0:0:0:
123,279,74151,5,0,0:0:0:0:
255,152,74460,1,0,0:0:0:0:
280,304,74769,1,0,0:0:0:0:
388,200,75079,1,0,0:0:0:0:
283,76,75388,5,0,0:0:0:0:
206,268,75697,1,0,0:0:0:0:
134,90,76006,1,0,0:0:0:0:
295,183,76316,1,0,0:0:0:0:
85,313,76625,6,0,P|135:329|176:310,1,95
365,210,77243,1,0,0:0:0:0:
290,340,77553,1,0,0:0:0:0:
475,165,77862,6,0,P|435:146|386:166,1,95
416,270,78481,1,0,0:0:0:0:
219,162,78790,1,0,0:0:0:0:
113,72,79099,6,0,P|68:141|76:176,1,95
210,304,79718,1,0,0:0:0:0:
76,225,80027,1,0,0:0:0:0:
282,230,80336,6,0,P|329:198|334:159,1,95
422,49,80955,1,0,0:0:0:0:
233,104,81264,1,0,0:0:0:0:
136,54,81573,6,0,P|93:87|97:140,1,95
191,180,82192,2,0,P|270:188|300:176,1,95
375,227,82810,1,0,0:0:0:0:
444,141,83120,1,0,0:0:0:0:
314,54,83429,2,0,P|268:77|246:121,1,95
307,201,84048,5,0,0:0:0:0:
181,246,84357,1,0,0:0:0:0:
76,254,84666,2,0,P|84:205|123:165,1,95
304,137,85285,5,0,0:0:0:0:
216,64,85594,1,0,0:0:0:0:
208,165,85903,2,0,P|230:215|275:232,1,95
410,249,86367,1,0,0:0:0:0:
357,127,86522,1,0,0:0:0:0:
378,110,95800,5,0,0:0:0:0:
241,266,96006,1,0,0:0:0:0:
115,113,96213,1,0,0:0:0:0:
395,242,96419,6,0,P|383:187|345:151,1,95
276,67,97038,1,0,0:0:0:0:
161,133,97347,1,0,0:0:0:0:
143,241,97656,2,0,P|193:261|240:262,1,95
417,201,98275,1,0,0:0:0:0:
300,106,98584,1,0,0:0:0:0:
91,71,98893,6,0,L|114:173,1,95
181,313,99512,1,0,0:0:0:0:
239,202,99821,1,0,0:0:0:0:
371,98,100131,6,0,P|324:66|259:62,1,95
112,50,100749,1,0,0:0:0:0:
58,124,100904,2,0,P|47:159|53:183,1,47.5
77,258,101213,1,0,0:0:0:0:
216,345,101368,6,0,P|265:335|312:307,1,95
263,249,101986,1,0,0:0:0:0:
369,209,102141,2,0,L|333:178,1,47.5
210,135,102450,1,0,0:0:0:0:
206,45,102605,2,0,P|166:41|109:56,1,95
183,156,103223,2,0,P|137:185|126:236,1,95
392,299,103842,5,0,0:0:0:0:
314,218,104151,1,0,0:0:0:0:
228,306,104460,1,0,0:0:0:0:
80,231,104769,1,0,0:0:0:0:
203,157,105079,2,0,P|249:146|296:152,1,95
308,264,105698,1,0,0:0:0:0:
432,229,105852,1,0,0:0:0:0:
434,205,105929,1,0,0:0:0:0:
437,181,106007,1,0,0:0:0:0:
350,60,106316,6,0,L|279:72,1,71.2500027179719
138,109,106935,2,0,L|209:142,1,71.2500027179719
336,175,107553,2,0,L|269:222,1,71.2500027179719
166,265,108172,2,0,L|228:305,1,71.2500027179719
329,198,108790,6,0,P|373:210|427:204,1,71.2500027179719
379,133,109408,2,0,P|347:118|309:121,1,71.2500027179719
248,181,110027,2,0,P|282:191|318:193,1,71.2500027179719
296,119,110646,2,0,P|259:102|226:107,1,71.2500027179719
168,98,111265,5,0,0:0:0:0:
103,213,111574,1,0,0:0:0:0:
228,184,111882,1,0,0:0:0:0:
94,105,112192,1,0,0:0:0:0:
192,287,112502,5,0,0:0:0:0:
276,148,112810,1,0,0:0:0:0:
358,297,113120,1,0,0:0:0:0:
256,229,113429,1,0,0:0:0:0:
238,66,113739,5,0,0:0:0:0:
93,124,114048,2,0,P|104:143|136:147,1,35.625001358986
163,275,114512,1,0,0:0:0:0:
238,164,114667,1,0,0:0:0:0:
411,280,114976,6,0,L|367:281,1,35.625001358986
233,293,115285,2,0,L|255:252,1,35.625001358986
130,131,115594,1,0,0:0:0:0:
228,234,115749,1,0,0:0:0:0:
89,203,115904,1,0,0:0:0:0:
141,319,116058,1,0,0:0:0:0:
435,131,116213,6,0,L|359:74,1,80.750001540184
222,79,116522,1,0,0:0:0:0:
329,204,116676,1,0,0:0:0:0:
154,255,116831,2,0,L|199:183,1,80.750001540184
206,55,117140,2,0,L|299:85,1,80.750001540184
398,148,117450,5,0,0:0:0:0:
269,273,117604,1,0,0:0:0:0:
181,102,117759,1,0,0:0:0:0:
375,248,117914,1,0,0:0:0:0:
228,178,118068,2,0,L|151:201,1,80.750001540184
97,105,118378,1,0,0:0:0:0:
21,227,118532,1,0,0:0:0:0:
171,287,118687,6,0,P|204:315|250:296,1,80.750001540184
404,248,118996,1,0,0:0:0:0:
382,99,119151,1,0,0:0:0:0:
343,86,119228,1,0,0:0:0:0:
304,74,119305,2,0,P|266:61|219:66,1,80.750001540184
69,99,119615,2,0,P|58:146|71:179,1,80.750001540184
387,73,119924,5,0,0:0:0:0:
194,208,120079,1,0,0:0:0:0:
363,177,120233,1,0,0:0:0:0:
199,52,120388,1,0,0:0:0:0:
357,291,120542,5,0,0:0:0:0:
277,100,120697,1,0,0:0:0:0:
218,275,120852,1,0,0:0:0:0:
397,118,121006,1,0,0:0:0:0:
184,93,121161,6,0,P|156:121|154:166,1,80.750001540184
305,196,121470,1,0,0:0:0:0:
224,302,121625,1,0,0:0:0:0:
188,297,121703,1,0,0:0:0:0:
149,292,121780,1,0,0:0:0:0:
95,177,121934,1,0,0:0:0:0:
228,205,122089,2,0,P|233:152|205:118,1,80.750001540184
102,58,122398,6,0,P|69:91|62:137,1,80.750001540184
173,196,122707,2,0,P|239:211|263:191,1,80.750001540184
355,287,123017,1,0,0:0:0:0:
442,193,123171,1,0,0:0:0:0:
378,88,123326,2,0,P|357:52|315:46,1,80.750001540184
79,58,123635,6,0,P|98:91|142:104,1,80.750001540184,0|0,0:0|0:3,0:3:0:0:
279,127,123945,1,0,0:0:0:0:
196,155,124099,1,0,0:0:0:0:
95,186,124254,6,0,P|117:223|151:248,1,80.750001540184
330,245,124563,1,0,0:0:0:0:
248,294,124718,1,0,0:0:0:0:
450,108,124872,6,0,P|419:68|382:54,1,80.750001540184
360,130,125182,2,0,P|315:121|286:100,1,80.750001540184
147,61,125491,2,0,P|143:111|159:147,1,80.750001540184
262,202,125800,2,0,P|305:206|353:188,1,80.750001540184
472,299,126109,6,0,P|432:311|391:311,1,80.750001540184
286,151,126419,1,0,0:0:0:0:
122,251,126573,1,0,0:0:0:0:
280,302,126728,6,0,P|319:289|358:250,1,80.750001540184
447,86,127037,1,0,0:0:0:0:
341,134,127192,1,0,0:0:0:0:
189,73,127347,5,0,0:0:0:0:
137,266,127501,1,0,0:0:0:0:
266,202,127656,1,0,0:0:0:0:
130,126,127810,1,0,0:0:0:0:
122,134,127888,1,0,0:0:0:0:
115,144,127965,1,0,0:0:0:0:
282,140,128120,1,0,0:0:0:0:
132,42,128274,1,0,0:0:0:0:
230,193,128429,1,0,0:0:0:0:
438,73,128584,6,0,P|392:68|341:86,1,80.750001540184
239,139,128893,1,0,0:0:0:0:
67,175,129048,1,0,0:0:0:0:
82,212,129125,1,0,0:0:0:0:
97,248,129202,1,0,0:0:0:0:
248,201,129357,1,0,0:0:0:0:
381,302,129512,2,0,P|408:268|398:224,1,80.750001540184
350,93,129821,5,0,0:0:0:0:
269,225,129975,1,0,0:0:0:0:
370,197,130130,1,0,0:0:0:0:
184,85,130285,1,0,0:0:0:0:
84,239,130439,6,0,P|179:245|249:198,1,161.500003080368
295,116,130903,1,0,0:0:0:0:
176,53,131058,6,0,P|125:75|106:114,1,80.750001540184
134,242,131367,1,0,0:0:0:0:
200,156,131522,1,0,0:0:0:0:
293,273,131676,6,0,P|341:250|348:214,1,80.750001540184
427,90,131986,1,0,0:0:0:0:
288,129,132140,1,0,0:0:0:0:
139,83,132295,5,0,0:0:0:0:
175,247,132450,1,0,0:0:0:0:
238,133,132604,1,0,0:0:0:0:
79,187,132759,1,0,0:0:0:0:
297,220,132914,5,0,0:0:0:0:
214,73,133068,1,0,0:0:0:0:
183,192,133223,1,0,0:0:0:0:
336,77,133378,1,0,0:0:0:0:
61,179,133532,6,0,P|89:150|126:135,1,80.750001540184
366,144,133841,1,0,0:0:0:0:
227,58,133996,1,0,0:0:0:0:
158,282,134151,6,0,P|198:284|235:263,1,80.750001540184
325,126,134460,1,0,0:0:0:0:
418,220,134615,1,0,0:0:0:0:
395,318,134769,6,0,L|317:292,1,80.750001540184
187,252,135079,2,0,L|259:202,1,80.750001540184
391,163,135388,1,0,0:0:0:0:
274,49,135542,1,0,0:0:0:0:
221,240,135697,1,0,0:0:0:0:
268,116,135852,1,0,0:0:0:0:
455,226,136006,6,0,P|425:207|391:212,1,71.25
347,296,136934,1,0,0:0:0:0:
282,254,137243,2,0,L|291:232,1,23.75
237,172,137553,2,0,L|261:147,1,23.75
365,155,137862,2,0,L|328:113,1,47.5
95,104,138481,6,0,P|126:78|177:71,1,80.750001540184
257,140,138790,1,0,0:0:0:0:
391,62,138945,1,0,0:0:0:0:
419,96,139022,1,0,0:0:0:0:
418,140,139100,1,0,0:0:0:0:
284,193,139254,1,0,0:0:0:0:
327,316,139409,2,0,L|250:289,1,80.750001540184
350,49,139718,6,0,L|299:132,1,80.750001540184
425,280,140027,2,0,L|348:249,1,80.750001540184
104,307,140337,1,0,0:0:0:0:
227,167,140491,1,0,0:0:0:0:
75,122,140646,1,0,0:0:0:0:
223,293,140801,1,0,0:0:0:0:
354,319,140955,6,0,L|414:263,1,80.750001540184
452,69,141264,1,0,0:0:0:0:
368,177,141419,1,0,0:0:0:0:
300,62,141574,2,0,L|218:101,1,80.750001540184
63,125,141883,2,0,L|131:182,1,80.750001540184
221,135,142192,5,0,0:0:0:0:
182,269,142347,1,0,0:0:0:0:
293,228,142502,1,0,0:0:0:0:
333,119,142656,1,0,0:0:0:0:
375,133,142734,1,0,0:0:0:0:
414,145,142811,1,0,0:0:0:0:
435,49,142966,1,0,0:0:0:0:
275,58,143120,2,0,P|230:51|188:50,1,80.750001540184
89,95,143429,6,0,P|65:156|68:178,1,80.750001540184
152,271,143739,1,0,0:0:0:0:
367,171,143893,1,0,0:0:0:0:
300,84,144048,2,0,P|259:75|220:81,1,80.750001540184
65,188,144357,1,0,0:0:0:0:
129,288,144512,1,0,0:0:0:0:
277,267,144667,6,0,L|354:229,1,80.750001540184
457,216,144976,2,0,L|415:139,1,80.750001540184
305,37,145285,1,0,0:0:0:0:
259,152,145440,1,0,0:0:0:0:
181,53,145594,2,0,L|142:123,1,80.750001540184
99,303,145904,6,0,P|142:310|192:293,1,80.750001540184
341,255,146213,1,0,0:0:0:0:
402,81,146368,2,0,P|362:71|322:79,1,80.750001540184
161,90,146677,1,0,0:0:0:0:
105,195,146831,2,0,P|169:209|188:210,1,80.750001540184
317,299,147141,2,0,L|359:230,1,80.750001540184
429,119,147450,2,0,P|385:111|335:119,1,80.750001540184
151,72,147759,1,0,0:0:0:0:
262,199,147914,1,0,0:0:0:0:
197,336,148069,2,0,P|149:301|143:267,1,80.750001540184
79,162,148378,6,0,P|110:136|161:129,1,80.750001540184
252,255,148687,1,0,0:0:0:0:
351,139,148842,1,0,0:0:0:0:
316,112,148919,1,0,0:0:0:0:
278,88,148997,1,0,0:0:0:0:
218,187,149151,1,0,0:0:0:0:
70,215,149306,2,0,P|69:174|95:140,1,80.750001540184
124,55,149615,6,0,P|164:68|198:103,1,80.750001540184
402,260,149924,2,0,L|267:196,1,80.750001540184
109,121,150234,1,0,0:0:0:0:
176,258,150388,1,0,0:0:0:0:
219,119,150543,1,0,0:0:0:0:
87,278,150698,1,0,0:0:0:0:
238,325,150852,6,0,P|282:324|325:295,1,80.750001540184
419,115,151161,1,0,0:0:0:0:
379,214,151316,1,0,0:0:0:0:
304,88,151471,2,0,P|264:94|222:127,1,80.750001540184
93,194,151780,2,0,P|128:217|182:204,1,80.750001540184
294,217,152089,5,0,0:0:0:0:
400,304,152244,1,0,0:0:0:0:
408,168,152399,1,0,0:0:0:0:
242,65,152553,1,0,0:0:0:0:
201,82,152631,1,0,0:0:0:0:
162,102,152708,1,0,0:0:0:0:
218,225,152863,1,0,0:0:0:0:
68,313,153017,2,0,P|103:335|148:336,1,80.750001540184
376,298,153326,6,0,P|400:237|397:215,1,80.750001540184
440,112,153636,1,0,0:0:0:0:
288,216,153790,1,0,0:0:0:0:
320,104,153945,2,0,P|271:101|240:110,1,80.750001540184
80,96,154254,1,0,0:0:0:0:
156,221,154409,1,0,0:0:0:0:
218,327,154564,6,0,P|258:329|306:302,1,80.750001540184
431,322,154873,2,0,P|446:294|447:235,1,80.750001540184
317,186,155182,1,0,0:0:0:0:
423,102,155337,5,0,0:0:0:0:
290,38,155491,2,0,P|262:70|269:121,1,80.750001540184
412,174,155800,6,0,L|375:162,4,23.75
286,272,156728,1,0,0:0:0:0:
226,112,157037,2,0,L|189:100,4,23.75
393,176,157965,1,0,0:0:0:0:
256,192,158120,12,0,161367,0:0:0:0:
