osu file format v14

[General]
AudioFilename: audio.mp3
AudioLeadIn: 0
PreviewTime: 19091
Countdown: 1
SampleSet: Normal
StackLeniency: 0.7
Mode: 0
LetterboxInBreaks: 0
WidescreenStoryboard: 1

[Editor]
Bookmarks: 4201,11649,19097,22820,26544,28406,29564,30268
DistanceSpacing: 1
BeatDivisor: 4
GridSize: 16
TimelineZoom: 0.8000001

[Metadata]
Title:Countdown Theme
TitleUnicode:Countdown Theme
Artist:Alan Hawkshaw
ArtistUnicode:Alan Hawkshaw
Creator:mindmaster107
Version:Hyper: Hyper
Source:Countdown
Tags:Mykaterasu Channel 4 bbc british theme song
BeatmapID:1895873
BeatmapSetID:908204

[Difficulty]
HPDrainRate:5
CircleSize:5
OverallDifficulty:7
ApproachRate:8
SliderMultiplier:1.5
SliderTickRate:1

[Events]
//Background and Video events
0,0,"large_61903-1521764006.jpg",0,0
//Break Periods
//Storyboard Layer 0 (Background)
//Storyboard Layer 1 (Fail)
//Storyboard Layer 2 (Pass)
//Storyboard Layer 3 (Foreground)
Sprite,Foreground,Centre,"sb\CDL\s.jpg",0,0 S,0,-1000,,0.7 M,0,30029,30262,560,55,80,55 M,0,30262,31981,80,55
Sprite,Foreground,Centre,"sb\CDL\t.jpg",0,0 S,0,-1000,,0.7 M,0,30029,30262,500,55,140,55 M,0,30262,31981,140,55
Sprite,Foreground,Centre,"sb\CDL\r.jpg",0,0 S,0,-1000,,0.7 M,0,30029,30262,320,55,200,55 M,0,30262,31981,200,55
Sprite,Foreground,Centre,"sb\CDL\e.jpg",0,0 S,0,-1000,,0.7 M,0,30029,30262,80,55,260,55 M,0,30262,31981,260,55
Sprite,Foreground,Centre,"sb\CDL\a.jpg",0,0 S,0,-1000,,0.7 M,0,30029,30262,380,55,320,55 M,0,30262,31981,320,55
Sprite,Foreground,Centre,"sb\CDL\m.jpg",0,0 S,0,-1000,,0.7 M,0,30029,30262,140,55,380,55 M,0,30262,31981,380,55
Sprite,Foreground,Centre,"sb\CDL\i.jpg",0,0 S,0,-1000,,0.7 M,0,30029,30262,200,55,440,55 M,0,30262,31981,440,55
Sprite,Foreground,Centre,"sb\CDL\n.jpg",0,0 S,0,-1000,,0.7 M,0,30029,30262,440,55,500,55 M,0,30262,31981,500,55
Sprite,Foreground,Centre,"sb\CDL\g.jpg",0,0 S,0,-1000,,0.7 M,0,30029,30262,260,55,560,55 M,0,30262,31981,560,55
//Storyboard Sound Samples

[TimingPoints]
515,465.477114041893,4,1,1,30,1,0
3307,-100,4,1,1,50,0,0
4238,-111.111111111111,4,1,2,40,0,0
4471,-111.111111111111,4,1,3,40,0,0
4587,-111.111111111111,4,1,1,40,0,0
4704,-111.111111111111,4,1,4,40,0,0
4819,-111.111111111111,4,1,1,40,0,0
5053,-111.111111111111,4,1,5,40,0,0
5169,-111.111111111111,4,1,1,40,0,0
5286,-111.111111111111,4,1,6,40,0,0
5401,-111.111111111111,4,1,1,40,0,0
5518,-111.111111111111,4,1,7,40,0,0
5751,-111.111111111111,4,1,2,40,0,0
5867,-111.111111111111,4,1,7,40,0,0
5984,-111.111111111111,4,1,6,40,0,0
6100,-125,4,1,8,40,0,0
6333,-125,4,1,3,40,0,0
6449,-125,4,1,1,40,0,0
6566,-125,4,1,4,40,0,0
6798,-125,4,1,1,40,0,0
6915,-125,4,1,5,40,0,0
7031,-125,4,1,1,40,0,0
7148,-125,4,1,6,40,0,0
7380,-125,4,1,7,40,0,0
7613,-125,4,1,2,40,0,0
7729,-125,4,1,7,40,0,0
7846,-125,4,1,6,40,0,0
7962,-111.111111111111,4,1,9,50,0,0
8195,-111.111111111111,4,1,3,50,0,0
8311,-111.111111111111,4,1,1,50,0,0
8428,-111.111111111111,4,1,4,50,0,0
8543,-111.111111111111,4,1,1,50,0,0
8777,-111.111111111111,4,1,5,50,0,0
8893,-111.111111111111,4,1,1,50,0,0
9009,-111.111111111111,4,1,6,50,0,0
9125,-111.111111111111,4,1,1,50,0,0
9242,-111.111111111111,4,1,7,50,0,0
9475,-111.111111111111,4,1,2,50,0,0
9591,-111.111111111111,4,1,7,50,0,0
9708,-111.111111111111,4,1,6,50,0,0
9824,-125,4,1,10,50,0,0
10057,-125,4,1,3,50,0,0
10173,-125,4,1,1,50,0,0
10290,-125,4,1,4,50,0,0
10406,-125,4,1,1,50,0,0
10639,-125,4,1,5,50,0,0
10755,-111.111111111111,4,1,1,40,0,0
10871,-111.111111111111,4,1,6,40,0,0
10988,-111.111111111111,4,1,1,40,0,0
11104,-111.111111111111,4,1,7,40,0,0
11220,-105.263157894737,4,1,1,50,0,0
11337,-105.263157894737,4,1,2,50,0,0
11453,-105.263157894737,4,1,7,50,0,0
11570,-105.263157894737,4,1,6,50,0,0
11686,-100,4,1,11,60,0,0
11802,-100,4,1,2,60,0,0
11919,-100,4,1,12,60,0,0
12035,-100,4,1,1,60,0,0
12151,-100,4,1,13,60,0,0
12268,-100,4,1,14,60,0,0
12384,-100,4,1,1,60,0,0
12501,-100,4,1,15,60,0,0
12617,-100,4,1,1,60,0,0
12733,-100,4,1,16,60,0,0
12849,-100,4,1,1,60,0,0
12966,-100,4,1,17,60,0,0
13082,-100,4,1,1,60,0,0
13199,-100,4,1,11,60,0,0
13315,-100,4,1,17,60,0,0
13431,-100,4,1,6,60,0,0
13548,-111.111111111111,4,1,18,50,0,0
13664,-111.111111111111,4,1,8,50,0,0
13781,-111.111111111111,4,1,19,50,0,0
13897,-111.111111111111,4,1,1,50,0,0
14013,-111.111111111111,4,1,20,50,0,0
14130,-111.111111111111,4,1,21,50,0,0
14246,-111.111111111111,4,1,1,50,0,0
14362,-111.111111111111,4,1,22,50,0,0
14479,-111.111111111111,4,1,1,50,0,0
14595,-111.111111111111,4,1,23,50,0,0
14711,-111.111111111111,4,1,1,50,0,0
14828,-111.111111111111,4,1,24,50,0,0
14944,-111.111111111111,4,1,1,50,0,0
15061,-111.111111111111,4,1,25,50,0,0
15177,-111.111111111111,4,1,24,50,0,0
15293,-111.111111111111,4,1,6,50,0,0
15410,-100,4,1,26,60,0,0
15526,-100,4,1,9,60,0,0
15643,-100,4,1,27,60,0,0
15759,-100,4,1,1,60,0,0
15875,-100,4,1,28,60,0,0
15992,-100,4,1,29,60,0,0
16108,-100,4,1,1,60,0,0
16224,-100,4,1,30,60,0,0
16341,-100,4,1,1,60,0,0
16457,-100,4,1,31,60,0,0
16573,-100,4,1,1,60,0,0
16690,-100,4,1,32,60,0,0
16806,-100,4,1,1,60,0,0
16923,-100,4,1,33,60,0,0
17039,-100,4,1,32,60,0,0
17155,-100,4,1,6,60,0,0
17272,-111.111111111111,4,1,34,50,0,0
17388,-111.111111111111,4,1,10,50,0,0
17504,-111.111111111111,4,1,35,50,0,0
17621,-111.111111111111,4,1,1,50,0,0
17737,-111.111111111111,4,1,36,50,0,0
17854,-111.111111111111,4,1,37,50,0,0
17970,-111.111111111111,4,1,1,50,0,0
18086,-111.111111111111,4,1,22,50,0,0
18203,-111.111111111111,4,1,1,50,0,0
18319,-111.111111111111,4,1,23,50,0,0
18435,-111.111111111111,4,1,1,50,0,0
18552,-111.111111111111,4,1,24,50,0,0
18668,-111.111111111111,4,1,1,50,0,0
18784,-111.111111111111,4,1,25,50,0,0
18901,-111.111111111111,4,1,24,50,0,0
19017,-111.111111111111,4,1,6,50,0,0
19134,-90.9090909090909,4,1,38,70,0,0
19250,-90.9090909090909,4,1,3,70,0,0
19366,-90.9090909090909,4,1,39,70,0,0
19483,-90.9090909090909,4,1,1,70,0,0
19599,-90.9090909090909,4,1,40,70,0,0
19715,-90.9090909090909,4,1,41,70,0,0
19832,-90.9090909090909,4,1,1,70,0,0
19948,-90.9090909090909,4,1,42,70,0,0
20065,-90.9090909090909,4,1,1,70,0,0
20181,-90.9090909090909,4,1,43,70,0,0
20297,-90.9090909090909,4,1,1,70,0,0
20414,-90.9090909090909,4,1,44,70,0,0
20530,-90.9090909090909,4,1,1,70,0,0
20646,-90.9090909090909,4,1,38,70,0,0
20763,-90.9090909090909,4,1,44,70,0,0
20879,-90.9090909090909,4,1,45,70,0,0
20995,-90.9090909090909,4,1,46,70,0,0
21112,-90.9090909090909,4,1,47,70,0,0
21228,-90.9090909090909,4,1,48,70,0,0
21345,-90.9090909090909,4,1,1,70,0,0
21461,-90.9090909090909,4,1,49,70,0,0
21577,-90.9090909090909,4,1,50,70,0,0
21694,-90.9090909090909,4,1,1,70,0,0
21810,-90.9090909090909,4,1,51,70,0,0
21926,-90.9090909090909,4,1,1,70,0,0
22043,-90.9090909090909,4,1,52,70,0,0
22158,-90.9090909090909,4,1,1,70,0,0
22276,-90.9090909090909,4,1,53,70,0,0
22392,-90.9090909090909,4,1,1,70,0,0
22508,-90.9090909090909,4,1,54,70,0,0
22625,-90.9090909090909,4,1,53,70,0,0
22741,-90.9090909090909,4,1,45,70,0,0
22857,-125,4,1,55,40,0,0
22974,-125,4,1,56,40,0,0
23090,-125,4,1,57,40,0,0
23206,-125,4,1,1,40,0,0
23323,-125,4,1,58,40,0,0
23439,-125,4,1,59,40,0,0
23555,-125,4,1,1,40,0,0
23672,-125,4,1,60,40,0,0
23788,-125,4,1,1,40,0,0
23905,-125,4,1,61,40,0,0
24021,-125,4,1,1,40,0,0
24137,-125,4,1,62,40,0,0
24254,-125,4,1,1,40,0,0
24370,-125,4,1,63,40,0,0
24487,-125,4,1,62,40,0,0
24603,-125,4,1,45,40,0,0
24719,-125,4,1,64,40,0,0
24836,-125,4,1,65,40,0,0
24952,-125,4,1,66,40,0,0
25068,-125,4,1,1,40,0,0
25185,-125,4,1,67,40,0,0
25301,-125,4,1,68,40,0,0
25417,-125,4,1,1,40,0,0
25534,-125,4,1,51,40,0,0
25650,-100,4,1,1,60,0,0
25767,-100,4,1,52,60,0,0
25883,-100,4,1,1,60,0,0
25999,-100,4,1,53,60,0,0
26116,-100,4,1,1,60,0,0
26232,-100,4,1,54,60,0,0
26348,-100,4,1,53,60,0,0
26465,-100,4,1,45,60,0,0
26581,-83.3333333333333,4,1,38,80,0,1
26698,-83.3333333333333,4,1,3,80,0,1
26814,-83.3333333333333,4,1,39,80,0,1
26930,-83.3333333333333,4,1,1,80,0,1
27047,-83.3333333333333,4,1,40,80,0,1
27163,-83.3333333333333,4,1,41,80,0,1
27279,-83.3333333333333,4,1,1,80,0,1
27396,-83.3333333333333,4,1,42,80,0,1
27512,-83.3333333333333,4,1,1,80,0,1
27629,-83.3333333333333,4,1,43,80,0,1
27744,-83.3333333333333,4,1,1,80,0,1
27861,-83.3333333333333,4,1,44,80,0,1
27978,-83.3333333333333,4,1,1,80,0,1
28094,-83.3333333333333,4,1,38,80,0,1
28210,-83.3333333333333,4,1,44,80,0,1
28327,-83.3333333333333,4,1,45,80,0,1
28443,-83.3333333333333,4,1,46,80,0,1
28559,-83.3333333333333,4,1,47,80,0,1
28676,-83.3333333333333,4,1,48,80,0,1
28909,-83.3333333333333,4,1,49,80,0,1
29025,-83.3333333333333,4,1,50,80,0,1
29258,-83.3333333333333,4,1,51,80,0,1
29374,-83.3333333333333,4,1,1,80,0,1
29490,-83.3333333333333,4,1,52,80,0,1
29607,-83.3333333333333,4,1,1,80,0,1
29723,-83.3333333333333,4,1,53,80,0,1
29956,-83.3333333333333,4,1,54,80,0,1
30072,-142.857142857143,4,1,53,40,0,0
30189,-142.857142857143,4,1,45,40,0,0
30537,-142.857142857143,4,1,1,5,0,0
30538,-142.857142857143,4,1,1,5,0,0

[HitObjects]
256,192,515,12,2,2842,1:2:0:0:
92,65,3307,5,8,1:3:0:0:
92,65,3424,1,8,1:3:0:0:
4,104,3656,5,8,1:3:0:0:
25,134,3773,1,10,1:3:0:0:
56,155,3889,1,8,1:3:0:0:
92,162,4006,2,0,L|144:157,1,37.5,4|4,1:3|1:3,0:0:0:0:
180,106,4238,6,0,P|219:139|274:148,2,101.249996910095,6|2|2,1:2|1:2|1:2,0:0:0:0:
258,58,5169,2,0,P|297:24|352:15,2,101.249996910095,2|2|2,1:2|1:2|1:2,0:0:0:0:
337,107,6100,2,0,L|449:116,2,90,2|2|2,1:2|1:2|1:2,0:0:0:0:
388,197,7031,2,0,L|500:188,2,90,2|2|2,1:2|1:2|1:2,0:0:0:0:
293,195,7962,6,0,P|259:234|250:289,2,101.249996910095,2|2|2,1:2|1:2|1:2,0:0:0:0:
341,273,8893,2,0,P|374:312|383:367,2,101.249996910095,2|2|2,1:2|1:2|1:2,0:0:0:0:
298,350,9824,2,0,L|186:359,2,90,2|2|0,1:2|1:2|1:0,0:0:0:0:
218,265,10755,2,0,L|132:258,1,67.4999979400635,2|2,1:2|1:2,0:0:0:0:
104,362,11220,2,0,L|32:367,1,71.2499980974198,2|2,1:2|1:2,0:0:0:0:
0,261,11686,6,0,P|28:237|49:205,1,75,6|0,1:2|1:0,0:0:0:0:
20,167,12035,2,0,P|74:153|117:118,1,112.5,2|2,1:2|1:2,0:0:0:0:
87,23,12617,6,0,L|189:29,1,75,2|0,1:2|1:0,0:0:0:0:
198,52,12966,2,0,L|338:43,1,112.5,2|2,1:2|1:2,0:0:0:0:
411,72,13548,6,0,P|385:143|392:193,2,101.249996910095,2|2|2,1:2|1:2|1:2,0:0:0:0:
487,145,14479,2,0,P|508:190|512:240,2,101.249996910095,2|2|2,1:2|1:2|1:2,0:0:0:0:
419,240,15410,6,0,P|391:264|370:296,1,75,6|0,1:2|1:0,0:0:0:0:
375,339,15759,2,0,P|321:324|266:332,1,112.5,2|2,1:2|1:2,0:0:0:0:
176,378,16341,6,0,L|182:276,1,75,2|0,1:2|1:0,0:0:0:0:
135,300,16690,2,0,L|126:160,1,112.5,2|2,1:2|1:2,0:0:0:0:
119,88,17272,6,0,P|48:114|-2:107,1,101.249996910095,2|2,1:2|1:2,0:0:0:0:
51,18,17854,1,2,1:2:0:0:
206,50,18086,1,2,1:2:0:0:
206,50,18203,2,0,L|291:44,1,67.4999979400635,2|2,1:2|1:2,0:0:0:0:
198,189,18668,2,0,L|130:184,1,67.4999979400635,2|2,1:2|1:2,0:0:0:0:
343,144,19134,6,0,L|352:252,1,82.5000025177003,6|0,1:2|1:0,0:0:0:0:
408,252,19483,2,0,B|394:401,1,123.75000377655,2|2,1:2|1:2,0:0:0:0:
266,290,20065,6,0,P|201:313|180:340,1,82.5000025177003,2|0,1:2|1:0,0:0:0:0:
176,384,20414,2,0,P|118:365|87:313,1,123.75000377655,2|2,1:2|1:2,0:0:0:0:
0,196,20995,6,0,B|89:203,1,82.5000025177003,6|0,1:2|1:0,0:0:0:0:
139,239,21345,2,0,B|294:226,1,123.75000377655,2|2,1:2|1:2,0:0:0:0:
181,96,21926,6,0,P|206:127|244:142,1,82.5000025177003,2|0,1:2|1:0,0:0:0:0:
309,130,22276,2,0,P|338:77|323:19,1,123.75000377655,2|2,1:2|1:2,0:0:0:0:
468,45,22857,6,0,L|472:108,1,60,2|2,1:2|1:2,0:0:0:0:
412,164,23323,2,0,L|415:214,1,30,2|2,1:2|1:2,0:0:0:0:
326,215,23788,6,0,L|322:278,1,60,2|2,1:2|1:2,0:0:0:0:
382,334,24254,2,0,L|378:384,1,30,2|2,1:2|1:2,0:0:0:0:
471,384,24719,5,2,1:2:0:0:
122,295,25650,5,8,1:3:0:0:
122,295,25767,1,8,1:3:0:0:
83,383,25999,5,8,1:3:0:0:
53,362,26116,1,10,1:3:0:0:
32,331,26232,1,8,1:3:0:0:
25,295,26348,2,0,L|30:243,1,37.5,4|4,1:3|1:3,0:0:0:0:
37,185,26581,6,0,L|155:175,1,89.9999972534181,6|0,1:2|1:0,0:0:0:0:
172,110,26930,1,2,1:2:0:0:
172,110,27047,2,0,L|261:117,1,89.9999972534181,2|2,1:2|1:2,0:0:0:0:
398,0,27512,6,0,B|392:46|392:46|405:88,1,89.9999972534181,6|0,1:2|1:0,0:0:0:0:
474,130,27861,1,2,1:2:0:0:
474,130,27978,2,0,B|487:172|487:172|481:218,1,89.9999972534181,2|2,1:2|1:2,0:0:0:0:
379,303,28443,5,2,1:2:0:0:
379,303,28559,1,2,1:2:0:0:
133,303,28909,5,2,1:2:0:0:
133,303,29025,1,2,1:2:0:0:
256,384,29374,5,2,1:2:0:0:
256,352,29490,1,2,1:2:0:0:
256,320,29607,1,2,1:2:0:0:
256,288,29723,1,2,1:2:0:0:
256,170,30072,6,0,P|268:210|230:192,1,104.999996795654,4|0,1:2|2:0,0:0:0:0:
