osu file format v14

[General]
AudioFilename: audio.mp3
AudioLeadIn: 0
PreviewTime: 34379
Countdown: 0
SampleSet: None
StackLeniency: 0.5
Mode: 0
LetterboxInBreaks: 0
WidescreenStoryboard: 1

[Editor]
Bookmarks: 2830,13374,18646,23918,34461,50277,58185,68732,74663
DistanceSpacing: 0.5
BeatDivisor: 4
GridSize: 32
TimelineZoom: 1.8

[Metadata]
Title:Mighty Morphin Power Rangers
TitleUnicode:Mighty Morphin Power Rangers
Artist:Alakrity
ArtistUnicode:Alakrity
Creator:Sytho
Version:Kirishima-'s Extra
Source:Mighty Morphin Power Rangers
Tags:rock english heavy metal male vocals vocalist theme op opening song samurai what ever happened to good tv? kirishima- rpoj makidonalds
BeatmapID:3906726
BeatmapSetID:1758657

[Difficulty]
HPDrainRate:5.5
CircleSize:3.8
OverallDifficulty:9
ApproachRate:9.2
SliderMultiplier:1.8
SliderTickRate:1

[Events]
//Background and Video events
0,0,"yoink.jpg",0,0
//Break Periods
//Storyboard Layer 0 (Background)
//Storyboard Layer 1 (Fail)
//Storyboard Layer 2 (Pass)
//Storyboard Layer 3 (Foreground)
//Storyboard Layer 4 (Overlay)
//Storyboard Sound Samples

[TimingPoints]
195,329.489291598023,4,2,1,60,1,0
2830,-133.333333333333,4,2,1,60,0,0
8102,-111.111111111111,4,2,1,75,0,0
10079,-111.111111111111,4,2,1,75,0,0
10738,-111.111111111111,4,2,1,75,0,0
13045,-100,4,2,1,75,0,0
13209,-100,4,2,1,70,0,0
13374,-133.333333333333,4,2,1,70,0,0
17328,-111.111111111111,4,2,1,70,0,0
18646,-111.111111111111,4,2,1,75,0,0
18893,-111.111111111111,4,2,1,5,0,0
18975,-111.111111111111,4,2,1,75,0,0
21282,-111.111111111111,4,2,1,75,0,0
21611,-111.111111111111,4,2,1,65,0,0
22600,-111.111111111111,4,2,1,75,0,0
23918,-100,4,2,1,85,0,0
29190,-83.3333333333333,4,2,1,85,0,0
31825,-100,4,2,1,85,0,0
34461,-90.9090909090909,4,2,1,85,0,1
34709,-90.9090909090909,4,2,1,5,0,1
34791,-90.9090909090909,4,2,1,85,0,1
37344,-90.9090909090909,4,2,1,5,0,1
37427,-90.9090909090909,4,2,1,85,0,1
38662,-90.9090909090909,4,2,1,5,0,1
38745,-90.9090909090909,4,2,1,85,0,1
39980,-90.9090909090909,4,2,1,5,0,1
40063,-90.9090909090909,4,2,1,85,0,1
42616,-90.9090909090909,4,2,1,5,0,1
42699,-90.9090909090909,4,2,1,85,0,1
44676,-90.9090909090909,4,2,1,85,0,0
45005,-83.3333333333333,4,2,1,85,0,1
45252,-83.3333333333333,4,2,1,5,0,1
45335,-83.3333333333333,4,2,1,85,0,1
50277,-133.333333333333,4,2,1,70,0,0
55549,-111.111111111111,4,2,1,70,0,0
58185,-90.9090909090909,4,2,1,85,0,1
58432,-90.9090909090909,4,2,1,5,0,1
58514,-90.9090909090909,4,2,1,85,0,1
62386,-90.9090909090909,4,2,1,5,0,1
62468,-90.9090909090909,4,2,1,85,0,1
63704,-90.9090909090909,4,2,1,5,0,1
63786,-90.9090909090909,4,2,1,85,0,1
67410,-111.111111111111,4,2,1,70,0,0
67681,352.941176470588,4,2,1,70,1,0
67681,-100,4,2,1,70,0,0
68039,363.636363636364,4,2,1,70,1,0
68039,-100,4,2,1,70,0,0
68732,329.489291598023,4,2,1,85,1,1
68732,-83.3333333333333,4,2,1,85,0,1
74662,-100,4,2,1,85,0,0

[Colours]
Combo1 : 234,234,0
Combo2 : 159,0,159
Combo3 : 0,0,225
Combo4 : 204,0,102
Combo5 : 223,0,0

[HitObjects]
76,214,2830,5,0,3:0:0:0:
78,228,2995,1,0,0:0:0:0:
5,267,3160,2,0,P|55:309|119:298,1,135.000005149842,2|0,0:0|0:0,0:0:0:0:
161,226,3654,1,0,0:0:0:0:
61,163,3819,2,0,P|72:195|78:229,1,67.5000025749208,2|0,0:0|0:0,0:0:0:0:
203,299,4148,5,0,0:0:0:0:
217,297,4313,1,0,0:0:0:0:
103,363,4478,2,0,P|113:331|120:297,1,67.5000025749208,2|0,0:0|0:0,0:0:0:0:
161,226,4807,1,0,0:0:0:0:
175,224,4972,1,0,0:0:0:0:
61,163,5137,2,0,P|72:195|78:229,1,67.5000025749208,2|0,0:0|0:0,0:0:0:0:
156,141,5466,5,0,0:0:0:0:
170,139,5631,1,0,0:0:0:0:
97,33,5796,2,0,P|81:99|61:164,1,135.000005149842,2|0,0:0|0:0,0:0:0:0:
176,50,6290,1,0,0:0:0:0:
235,122,6455,2,0,P|201:128|170:139,1,67.5000025749208,2|0,0:0|0:0,0:0:0:0:
258,42,6784,5,0,0:0:0:0:
272,44,6949,1,0,0:0:0:0:
328,106,7114,2,0,P|317:137|310:171,1,67.5000025749208,2|0,0:0|0:0,0:0:0:0:
238,220,7443,1,0,0:0:0:0:
236,206,7608,1,0,0:0:0:0:
314,253,7773,2,0,P|320:287|331:319,1,67.5000025749208,2|0,0:0|0:0,0:0:0:0:
486,158,8102,6,0,P|490:138|496:119,3,40.4999987640381,6|0|0|0,1:2|1:2|1:2|1:2,1:2:0:0:
429,70,8432,2,0,P|424:50|418:30,3,40.4999987640381,2|0|0|0,1:2|1:2|1:2|1:2,0:0:0:0:
332,45,8761,5,2,1:2:0:0:
312,50,8844,1,0,1:2:0:0:
292,55,8926,1,0,1:2:0:0:
273,60,9008,1,0,1:2:0:0:
253,65,9091,2,0,P|249:84|243:104,3,40.4999987640381,2|0|0|0,1:2|1:2|1:2|1:2,0:0:0:0:
233,192,9420,5,2,1:2:0:0:
253,187,9503,1,0,1:2:0:0:
273,182,9585,1,0,1:2:0:0:
292,177,9667,1,0,1:2:0:0:
311,171,9750,2,0,P|315:151|321:131,3,40.4999987640381,2|0|0|0,1:2|1:2|1:2|1:2,0:0:0:0:
161,22,10079,6,0,P|166:42|171:62,3,40.4999987640381,2|0|0|0,1:2|1:2|1:2|1:2,0:0:0:0:
95,99,10409,2,0,P|91:118|85:138,3,40.4999987640381,2|0|0|0,1:2|1:2|1:2|1:2,0:0:0:0:
182,160,10738,5,2,1:2:0:0:
207,191,10821,1,0,1:2:0:0:
215,230,10903,1,0,1:2:0:0:
204,268,10985,1,0,1:2:0:0:
176,297,11068,1,2,1:2:0:0:
138,310,11150,1,0,1:2:0:0:
98,303,11232,2,0,P|78:297|58:292,1,40.4999987640381,0|0,1:2|1:2,0:0:0:0:
7,80,11397,5,2,1:2:0:0:
38,55,11480,1,0,1:2:0:0:
78,48,11562,1,0,1:2:0:0:
116,61,11644,1,0,1:2:0:0:
144,89,11727,1,2,1:2:0:0:
155,128,11809,1,0,1:2:0:0:
148,167,11891,1,0,1:2:0:0:
122,198,11974,1,0,1:2:0:0:
85,214,12056,5,2,1:2:0:0:
107,180,12138,1,0,1:2:0:0:
142,161,12221,1,0,1:2:0:0:
182,160,12303,1,0,1:2:0:0:
217,179,12386,2,0,P|221:198|227:218,1,40.4999987640381,2|0,1:2|1:2,0:0:0:0:
300,256,12550,2,0,P|294:275|289:295,1,40.4999987640381,0|0,1:0|1:0,0:0:0:0:
230,354,12715,1,8,1:2:0:0:
299,173,12880,1,0,1:0:0:0:
388,358,13045,2,0,P|442:360|477:339,1,90,8|0,0:0|3:0,0:0:0:0:
502,261,13374,5,0,0:0:0:0:
421,279,13539,1,0,0:0:0:0:
429,134,13704,2,0,P|440:166|447:200,1,67.5000025749208,2|0,0:2|0:0,0:0:0:0:
502,261,14033,1,0,0:0:0:0:
348,151,14198,2,0,P|359:183|366:217,1,67.5000025749208,2|0,0:0|3:0,0:0:0:0:
421,279,14527,1,0,0:0:0:0:
445,68,14692,6,0,P|439:101|429:134,1,67.5000025749208,2|0,0:0|0:0,0:0:0:0:
348,151,15022,1,0,3:0:0:0:
377,4,15186,2,0,P|370:37|360:69,1,67.5000025749208,2|0,0:0|0:0,0:0:0:0:
404,213,15516,1,0,0:0:0:0:
283,99,15680,1,2,3:2:0:0:
206,164,15845,2,0,P|239:171|272:182,1,67.5000025749208,2|0,0:2|0:0,0:0:0:0:
360,69,16175,5,0,0:0:0:0:
265,34,16339,2,0,P|276:66|283:100,1,67.5000025749208,2|0,3:2|0:0,0:0:0:0:
348,151,16669,1,0,0:0:0:0:
188,66,16834,2,0,P|199:98|206:132,1,67.5000025749208,2|0,0:0|3:0,0:0:0:0:
271,182,17163,1,0,0:0:0:0:
425,119,17328,5,10,1:2:0:0:
485,176,17493,2,0,P|452:199|413:202,1,80.9999975280763,2|12,0:0|0:3,0:0:0:0:
265,34,17822,1,2,0:2:0:0:
425,119,17987,1,8,0:0:0:0:
271,182,18152,1,0,1:2:0:0:
437,36,18316,1,10,0:0:0:0:
337,233,18481,1,2,0:0:0:0:
225,30,18646,6,0,P|166:22|118:58,1,121.499996292114,6|0,1:2|0:0,0:0:0:0:
115,73,18975,2,0,P|126:111|135:151,1,80.9999975280763,10|0,0:2|3:2,0:0:0:0:
101,317,19305,1,0,1:2:0:0:
232,114,19470,2,0,P|220:153|212:193,1,80.9999975280763,2|8,1:2|0:0,0:0:0:0:
173,358,19799,1,0,3:2:0:0:
84,235,19964,6,0,B|173:215|140:294|230:275,1,161.999995056153,2|8,1:2|0:2,0:0:0:0:
306,134,20458,2,0,P|272:113|232:114,1,80.9999975280763,2|0,3:2|1:2,0:0:0:0:
303,298,20788,1,0,1:2:0:0:
387,121,20952,1,10,0:0:0:0:
382,324,21117,1,2,3:2:0:0:
232,114,21282,6,0,P|243:152|252:192,1,80.9999975280763,8|0,3:0|0:0,0:0:0:0:
224,271,21611,1,4,0:3:0:0:
171,207,21776,1,4,0:3:0:0:
306,259,21941,1,4,0:3:0:0:
143,286,22106,1,4,0:3:0:0:
334,180,22270,1,4,0:3:0:0:
196,350,22435,1,4,0:3:0:0:
30,134,22600,5,8,0:0:0:0:
65,114,22682,1,8,0:0:0:0:
105,115,22765,1,8,1:2:0:0:
140,134,22847,1,4,1:3:0:0:
161,168,22929,2,0,P|165:187|170:207,1,40.4999987640381,0|0,1:0|1:0,0:0:0:0:
196,350,23094,5,8,0:0:0:0:
231,370,23176,1,8,0:0:0:0:
271,369,23259,1,8,1:2:0:0:
306,350,23341,1,0,1:0:0:0:
327,316,23423,2,0,P|331:296|336:276,1,40.4999987640381,4|0,1:3|1:0,0:0:0:0:
262,230,23588,2,0,P|257:211|252:191,3,40.4999987640381,8|8|8|8,0:0|0:0|0:2|0:2,0:0:0:0:
283,74,23918,5,6,1:2:0:0:
302,34,24000,1,0,0:2:0:0:
339,9,24082,1,0,1:2:0:0:
384,8,24165,1,0,0:2:0:0:
422,30,24247,1,10,0:2:0:0:
444,69,24330,1,0,0:2:0:0:
442,113,24412,1,0,0:2:0:0:
418,150,24494,1,0,0:2:0:0:
378,169,24577,2,0,P|355:173|333:180,3,45,2|0|0|0,1:2|0:2|1:2|0:2,0:0:0:0:
283,74,24906,2,0,P|262:70|240:63,3,45,10|0|0|0,0:2|0:2|0:2|0:2,0:0:0:0:
122,90,25236,5,6,1:2:0:0:
96,127,25318,1,0,0:2:0:0:
96,172,25400,1,0,1:2:0:0:
119,210,25483,1,0,0:2:0:0:
157,231,25565,1,10,0:2:0:0:
198,251,25648,1,0,0:2:0:0:
221,290,25730,1,0,0:2:0:0:
220,334,25812,1,0,0:2:0:0:
197,372,25895,2,0,P|176:376|154:383,3,45,2|0|0|0,1:2|0:2|1:2|0:2,0:0:0:0:
38,274,26224,2,0,P|54:288|70:305,1,45,10|0,0:2|0:2,0:0:0:0:
169,188,26389,2,0,P|161:208|157:230,1,45,0|0,0:2|0:2,0:0:0:0:
36,58,26554,5,6,1:2:0:0:
66,24,26636,1,0,0:2:0:0:
107,7,26718,1,0,1:2:0:0:
152,11,26801,1,0,0:2:0:0:
190,34,26883,1,10,0:2:0:0:
214,72,26966,1,0,0:2:0:0:
218,116,27048,1,0,0:2:0:0:
202,158,27130,1,0,0:2:0:0:
169,188,27213,2,0,P|148:192|126:199,1,45,2|0,1:2|0:2,0:0:0:0:
36,58,27377,2,0,P|58:64|80:69,1,45,0|0,1:2|0:2,0:0:0:0:
171,205,27542,2,0,P|148:209|127:216,1,45,10|0,0:2|0:2,0:0:0:0:
40,40,27707,2,0,P|61:45|83:50,1,45,0|0,0:2|0:2,0:0:0:0:
286,19,27872,5,10,0:2:0:0:
280,40,27954,1,8,0:2:0:0:
274,62,28036,1,4,0:3:0:0:
268,84,28119,1,4,0:3:0:0:
262,105,28201,2,0,P|241:109|219:116,3,45,8|8|4|4,0:3|0:3|0:3|0:3,0:0:0:0:
341,164,28531,1,10,0:2:0:0:
347,185,28613,1,8,0:2:0:0:
353,207,28695,1,4,0:3:0:0:
359,229,28778,1,4,0:3:0:0:
365,250,28860,2,0,P|386:254|408:261,3,45,12|8|8|8,0:3|0:3|0:3|0:3,0:0:0:0:
437,111,29190,5,6,1:2:0:0:
401,70,29272,1,0,0:2:0:0:
351,54,29354,1,0,1:2:0:0:
299,67,29437,1,0,0:2:0:0:
262,105,29519,1,10,0:2:0:0:
250,157,29601,1,0,0:2:0:0:
267,208,29684,1,0,0:2:0:0:
284,258,29766,1,0,0:2:0:0:
272,310,29848,1,2,1:2:0:0:
235,348,29931,1,0,0:2:0:0:
183,362,30013,1,0,1:2:0:0:
132,346,30095,1,0,0:2:0:0:
97,306,30178,1,10,0:2:0:0:
87,254,30260,1,0,0:2:0:0:
106,204,30342,1,0,0:2:0:0:
149,172,30425,1,0,0:2:0:0:
168,122,30508,1,2,1:2:0:0:
158,70,30590,1,0,0:2:0:0:
123,30,30673,1,0,1:2:0:0:
72,14,30755,1,0,0:2:0:0:
19,27,30837,5,10,0:2:0:0:
29,80,30919,1,0,0:2:0:0:
65,119,31001,1,0,0:2:0:0:
116,135,31084,1,0,0:2:0:0:
168,122,31166,1,2,1:2:0:0:
219,109,31248,1,0,0:2:0:0:
270,125,31330,1,0,1:2:0:0:
306,164,31413,1,0,0:2:0:0:
317,216,31495,1,10,0:2:0:0:
299,267,31577,1,0,0:2:0:0:
258,301,31660,1,0,0:2:0:0:
205,309,31742,1,0,0:2:0:0:
155,289,31825,6,0,P|149:259|139:231,2,60,2|0|0,1:2|1:2|1:2,0:0:0:0:
203,166,32155,2,0,P|209:136|220:108,2,60,0|0|0,1:2|1:2|1:2,0:0:0:0:
64,98,32484,1,0,1:2:0:0:
74,103,32594,2,0,P|98:122|118:145,1,60,0|0,1:2|1:2,0:0:0:0:
204,23,32814,1,0,1:2:0:0:
192,25,32924,2,0,P|162:29|133:38,1,60,0|0,1:2|1:2,0:0:0:0:
61,212,33143,5,0,1:2:0:0:
87,227,33252,1,0,1:2:0:0:
116,233,33362,1,0,1:2:0:0:
145,229,33472,1,0,1:2:0:0:
172,215,33582,1,0,1:2:0:0:
192,193,33692,1,0,1:0:0:0:
203,166,33802,2,0,P|209:136|220:108,2,60,0|0|0,1:2|1:2|1:2,0:0:0:0:
386,305,34132,1,8,0:0:0:0:
386,305,34461,6,0,P|364:235|346:162,1,148.50000453186,6|0,1:2|0:0,0:0:0:0:
341,143,34791,2,0,P|300:116|251:119,1,99.0000030212403,10|0,0:2|0:0,0:0:0:0:
157,300,35120,1,2,1:2:0:0:
103,115,35285,1,2,1:2:0:0:
265,217,35450,1,8,0:0:0:0:
50,307,35615,6,0,P|65:259|75:211,1,99.0000030212403,2|0,0:0|1:0,0:0:0:0:
252,119,35944,1,2,0:0:0:0:
183,281,36109,2,0,P|154:186|131:89,1,198.000006042481,8|0,0:0|1:0,0:0:0:0:
275,315,36603,1,0,1:0:0:0:
367,141,36768,5,10,0:0:0:0:
361,165,36850,1,8,0:0:0:0:
355,189,36933,1,8,0:0:0:0:
348,213,37015,1,8,0:0:0:0:
342,237,37097,2,0,P|274:303|183:280,2,198.000006042481,6|10|0,1:2|0:2|1:2,0:0:0:0:
219,124,37921,1,2,1:2:0:0:
374,58,38086,2,0,P|401:98|399:147,1,99.0000030212403,8|0,0:2|0:0,0:0:0:0:
215,330,38415,6,0,P|199:260|247:207,1,148.50000453186,2|0,1:2|0:0,0:0:0:0:
267,203,38745,2,0,P|315:218|363:228,1,99.0000030212403,8|2,0:2|0:0,0:0:0:0:
329,58,39074,1,8,1:2:0:0:
290,28,39157,1,8,0:0:0:0:
242,26,39239,1,8,0:0:0:0:
201,53,39321,1,8,0:0:0:0:
181,98,39404,2,0,P|189:121|194:145,1,49.5000015106202,4|4,0:3|0:3,0:0:0:0:
267,203,39568,2,0,P|260:226|255:250,1,49.5000015106202,4|4,0:3|0:3,0:0:0:0:
46,284,39733,6,0,P|68:213|86:140,1,148.50000453186,6|0,1:2|0:0,0:0:0:0:
92,122,40063,2,0,P|133:95|182:98,1,99.0000030212403,10|0,0:2|0:0,0:0:0:0:
326,223,40392,1,2,1:2:0:0:
142,297,40557,1,2,1:2:0:0:
346,142,40722,1,8,0:2:0:0:
156,2,40886,6,0,P|171:49|181:97,1,99.0000030212403,2|0,0:0|1:2,0:0:0:0:
277,290,41216,1,2,0:0:0:0:
295,23,41381,2,0,P|267:117|244:214,1,198.000006042481,8|0,0:2|1:2,0:0:0:0:
316,380,41875,1,0,1:2:0:0:
416,248,42040,1,10,0:0:0:0:
397,231,42122,1,8,0:0:0:0:
375,221,42204,1,8,0:0:0:0:
350,218,42287,1,8,0:0:0:0:
326,223,42369,6,0,B|380:247|416:207|414:200|412:192|448:151|502:176,2,198.000006042481,6|10|0,1:2|0:2|1:2,0:0:0:0:
184,131,43193,1,2,1:2:0:0:
321,38,43358,2,0,P|348:79|346:128,1,99.0000030212403,8|0,0:2|0:0,0:0:0:0:
153,348,43687,5,10,0:2:0:0:
159,325,43769,1,8,0:2:0:0:
165,302,43852,2,0,P|189:297|212:290,1,49.5000015106202,4|4,0:3|0:3,0:0:0:0:
291,313,44017,1,8,0:2:0:0:
285,336,44099,1,8,0:2:0:0:
280,358,44181,2,0,P|256:363|233:370,1,49.5000015106202,4|4,0:3|0:3,0:0:0:0:
86,280,44346,1,8,0:2:0:0:
92,257,44428,1,8,0:2:0:0:
98,234,44511,2,0,P|123:228|146:221,1,49.5000015106202,4|4,0:3|0:3,0:0:0:0:
282,63,44676,5,8,0:2:0:0:
238,83,44758,1,8,0:2:0:0:
211,124,44840,1,4,0:3:0:0:
213,172,44923,1,4,0:3:0:0:
242,211,45005,2,0,P|294:223|346:238,1,107.999996704102,14|0,1:2|0:0,0:0:0:0:
386,34,45335,2,0,P|334:49|282:63,1,107.999996704102,10|0,0:2|0:0,0:0:0:0:
98,234,45664,5,10,0:2:0:0:
341,141,45829,1,2,1:2:0:0:
71,78,45994,5,8,0:2:0:0:
347,238,46158,1,2,1:2:0:0:
27,166,46323,5,8,0:2:0:0:
282,63,46488,1,2,0:0:0:0:
126,330,46652,6,0,P|95:286|98:233,1,107.999996704102,8|0,0:2|0:0,0:0:0:0:
197,17,46982,5,8,0:2:0:0:
327,294,47147,1,0,1:0:0:0:
312,288,47229,1,0,1:0:0:0:
297,283,47311,2,0,P|245:267|193:257,1,107.999996704102,10|0,0:2|1:0,0:0:0:0:
41,51,47641,5,10,0:2:0:0:
270,186,47806,1,2,1:2:0:0:
47,299,47970,5,10,1:2:0:0:
211,69,48135,1,2,1:2:0:0:
215,354,48300,5,8,1:2:0:0:
19,163,48465,2,0,P|46:171|72:177,1,53.9999983520508,2|0,1:2|1:0,0:0:0:0:
365,205,48629,5,8,1:2:0:0:
119,373,48794,1,2,1:2:0:0:
306,95,48959,5,8,1:2:0:0:
338,362,49124,1,2,1:2:0:0:
211,69,49288,5,8,1:2:0:0:
240,367,49453,1,2,1:2:0:0:
374,22,49618,5,8,1:2:0:0:
175,292,49783,2,0,P|183:266|189:240,1,53.9999983520508,2|0,1:2|1:0,0:0:0:0:
279,0,49947,5,8,0:2:0:0:
416,303,50112,1,0,1:0:0:0:
152,98,50277,6,0,B|219:40|330:75|271:166|388:155,1,270.000010299683,10|0,1:2|0:0,0:0:0:0:
371,73,51430,5,10,1:2:0:0:
218,172,51595,1,10,1:2:0:0:
218,172,52748,5,10,1:2:0:0:
420,231,52913,1,10,1:2:0:0:
469,162,53407,5,10,1:2:0:0:
246,251,53572,1,10,1:2:0:0:
165,236,54066,5,10,1:2:0:0:
456,306,54231,1,10,1:2:0:0:
503,237,54725,5,10,1:2:0:0:
192,315,54890,1,10,1:2:0:0:
112,299,55384,5,8,1:2:0:0:
352,370,55549,1,4,1:2:0:0:
357,364,55631,1,0,1:2:0:0:
359,356,55713,1,0,1:2:0:0:
361,343,55796,1,0,1:2:0:0:
358,327,55878,1,10,1:2:0:0:
346,309,55961,1,0,1:2:0:0:
325,295,56043,1,0,1:2:0:0:
297,287,56125,1,0,1:2:0:0:
272,265,56208,1,10,1:2:0:0:
255,232,56290,1,0,1:2:0:0:
258,191,56372,1,0,1:2:0:0:
288,157,56455,1,0,1:2:0:0:
335,148,56537,1,10,1:2:0:0:
383,169,56620,1,0,1:2:0:0:
437,152,56702,1,0,1:2:0:0:
465,98,56784,1,0,1:2:0:0:
449,39,56866,6,0,P|443:19|438:0,1,40.4999987640381,14|0,1:2|1:2,0:2:0:0:
308,87,57030,1,0,1:2:0:0:
304,103,57114,1,0,1:2:0:0:
299,118,57196,2,0,P|293:137|288:156,1,40.4999987640381,10|0,1:2|1:2,0:2:0:0:
457,222,57361,1,0,1:2:0:0:
453,206,57443,1,0,1:2:0:0:
448,191,57526,2,0,P|442:171|437:152,1,40.4999987640381,10|0,0:0|0:0,0:0:0:0:
169,149,57690,5,0,1:2:0:0:
124,184,57773,1,0,1:2:0:0:
104,236,57855,1,10,1:2:0:0:
111,291,57937,1,0,1:2:0:0:
146,335,58020,1,0,1:2:0:0:
198,356,58102,1,0,1:2:0:0:
254,349,58185,6,0,P|276:279|294:207,1,148.50000453186,6|0,1:2|0:0,0:0:0:0:
300,187,58514,2,0,P|340:160|389:162,1,99.0000030212403,10|0,0:2|1:0,0:0:0:0:
407,170,58761,1,0,1:0:0:0:
425,177,58844,1,2,1:2:0:0:
289,74,59008,1,2,1:2:0:0:
379,268,59173,1,8,0:2:0:0:
167,151,59338,6,0,P|191:145|214:139,1,49.5000015106202,2|0,1:2|1:0,0:0:0:0:
387,63,59503,1,0,1:2:0:0:
275,283,59667,1,2,0:0:0:0:
196,42,59832,2,0,P|148:56|100:66,1,99.0000030212403,8|2,0:2|1:2,0:0:0:0:
80,70,60079,1,0,1:0:0:0:
60,74,60162,1,0,1:2:0:0:
185,245,60326,1,0,1:2:0:0:
16,307,60491,5,10,0:0:0:0:
22,283,60573,1,8,0:0:0:0:
28,259,60656,1,8,0:0:0:0:
35,235,60738,1,8,0:0:0:0:
41,211,60820,2,0,P|109:145|200:168,1,198.000006042481,6|10,1:2|0:2,0:0:0:0:
318,346,61315,2,0,P|295:340|271:335,1,49.5000015106202,0|0,1:0|1:0,0:0:0:0:
134,240,61480,1,0,1:2:0:0:
299,164,61644,1,2,1:2:0:0:
192,361,61809,2,0,P|190:312|217:272,1,99.0000030212403,8|0,0:2|1:0,0:0:0:0:
234,261,62056,1,0,1:0:0:0:
251,251,62138,6,0,P|198:299|128:284,1,148.50000453186,2|0,1:2|0:0,0:0:0:0:
111,272,62468,2,0,P|101:224|86:177,1,99.0000030212403,8|2,0:2|1:2,0:0:0:0:
256,35,62797,1,8,0:2:0:0:
286,74,62880,1,8,0:0:0:0:
288,122,62962,1,8,0:0:0:0:
261,163,63045,1,8,0:0:0:0:
216,183,63127,2,0,P|193:175|169:170,1,49.5000015106202,4|4,0:3|0:3,0:0:0:0:
126,31,63292,2,0,P|150:25|173:19,1,49.5000015106202,4|4,0:3|0:3,0:0:0:0:
166,188,63456,6,0,P|238:206|309:228,1,148.50000453186,6|0,1:2|0:0,0:0:0:0:
327,234,63786,2,0,P|354:275|351:324,1,99.0000030212403,10|0,0:2|1:0,0:0:0:0:
343,341,64033,1,0,1:0:0:0:
335,359,64115,1,2,1:2:0:0:
470,184,64280,1,2,1:2:0:0:
256,300,64445,1,8,0:2:0:0:
288,122,64610,6,0,P|312:117|336:111,1,49.5000015106202,2|0,1:2|1:0,0:0:0:0:
436,261,64774,1,0,1:2:0:0:
234,204,64939,1,2,1:2:0:0:
443,24,65104,2,0,P|428:71|418:120,1,99.0000030212403,8|2,0:2|1:2,0:0:0:0:
416,139,65351,1,0,1:0:0:0:
414,158,65433,1,0,1:2:0:0:
343,12,65598,1,0,1:2:0:0:
234,204,65763,5,10,0:0:0:0:
215,220,65845,1,8,0:0:0:0:
193,230,65928,1,8,0:0:0:0:
168,233,66010,1,8,0:0:0:0:
144,228,66092,2,0,P|240:250|335:279,1,198.000006042481,6|10,1:2|0:2,0:0:0:0:
462,147,66587,2,0,P|438:153|414:158,1,49.5000015106202,0|0,1:3|1:3,0:0:0:0:
286,100,66751,1,0,1:2:0:0:
436,261,66916,1,2,1:2:0:0:
310,10,67081,2,0,P|283:51|286:100,1,99.0000030212403,8|0,0:2|1:0,0:0:0:0:
289,368,67410,6,8,P|273:371|257:376,2,32.3999990112305,8|8|8,3:2|3:2|3:2,3:2:0:0:
351,317,67681,6,0,P|365:319|379:324,5,30,4|0|0|0|0|0,3:3|3:2|3:2|3:2|3:2|3:2,3:2:0:0:
409,249,68039,2,0,P|423:244|437:241,5,30,4|0|0|0|0|0,3:3|3:2|3:2|3:2|3:2|3:2,3:2:0:0:
489,181,68402,1,8,0:0:0:0:
489,181,68732,6,0,P|474:232|460:285,1,107.999996704102,6|0,1:2|1:0,0:0:0:0:
305,111,69062,2,0,P|319:162|333:215,1,107.999996704102,10|0,0:2|1:0,0:0:0:0:
479,52,69391,5,10,0:2:0:0:
355,327,69556,1,2,1:2:0:0:
219,59,69721,5,8,0:2:0:0:
364,346,69885,1,2,1:2:0:0:
371,38,70050,5,8,0:2:0:0:
251,351,70215,1,2,1:2:0:0:
122,31,70380,6,0,P|174:27|218:58,1,107.999996704102,8|0,0:2|1:0,0:0:0:0:
16,328,70709,5,8,0:2:0:0:
153,110,70874,1,0,1:0:0:0:
106,371,71039,5,10,0:2:0:0:
66,105,71203,2,0,P|73:131|79:157,1,53.9999983520508,0|0,1:0|1:0,0:0:0:0:
204,365,71368,5,10,0:2:0:0:
345,173,71533,2,0,P|292:159|241:145,1,107.999996704102,2|10,1:2|1:2,0:0:0:0:
76,251,71862,2,0,P|102:243|128:237,1,53.9999983520508,2|0,1:2|1:2,0:0:0:0:
344,62,72027,5,8,1:2:0:0:
79,157,72192,1,2,1:2:0:0:
359,269,72357,5,8,1:2:0:0:
108,61,72521,2,0,P|134:67|160:73,1,53.9999983520508,2|0,1:2|1:2,0:0:0:0:
443,209,72686,5,8,1:2:0:0:
84,283,72851,1,2,1:2:0:0:
433,103,73016,5,8,1:2:0:0:
277,380,73180,2,0,P|270:353|263:327,1,53.9999983520508,2|0,1:2|1:2,0:0:0:0:
160,73,73345,5,8,1:2:0:0:
363,311,73510,1,2,1:2:0:0:
294,12,73675,5,8,0:2:0:0:
166,338,73839,1,0,1:0:0:0:
94,1,74004,6,0,P|59:13|24:21,2,71.9999978027344,4|4|4,1:3|1:3|1:3,0:0:0:0:
160,73,74333,1,4,1:3:0:0:
164,77,74443,2,0,P|199:84|233:96,1,71.9999978027344,4|4,1:3|1:3,0:0:0:0:
31,227,74663,5,12,1:2:0:0:
