osu file format v14

[General]
AudioFilename: audio.mp3
AudioLeadIn: 0
PreviewTime: 34379
Countdown: 0
SampleSet: Soft
StackLeniency: 0.5
Mode: 0
LetterboxInBreaks: 0
WidescreenStoryboard: 1

[Editor]
DistanceSpacing: 0.5
BeatDivisor: 5
GridSize: 4
TimelineZoom: 1.4

[Metadata]
Title:Mighty Morphin Power Rangers
TitleUnicode:Mighty Morphin Power Rangers
Artist:Alakrity
ArtistUnicode:Alakrity
Creator:Sytho
Version:Go Go Power Rangers!
Source:Mighty Morphin Power Rangers
Tags:rock english heavy metal male vocals vocalist theme op opening song samurai what ever happened to good tv? kirishima- rpoj makidonalds
BeatmapID:3844651
BeatmapSetID:1758657

[Difficulty]
HPDrainRate:5.8
CircleSize:4.1
OverallDifficulty:9.2
ApproachRate:9.3
SliderMultiplier:1.4
SliderTickRate:1

[Events]
//Background and Video events
0,0,"yoink.jpg",0,0
//Break Periods
//Storyboard Layer 0 (Background)
//Storyboard Layer 1 (Fail)
//Storyboard Layer 2 (Pass)
//Storyboard Layer 3 (Foreground)
//Storyboard Layer 4 (Overlay)
//Storyboard Sound Samples

[TimingPoints]
195,329.489291598023,4,2,1,60,1,0
8102,-71.4285714285714,4,2,1,75,0,0
13209,-83.3333333333333,4,2,1,70,0,0
18646,-71.4285714285714,4,2,1,75,0,0
18893,-71.4285714285714,4,2,1,5,0,0
18975,-71.4285714285714,4,2,1,75,0,0
21611,-100,4,2,1,65,0,0
22600,-100,4,2,1,75,0,0
23918,-62.5,4,2,1,85,0,0
34461,-71.4285714285714,4,2,1,85,0,1
34709,-71.4285714285714,4,2,1,5,0,1
34791,-71.4285714285714,4,2,1,85,0,1
37344,-71.4285714285714,4,2,1,5,0,1
37427,-71.4285714285714,4,2,1,85,0,1
38662,-71.4285714285714,4,2,1,5,0,1
38745,-71.4285714285714,4,2,1,85,0,1
39980,-71.4285714285714,4,2,1,5,0,1
40063,-71.4285714285714,4,2,1,85,0,1
42616,-71.4285714285714,4,2,1,5,0,1
42699,-71.4285714285714,4,2,1,85,0,1
44676,-71.4285714285714,4,2,1,85,0,0
45005,-71.4285714285714,4,2,1,85,0,1
45252,-71.4285714285714,4,2,1,5,0,1
45335,-71.4285714285714,4,2,1,85,0,1
50277,-71.4285714285714,4,2,1,70,0,0
55549,-71.4285714285714,4,2,1,70,0,0
57525,-62.5,4,2,1,70,0,0
58185,-71.4285714285714,4,2,1,85,0,1
67410,-71.4285714285714,4,2,1,70,0,0
67681,352.941176470588,4,2,1,70,1,0
67681,-71.4285714285714,4,2,1,70,0,0
68039,363.636363636364,4,2,1,70,1,0
68039,-71.4285714285714,4,2,1,70,0,0
68732,329.489291598023,4,2,1,85,1,1
68732,-62.5,4,2,1,85,0,1
74662,-50,4,2,1,85,0,0

[Colours]
Combo1 : 234,234,0
Combo2 : 159,0,159
Combo3 : 0,0,225
Combo4 : 204,0,102
Combo5 : 223,0,0

[HitObjects]
436,254,195,6,0,B|451:224|451:224|439:180,1,70,2|0,0:0|0:0,0:0:0:0:
300,172,524,2,0,B|285:202|285:202|297:246,1,70,2|0,0:0|0:0,0:0:0:0:
416,84,853,1,2,0:0:0:0:
416,84,1018,2,0,L|404:2,1,70,2|0,0:0|0:0,0:0:0:0:
326,21,1348,2,0,L|336:90,1,70,2|0,0:0|0:0,0:0:0:0:
439,305,1677,6,0,B|353:267|317:312|317:324|273:372|176:331|176:331|150:278|229:233|275:264,1,420,2|0,0:0|0:0,0:0:0:0:
387,376,2830,5,0,3:0:0:0:
387,376,2995,1,0,0:0:0:0:
439,305,3160,2,0,L|429:223,1,70,2|0,0:0|0:0,0:0:0:0:
406,159,3489,1,0,0:0:0:0:
406,159,3654,1,0,0:0:0:0:
353,220,3819,2,0,L|259:212,1,70,2|0,0:0|0:0,0:0:0:0:
156,103,4148,5,0,0:0:0:0:
156,103,4313,1,0,0:0:0:0:
110,169,4478,2,0,P|99:211|118:251,1,70,2|0,0:0|0:0,0:0:0:0:
145,311,4807,1,0,0:0:0:0:
145,311,4972,1,0,0:0:0:0:
181,204,5137,2,0,L|269:193,1,70,2|0,0:0|0:0,0:0:0:0:
402,266,5466,5,0,0:0:0:0:
402,266,5631,1,0,0:0:0:0:
323,302,5796,2,0,P|268:278|255:250,1,70,2|0,0:0|0:0,0:0:0:0:
250,121,6125,1,0,0:0:0:0:
250,121,6290,1,0,0:0:0:0:
321,150,6455,2,0,L|328:233,1,70,2|0,0:0|0:0,0:0:0:0:
168,126,6784,5,0,0:0:0:0:
168,126,6949,1,0,0:0:0:0:
203,49,7114,2,0,L|282:37,1,70,2|0,0:0|0:0,0:0:0:0:
362,210,7443,1,0,0:0:0:0:
362,210,7608,1,0,0:0:0:0:
327,133,7773,2,0,L|248:121,1,70,2|0,0:0|0:0,0:0:0:0:
56,106,8102,6,0,L|50:161,3,48.9999985046387,6|0|0|0,1:2|1:2|1:2|1:2,1:2:0:0:
101,216,8432,5,2,1:2:0:0:
106,234,8514,1,0,1:2:0:0:
110,252,8596,1,0,1:2:0:0:
114,271,8679,1,0,1:2:0:0:
104,303,8761,5,2,1:2:0:0:
136,293,8844,1,0,1:2:0:0:
170,295,8926,1,0,1:2:0:0:
200,309,9008,1,0,1:2:0:0:
223,334,9091,1,2,1:2:0:0:
262,363,9173,1,0,1:2:0:0:
310,368,9255,1,0,1:2:0:0:
356,352,9338,1,0,1:2:0:0:
382,310,9420,5,2,1:2:0:0:
329,302,9503,1,0,1:2:0:0:
286,270,9585,1,0,1:2:0:0:
262,222,9667,1,0,1:2:0:0:
263,169,9750,1,2,1:2:0:0:
289,122,9832,1,0,1:2:0:0:
334,93,9914,1,0,1:2:0:0:
387,88,9997,1,0,1:2:0:0:
437,108,10079,5,2,1:2:0:0:
411,155,10162,1,0,1:2:0:0:
366,184,10244,1,0,1:2:0:0:
313,189,10326,1,0,1:2:0:0:
263,169,10409,1,2,1:2:0:0:
221,134,10491,1,0,1:2:0:0:
171,114,10573,1,0,1:2:0:0:
118,119,10656,1,0,1:2:0:0:
73,148,10738,6,0,L|63:221,3,48.9999985046387,2|0|0|0,1:2|1:2|1:2|1:2,0:0:0:0:
175,206,11068,2,0,L|165:279,3,48.9999985046387,2|0|0|0,1:2|1:2|1:2|1:2,0:0:0:0:
86,289,11397,2,0,L|96:362,3,48.9999985046387,2|0|0|0,1:2|1:2|1:2|1:2,0:0:0:0:
246,301,11727,2,0,L|256:374,3,48.9999985046387,2|0|0|0,1:2|1:2|1:2|1:2,0:0:0:0:
416,382,12056,5,2,1:2:0:0:
463,357,12138,1,0,1:2:0:0:
490,312,12221,1,0,1:2:0:0:
487,259,12303,1,0,1:2:0:0:
456,215,12386,2,0,L|390:206,3,48.9999985046387,2|0|0|0,1:2|1:2|1:0|1:0,0:0:0:0:
341,290,12715,5,8,1:2:0:0:
336,92,12880,1,0,1:0:0:0:
330,309,13045,1,8,0:0:0:0:
134,242,13209,6,0,L|218:237,1,83.9999974365235,0|0,3:0|0:0,0:0:0:0:
218,237,13539,1,0,0:0:0:0:
329,207,13704,6,0,P|270:176|260:138,1,83.9999974365235,2|0,0:2|0:0,0:0:0:0:
263,163,14033,1,0,0:0:0:0:
258,61,14198,2,0,L|155:55,1,83.9999974365235,2|0,0:0|3:0,0:0:0:0:
174,56,14527,1,0,0:0:0:0:
56,163,14692,6,0,L|159:157,1,83.9999974365235,2|0,0:0|0:0,0:0:0:0:
139,158,15022,1,0,3:0:0:0:
43,13,15186,2,0,P|12:55|18:107,1,83.9999974365235,2|0,0:0|0:0,0:0:0:0:
10,85,15516,1,0,0:0:0:0:
45,251,15680,1,2,3:2:0:0:
159,39,15845,2,0,L|243:44,1,83.9999974365235,2|0,0:2|0:0,0:0:0:0:
242,43,16175,1,0,0:0:0:0:
371,121,16339,6,0,L|287:126,1,83.9999974365235,2|0,3:2|0:0,0:0:0:0:
287,126,16669,1,0,0:0:0:0:
155,197,16834,2,0,L|239:202,1,83.9999974365235,2|0,0:0|3:0,0:0:0:0:
239,202,17163,1,0,0:0:0:0:
468,234,17328,6,0,L|403:241,1,41.9999987182618,10|0,1:2|0:0,0:0:0:0:
314,248,17493,1,2,0:0:0:0:
482,331,17657,1,12,0:3:0:0:
405,148,17822,1,2,0:2:0:0:
334,337,17987,1,8,0:0:0:0:
334,337,18069,1,0,0:0:0:0:
334,337,18152,1,0,1:2:0:0:
408,135,18316,1,10,0:0:0:0:
489,362,18481,1,2,0:0:0:0:
322,166,18646,6,0,B|257:160|254:187|255:194|243:231|156:210,1,146.999995513916,6|0,1:2|0:0,0:0:0:0:
111,202,18975,2,0,P|99:142|85:101,1,97.9999970092774,10|0,0:2|3:2,0:0:0:0:
142,292,19305,1,0,1:2:0:0:
186,119,19470,1,2,1:2:0:0:
136,306,19634,1,8,0:0:0:0:
305,249,19799,1,0,3:2:0:0:
63,330,19964,6,0,B|131:307|156:348|156:344|168:397|260:366,1,195.999994018555,2|8,1:2|0:2,0:0:0:0:
405,331,20458,1,2,3:2:0:0:
237,185,20623,2,0,P|224:257|210:315,1,97.9999970092774,0|0,1:2|1:2,0:0:0:0:
341,113,20952,1,10,0:0:0:0:
412,342,21117,1,2,3:2:0:0:
171,359,21282,6,0,P|130:301|142:257,1,97.9999970092774,8|0,3:0|0:0,0:0:0:0:
182,151,21611,1,4,0:3:0:0:
218,281,21776,1,4,0:3:0:0:
80,187,21941,5,4,0:3:0:0:
284,222,22106,1,4,0:3:0:0:
74,77,22270,1,4,0:3:0:0:
132,277,22435,1,4,0:3:0:0:
275,83,22600,5,8,0:0:0:0:
248,75,22682,1,8,0:0:0:0:
219,77,22765,1,8,1:2:0:0:
192,86,22847,1,4,1:3:0:0:
173,107,22929,2,0,P|154:148|156:162,1,35,0|0,1:0|1:0,0:0:0:0:
108,257,23094,1,8,0:0:0:0:
81,265,23176,1,8,0:0:0:0:
52,263,23259,1,8,1:2:0:0:
25,254,23341,1,0,1:0:0:0:
9,231,23423,2,0,P|2:187|10:172,1,35,4|0,1:3|1:0,0:0:0:0:
0,22,23588,1,8,0:0:0:0:
1,34,23671,1,8,0:0:0:0:
3,48,23753,1,8,0:2:0:0:
6,60,23835,1,8,0:2:0:0:
8,73,23918,5,6,1:2:0:0:
30,121,24000,1,0,0:2:0:0:
78,147,24082,1,0,1:2:0:0:
131,136,24165,1,0,0:2:0:0:
167,94,24247,1,10,0:2:0:0:
216,67,24330,1,0,0:2:0:0:
270,56,24412,1,0,0:2:0:0:
319,81,24494,1,0,0:2:0:0:
342,128,24577,5,2,1:2:0:0:
288,129,24659,1,0,0:2:0:0:
241,159,24741,1,0,1:2:0:0:
215,206,24824,1,0,0:2:0:0:
219,262,24906,1,10,0:2:0:0:
247,307,24989,1,0,0:2:0:0:
295,332,25071,1,0,0:2:0:0:
350,329,25153,1,0,0:2:0:0:
396,300,25236,5,6,1:2:0:0:
374,242,25318,1,0,0:2:0:0:
322,210,25400,1,0,1:2:0:0:
261,202,25483,1,0,0:2:0:0:
205,228,25565,1,10,0:2:0:0:
158,267,25648,1,0,0:2:0:0:
98,271,25730,1,0,0:2:0:0:
49,234,25812,1,0,0:2:0:0:
29,175,25895,5,2,1:2:0:0:
86,157,25977,1,0,0:2:0:0:
143,176,26059,1,0,1:2:0:0:
181,221,26142,1,0,0:2:0:0:
188,280,26224,1,10,0:2:0:0:
161,333,26307,1,0,0:2:0:0:
110,363,26389,1,0,0:2:0:0:
51,361,26471,1,0,0:2:0:0:
9,316,26554,5,6,1:2:0:0:
40,254,26636,1,0,0:2:0:0:
105,231,26718,1,0,1:2:0:0:
173,238,26801,1,0,0:2:0:0:
225,283,26883,1,10,0:2:0:0:
292,298,26966,1,0,0:2:0:0:
357,274,27048,1,0,0:2:0:0:
393,214,27130,1,0,0:2:0:0:
392,144,27213,5,2,1:2:0:0:
324,163,27295,1,0,0:2:0:0:
285,222,27377,1,0,1:2:0:0:
285,289,27460,1,0,0:2:0:0:
324,345,27542,1,10,0:2:0:0:
390,366,27624,1,0,0:2:0:0:
455,344,27707,1,0,0:2:0:0:
497,287,27789,1,0,0:2:0:0:
497,219,27872,6,0,P|464:263|454:300,3,56,10|8|4|4,0:2|0:2|0:3|0:3,0:0:0:0:
390,366,28201,2,0,P|353:324|318:307,1,56,8|8,0:3|0:3,0:0:0:0:
316,170,28366,2,0,P|369:158|402:137,1,56,4|4,0:3|0:3,0:0:0:0:
213,318,28531,5,10,0:2:0:0:
213,318,28613,1,8,0:2:0:0:
213,318,28695,2,0,P|161:307|129:286,1,56,4|4,0:3|0:3,0:0:0:0:
104,117,28860,1,12,0:3:0:0:
111,128,28942,1,8,0:3:0:0:
115,142,29025,1,8,0:3:0:0:
116,156,29107,1,8,0:3:0:0:
114,169,29190,5,6,1:2:0:0:
148,122,29272,1,0,0:2:0:0:
202,103,29354,1,0,1:2:0:0:
259,114,29437,1,0,0:2:0:0:
304,149,29519,1,10,0:2:0:0:
342,191,29601,1,0,0:2:0:0:
398,206,29684,1,0,0:2:0:0:
454,191,29766,1,0,0:2:0:0:
497,151,29849,5,2,1:2:0:0:
446,121,29931,1,0,0:2:0:0:
388,122,30013,1,0,1:2:0:0:
339,152,30096,1,0,0:2:0:0:
312,204,30178,1,10,0:2:0:0:
315,261,30260,1,0,0:2:0:0:
348,310,30343,1,0,0:2:0:0:
400,334,30425,1,0,0:2:0:0:
458,328,30508,5,2,1:2:0:0:
454,270,30590,1,0,0:2:0:0:
422,222,30673,1,0,1:2:0:0:
369,198,30755,1,0,0:2:0:0:
312,204,30838,1,10,0:2:0:0:
266,238,30919,1,0,0:2:0:0:
209,244,31002,1,0,0:2:0:0:
156,220,31084,1,0,0:2:0:0:
124,172,31167,5,2,1:2:0:0:
174,147,31248,1,0,0:2:0:0:
232,154,31330,1,0,1:2:0:0:
279,189,31413,1,0,0:2:0:0:
303,241,31495,1,10,0:2:0:0:
299,299,31577,1,0,0:2:0:0:
268,348,31660,1,0,0:2:0:0:
217,376,31742,1,0,0:2:0:0:
158,375,31825,6,0,P|114:357|47:350,2,74.6666666666667,2|0|0,1:2|1:2|1:2,0:0:0:0:
106,248,32155,1,0,1:2:0:0:
93,250,32265,2,0,P|46:261|-11:295,1,74.6666666666667,0|0,1:2|1:2,0:0:0:0:
9,100,32484,5,0,1:2:0:0:
22,112,32594,2,0,P|56:126|93:134,1,74.6666666666667,0|0,1:2|1:2,0:0:0:0:
196,203,32814,2,0,B|208:242|208:242|188:315,2,74.6666666666667,0|0|0,1:2|1:2|1:2,0:0:0:0:
203,63,33143,5,0,1:2:0:0:
218,22,33253,1,0,1:2:0:0:
260,14,33363,1,0,1:2:0:0:
297,35,33473,2,0,P|304:90|289:130,1,74.6666666666667,0|0,1:2|1:2,0:0:0:0:
272,188,33693,1,0,1:0:0:0:
270,198,33802,6,0,L|178:204,2,74.6666666666667,0|0|0,1:2|1:2|1:2,0:0:0:0:
141,149,34132,1,8,0:0:0:0:
409,47,34461,6,0,B|437:80|437:80|419:229,1,146.999995513916,6|0,1:2|0:0,0:0:0:0:
416,260,34791,2,0,L|403:400,1,97.9999970092774,10|0,0:2|0:0,0:0:0:0:
224,91,35120,1,2,1:2:0:0:
115,342,35285,2,0,P|164:337|213:335,1,97.9999970092774,2|8,1:2|0:0,0:0:0:0:
16,68,35615,1,2,0:0:0:0:
251,176,35779,5,0,1:0:0:0:
15,270,35944,1,2,0:0:0:0:
119,17,36109,1,8,0:0:0:0:
291,262,36274,2,0,P|242:257|194:255,1,97.9999970092774,2|0,0:0|1:0,0:0:0:0:
450,199,36603,1,0,1:0:0:0:
392,367,36768,1,10,0:0:0:0:
392,367,36850,1,8,0:0:0:0:
392,367,36933,2,0,L|394:283,1,48.9999985046387,8|8,0:0|0:0,0:0:0:0:
443,58,37097,6,0,B|390:63|390:63|360:90|360:90|279:100,1,146.999995513916,6|0,1:2|0:0,0:0:0:0:
253,155,37427,2,0,L|129:146,1,97.9999970092774,10|0,0:2|0:0,0:0:0:0:
305,220,37756,1,0,1:2:0:0:
124,221,37921,2,0,P|77:165|90:115,1,97.9999970092774,2|8,1:2|0:2,0:0:0:0:
198,30,38251,1,0,0:0:0:0:
79,294,38415,6,0,B|132:300|132:300|162:327|162:327|243:337,1,146.999995513916,2|0,1:2|0:0,0:0:0:0:
282,370,38745,2,0,L|385:363,1,97.9999970092774,8|2,0:2|0:0,0:0:0:0:
462,89,39074,1,8,1:2:0:0:
424,59,39156,1,8,0:0:0:0:
376,60,39238,1,8,0:0:0:0:
340,92,39321,1,8,0:0:0:0:
334,139,39404,2,0,L|343:212,1,48.9999985046387,4|4,0:3|0:3,0:0:0:0:
405,267,39568,2,0,L|414:194,1,48.9999985046387,4|4,0:3|0:3,0:0:0:0:
311,25,39733,6,0,B|255:20|255:20|221:42|221:42|142:37,1,146.999995513916,6|0,1:2|0:0,0:0:0:0:
111,86,40063,2,0,L|125:214,1,97.9999970092774,10|0,0:2|0:0,0:0:0:0:
142,384,40392,1,2,1:2:0:0:
405,267,40557,2,0,P|355:230|289:247,1,97.9999970092774,2|8,1:2|0:2,0:0:0:0:
61,273,40886,1,2,0:0:0:0:
241,92,41051,5,0,1:2:0:0:
208,315,41216,1,2,0:0:0:0:
32,88,41381,1,8,0:2:0:0:
0,354,41545,2,0,P|63:363|112:370,1,97.9999970092774,2|0,0:0|1:2,0:0:0:0:
300,152,41875,1,0,1:2:0:0:
32,88,42040,1,10,0:0:0:0:
28,121,42122,1,8,0:0:0:0:
25,155,42204,1,8,0:0:0:0:
21,189,42287,1,8,0:0:0:0:
18,223,42369,6,0,B|82:224|82:224|101:238|101:238|187:241,1,146.999995513916,6|0,1:2|0:0,0:0:0:0:
222,287,42699,2,0,L|335:278,1,97.9999970092774,10|0,0:2|0:0,0:0:0:0:
399,91,43028,1,0,1:2:0:0:
366,344,43193,2,0,P|398:289|383:243,1,97.9999970092774,2|8,1:2|0:2,0:0:0:0:
269,88,43522,1,0,0:0:0:0:
161,353,43687,5,10,0:2:0:0:
161,353,43769,1,8,0:2:0:0:
161,353,43852,2,0,L|85:345,1,48.9999985046387,4|4,0:3|0:3,0:0:0:0:
70,135,44017,1,8,0:2:0:0:
70,135,44099,1,8,0:2:0:0:
70,135,44182,2,0,L|146:127,1,48.9999985046387,4|4,0:3|0:3,0:0:0:0:
370,102,44346,2,0,L|362:183,3,48.9999985046387,8|8|4|4,0:2|0:2|0:3|0:3,0:0:0:0:
346,314,44676,1,8,0:2:0:0:
311,313,44758,1,8,0:2:0:0:
276,315,44840,1,4,0:3:0:0:
241,316,44923,1,4,0:3:0:0:
206,319,45005,6,0,B|137:321|137:321|141:316|141:316|38:321,1,146.999995513916,14|0,1:2|0:0,0:0:0:0:
13,371,45335,2,0,P|-2:297|32:259,1,97.9999970092774,10|0,0:2|0:0,0:0:0:0:
83,43,45664,5,10,0:2:0:0:
206,319,45829,1,2,1:2:0:0:
179,17,45994,5,8,0:2:0:0:
69,318,46158,1,2,1:2:0:0:
274,24,46323,6,0,P|290:102|305:151,1,97.9999970092774,8|2,0:2|0:0,0:0:0:0:
61,322,46652,2,0,P|73:274|81:226,1,97.9999970092774,8|0,0:2|0:0,0:0:0:0:
342,358,46982,5,8,0:2:0:0:
178,91,47147,1,0,1:0:0:0:
178,91,47229,1,0,1:0:0:0:
178,91,47311,5,10,0:2:0:0:
239,349,47476,1,0,1:0:0:0:
376,51,47641,6,0,P|467:71|511:73,1,97.9999970092774,10|2,0:2|1:2,0:0:0:0:
351,366,47970,5,10,1:2:0:0:
251,45,48135,1,2,1:2:0:0:
142,373,48300,5,8,1:2:0:0:
409,174,48465,2,0,P|355:185|317:199,1,48.9999985046387,2|0,1:2|1:0,0:0:0:0:
70,248,48629,5,8,1:2:0:0:
386,280,48794,1,2,1:2:0:0:
118,88,48959,5,8,1:2:0:0:
233,340,49124,1,2,1:2:0:0:
347,59,49288,5,8,1:2:0:0:
236,365,49453,1,2,1:2:0:0:
53,19,49618,6,0,P|137:6|175:0,1,97.9999970092774,8|2,1:2|1:2,0:0:0:0:
211,62,49865,1,0,1:0:0:0:
211,62,49947,5,8,0:2:0:0:
121,328,50112,1,0,1:0:0:0:
6,108,50277,5,10,1:2:0:0:
189,141,51430,5,10,1:2:0:0:
155,328,51595,1,10,1:2:0:0:
235,249,52748,5,10,1:2:0:0:
24,286,52913,1,10,1:2:0:0:
204,132,53407,5,10,1:2:0:0:
259,331,53572,1,10,1:2:0:0:
272,62,54066,5,10,1:2:0:0:
213,265,54231,1,10,1:2:0:0:
204,16,54725,5,10,1:2:0:0:
285,212,54890,1,10,1:2:0:0:
154,108,55384,5,8,1:2:0:0:
136,361,55549,5,6,1:2:0:0:
166,336,55631,1,0,1:0:0:0:
182,298,55713,1,0,1:0:0:0:
175,258,55796,1,0,1:0:0:0:
150,225,55878,1,10,1:2:0:0:
112,211,55960,1,0,1:0:0:0:
73,216,56043,1,0,1:0:0:0:
42,241,56125,1,0,1:0:0:0:
26,277,56208,5,10,1:2:0:0:
70,295,56289,1,0,1:0:0:0:
123,291,56371,1,0,1:0:0:0:
168,261,56454,1,0,1:0:0:0:
193,214,56537,1,10,1:2:0:0:
191,161,56620,1,0,1:0:0:0:
164,115,56702,1,0,1:0:0:0:
118,88,56784,1,0,1:0:0:0:
64,87,56866,5,14,1:2:0:0:
74,144,56948,1,0,1:0:0:0:
117,183,57030,1,0,1:0:0:0:
175,190,57113,1,0,1:0:0:0:
226,161,57195,1,10,1:2:0:0:
274,126,57278,1,0,1:0:0:0:
333,125,57361,1,0,1:0:0:0:
382,156,57443,1,0,1:0:0:0:
403,210,57525,6,0,P|398:264|396:315,1,56,10|0,1:2|0:0,0:0:0:0:
322,326,57691,1,0,1:0:0:0:
287,323,57773,1,0,1:0:0:0:
253,321,57855,1,10,1:2:0:0:
220,317,57938,1,0,1:0:0:0:
185,315,58020,2,0,L|180:378,1,56,0|0,1:0|1:0,0:0:0:0:
36,250,58185,6,0,B|99:274|132:232|100:212|153:176|222:206,1,195.999994018555,6|10,1:2|0:2,0:0:0:0:
447,283,58679,1,0,1:0:0:0:
447,283,58761,1,0,1:0:0:0:
447,283,58843,1,2,1:2:0:0:
286,111,59008,1,2,1:2:0:0:
501,183,59173,1,8,0:2:0:0:
324,348,59338,1,2,1:2:0:0:
324,348,59420,1,0,1:0:0:0:
324,348,59503,6,0,P|314:277|304:228,1,97.9999970092774,0|2,1:2|0:0,0:0:0:0:
250,24,59832,1,8,0:2:0:0:
174,275,59997,1,2,1:2:0:0:
174,275,60079,1,0,1:0:0:0:
174,275,60161,1,0,1:2:0:0:
378,132,60326,1,0,1:2:0:0:
76,57,60491,1,10,0:0:0:0:
75,86,60573,1,8,0:0:0:0:
72,115,60656,1,8,0:0:0:0:
69,144,60738,1,8,0:0:0:0:
66,173,60821,6,0,B|147:175|147:175|171:192|171:192|279:199,1,195.999994018555,6|10,1:2|0:2,0:0:0:0:
491,222,61315,1,0,1:0:0:0:
491,222,61397,1,0,1:0:0:0:
491,222,61479,1,0,1:2:0:0:
297,384,61644,2,0,P|289:321|273:255,1,97.9999970092774,2|8,1:2|0:2,0:0:0:0:
383,33,61974,1,0,1:0:0:0:
383,33,62056,1,0,1:0:0:0:
383,33,62138,6,0,P|412:104|385:150,1,97.9999970092774,2|0,1:2|1:0,0:0:0:0:
366,302,62468,1,8,0:2:0:0:
243,68,62633,1,2,1:2:0:0:
243,68,62715,1,0,0:0:0:0:
243,68,62797,6,0,L|155:63,1,48.9999985046387,8|8,0:2|0:0,0:0:0:0:
52,161,62962,1,8,0:0:0:0:
81,159,63044,1,8,0:0:0:0:
110,157,63127,1,4,0:3:0:0:
139,155,63209,1,4,0:3:0:0:
168,153,63291,2,0,L|171:230,1,48.9999985046387,4|4,0:3|0:3,0:0:0:0:
3,354,63456,6,0,B|39:321|90:328|90:328|123:383|213:357,1,195.999994018555,6|10,1:2|0:2,0:0:0:0:
310,108,63950,1,0,1:0:0:0:
310,108,64033,1,0,1:0:0:0:
310,108,64115,1,2,1:2:0:0:
368,367,64280,1,2,1:2:0:0:
169,201,64445,2,0,P|120:207|65:213,1,97.9999970092774,8|2,0:2|1:2,0:0:0:0:
41,243,64692,5,0,1:0:0:0:
41,243,64774,1,0,1:2:0:0:
163,45,64939,1,2,1:2:0:0:
236,308,65104,1,8,0:2:0:0:
13,165,65268,1,2,1:2:0:0:
13,165,65351,1,0,1:0:0:0:
13,165,65433,2,0,P|-3:97|33:58,1,97.9999970092774,0|0,1:2|1:2,0:0:0:0:
338,31,65763,1,10,0:0:0:0:
335,60,65845,1,8,0:0:0:0:
332,89,65927,1,8,0:0:0:0:
329,118,66010,1,8,0:0:0:0:
326,147,66092,6,0,B|386:184|425:149|395:122|458:91|525:140,1,195.999994018555,6|10,1:2|0:2,0:0:0:0:
253,59,66586,1,0,1:3:0:0:
253,59,66669,1,0,1:3:0:0:
253,59,66751,1,0,1:2:0:0:
358,297,66916,1,2,1:2:0:0:
512,39,67081,2,0,P|442:35|393:29,1,97.9999970092774,8|0,0:2|1:0,0:0:0:0:
92,40,67410,6,8,P|94:56|95:103,2,39.199998803711,8|8|8,3:2|3:2|3:2,3:2:0:0:
48,200,67681,2,0,P|54:180|56:164,5,32.6666656697591,4|0|0|0|0|0,3:3|3:2|3:2|3:2|3:2|3:2,3:2:0:0:
132,172,68039,2,0,P|138:188|152:232,5,32.6666656697591,4|0|0|0|0|0,3:3|3:2|3:2|3:2|3:2|3:2,3:2:0:0:
96,272,68402,1,8,0:0:0:0:
460,36,68732,6,0,P|476:118|491:173,1,112,6|0,1:2|1:0,0:0:0:0:
241,324,69062,2,0,P|254:269|264:214,1,112,10|0,0:2|1:0,0:0:0:0:
473,344,69391,5,10,0:2:0:0:
283,79,69556,1,2,1:2:0:0:
319,369,69721,5,8,0:2:0:0:
371,53,69885,1,2,1:2:0:0:
156,364,70050,6,0,P|83:361|49:296,1,112,8|2,0:2|1:2,0:0:0:0:
87,23,70380,2,0,P|182:46|231:47,1,112,8|0,0:2|1:0,0:0:0:0:
319,369,70709,5,8,0:2:0:0:
453,70,70874,1,0,1:0:0:0:
459,355,71038,5,10,0:2:0:0:
326,52,71203,1,0,1:0:0:0:
326,52,71286,1,0,1:0:0:0:
326,52,71368,5,10,0:2:0:0:
238,333,71533,2,0,P|159:365|103:322,1,112,2|10,1:2|1:2,0:0:0:0:
37,35,71862,1,2,1:2:0:0:
37,35,71945,1,0,1:2:0:0:
37,35,72027,5,8,1:2:0:0:
289,188,72192,1,2,1:2:0:0:
21,249,72356,5,8,1:2:0:0:
190,29,72521,2,0,P|195:85|198:110,1,56,2|0,1:2|1:2,0:0:0:0:
241,339,72686,5,8,1:2:0:0:
108,76,72851,1,2,1:2:0:0:
45,372,73015,5,8,1:2:0:0:
309,148,73180,1,2,1:2:0:0:
309,148,73263,1,0,1:2:0:0:
309,148,73345,5,8,1:2:0:0:
12,121,73510,1,2,1:2:0:0:
250,351,73674,2,0,P|264:275|276:225,1,112,8|0,0:2|1:0,0:0:0:0:
74,38,74004,6,0,L|-1:31,2,74.6666666666667,4|4|4,1:3|1:3|1:3,0:0:0:0:
9,202,74333,1,4,1:3:0:0:
0,193,74443,2,0,P|9:105|10:82,1,74.6666666666667,4|4,1:3|1:3,0:0:0:0:
121,348,74663,5,12,1:2:0:0:
