osu file format v14

[General]
AudioFilename: audio.mp3
AudioLeadIn: 0
PreviewTime: 34389
Countdown: 0
SampleSet: Soft
StackLeniency: 0.7
Mode: 2
LetterboxInBreaks: 0
WidescreenStoryboard: 1

[Editor]
Bookmarks: 2830,8102,13374,18646,23928,34451,44994,50272,55548,58183,68732,74662
DistanceSpacing: 1.1
BeatDivisor: 4
GridSize: 32
TimelineZoom: 4.099998

[Metadata]
Title:Mighty Morphin Power Rangers
TitleUnicode:Mighty Morphin Power Rangers
Artist:Alakrity
ArtistUnicode:Alakrity
Creator:-Aku
Version:Rain
Source:Mighty Morphin Power Rangers
Tags:Ascendance -Doodle Kimitakari Nelly overranked bad_mapper SangKrazF1nal3 SangKrazFinale Summerleopard english heavy metal theme song opening op rock MMPR Whatever Happened To Good TV? Television Alacrity
BeatmapID:4053640
BeatmapSetID:1914137

[Difficulty]
HPDrainRate:5
CircleSize:3.7
OverallDifficulty:9
ApproachRate:9
SliderMultiplier:1.94
SliderTickRate:2

[Events]
//Background and Video events
0,0,"BG.jpg",0,0
//Break Periods
//Storyboard Layer 0 (Background)
//Storyboard Layer 1 (Fail)
//Storyboard Layer 2 (Pass)
//Storyboard Layer 3 (Foreground)
//Storyboard Layer 4 (Overlay)
//Storyboard Sound Samples

[TimingPoints]
195,329.489291598023,4,2,1,60,1,0
1677,-133.333333333333,4,2,1,60,0,0
2830,-100,4,2,1,50,0,0
8102,-100,4,2,1,60,0,0
8431,-100,4,2,1,40,0,0
8761,-100,4,2,1,45,0,0
9420,-100,4,2,1,50,0,0
10079,-100,4,2,1,55,0,0
10738,-100,4,2,1,60,0,0
11397,-100,4,2,1,65,0,0
12056,-100,4,2,1,70,0,0
13374,-100,4,2,1,60,0,0
17328,-100,4,2,1,70,0,0
21282,-100,4,2,1,60,0,0
23928,329.489291598023,4,2,1,70,1,0
31835,-100,4,2,1,60,0,0
34142,-100,4,2,1,70,0,0
34471,-100,4,2,1,80,0,0
45015,-100,4,2,1,80,0,1
50272,329.489291598023,4,2,1,70,1,0
51425,-100,4,2,1,60,0,0
55548,329.489291598023,4,2,1,60,1,0
55712,-100,4,2,1,40,0,0
55877,-100,4,2,1,45,0,0
56206,-100,4,2,1,50,0,0
56536,-100,4,2,1,55,0,0
56865,-100,4,2,1,60,0,0
57195,-100,4,2,1,65,0,0
57524,-100,4,2,1,70,0,0
57854,-100,4,2,1,75,0,0
58183,-100,4,2,1,80,0,0
67428,329.489291598023,4,2,1,70,1,0
67681,352.941176470588,4,2,1,70,1,0
68039,363.636363636364,4,2,1,70,1,0
68732,329.489291598023,4,2,1,80,1,1
74003,-100,4,2,1,70,0,0

[Colours]
Combo1 : 225,202,66
Combo2 : 219,57,49
Combo3 : 215,87,160
Combo4 : 84,113,226

[HitObjects]
382,372,195,6,0,L|382:276,1,97,2|0,2:0|2:0,2:0:0:0:
217,253,524,2,0,L|217:157,1,97,2|0,2:0|2:0,2:0:0:0:
314,110,853,1,2,2:0:0:0:
149,5,1018,2,0,L|277:5,1,97,2|0,2:0|2:0,2:0:0:0:
412,69,1348,1,2,2:0:0:0:
136,378,1677,2,0,P|25:203|137:30,1,436.500000000001,2|0,2:0|2:0,2:0:0:0:
383,301,2830,6,0,L|479:301,1,97,4|0,1:2|2:0,2:0:0:0:
383,301,3160,2,0,L|287:301,1,97,2|0,2:0|2:0,2:0:0:0:
121,227,3489,2,0,L|121:131,1,97,0|0,2:0|2:0,2:0:0:0:
219,143,3819,2,0,L|219:47,1,97,2|0,2:0|2:0,2:0:0:0:
54,327,4148,6,0,L|150:327,1,97,0|0,2:0|2:0,2:0:0:0:
248,327,4478,2,0,L|151:327,1,97,2|0,2:0|2:0,2:0:0:0:
316,223,4807,2,0,L|412:223,1,97,0|0,2:0|2:0,2:0:0:0:
316,223,5137,2,0,L|316:127,1,97,2|0,2:0|2:0,2:0:0:0:
151,15,5466,6,0,L|23:15,1,97,0|0,2:0|2:0,2:0:0:0:
151,15,5796,2,0,L|247:15,1,97,2|0,2:0|2:0,2:0:0:0:
413,149,6125,2,0,L|413:245,1,97,0|0,2:0|2:0,2:0:0:0:
315,361,6455,2,0,L|219:361,1,97,2|0,2:0|2:0,2:0:0:0:
383,172,6784,6,0,L|287:172,1,97,0|0,2:0|2:0,2:0:0:0:
189,172,7114,2,0,L|285:172,1,97,2|0,2:0|2:0,2:0:0:0:
121,23,7443,2,0,L|25:23,1,97,0|0,2:0|2:0,2:0:0:0:
121,23,7773,2,0,L|121:119,1,97,2|0,2:0|2:0,2:0:0:0:
383,319,8102,6,0,B|480:319|480:319|383:319,1,194,4|8,1:0|1:2,2:0:0:0:
334,280,8514,2,0,L|270:280,1,48.5,0|0,3:0|3:0,2:0:0:0:
237,237,8679,1,0,3:0:0:0:
324,152,8761,2,0,L|420:152,1,97,8|0,1:2|3:0,2:0:0:0:
255,34,9091,2,0,L|191:34,2,48.5,8|0|0,1:2|3:0|3:0,2:0:0:0:
488,115,9420,6,0,L|488:211,1,97,8|0,1:2|3:0,2:0:0:0:
439,237,9667,1,0,3:0:0:0:
390,257,9750,2,0,L|390:385,1,97,8|0,1:2|3:0,2:0:0:0:
215,302,10079,2,0,L|151:302,1,48.5,8|0,1:2|3:0,2:0:0:0:
118,249,10244,1,0,3:0:0:0:
293,164,10409,2,0,L|357:164,2,48.5,8|0|0,1:2|3:0|3:0,2:0:0:0:
60,189,10738,6,0,L|60:93,1,97,8|0,1:2|3:0,2:0:0:0:
109,74,10985,1,0,3:0:0:0:
158,51,11068,2,0,L|158:147,1,97,8|0,1:2|3:0,2:0:0:0:
333,246,11397,2,0,L|333:310,1,48.5,8|0,1:2|3:0,2:0:0:0:
269,308,11562,2,0,L|269:372,1,48.5,0|0,3:0|3:0,2:0:0:0:
421,353,11727,2,0,L|485:353,1,48.5,8|0,1:2|3:0,2:0:0:0:
469,353,11891,2,0,L|421:353,1,48.5,0|0,3:0|3:0,2:0:0:0:
269,178,12056,6,0,L|205:178,1,48.5,8|0,1:2|3:0,2:0:0:0:
172,144,12221,2,0,L|108:144,1,48.5,0|0,3:0|3:0,2:0:0:0:
275,48,12386,1,8,1:2:0:0:
401,101,12550,2,0,L|337:101,1,48.5,0|0,3:0|3:0,2:0:0:0:
168,246,12715,2,0,L|72:246,1,97,8|0,2:0|1:0,2:0:0:0:
306,382,13045,2,0,L|210:382,1,97,14|0,1:2|1:0,2:0:0:0:
112,382,13374,6,0,L|208:382,1,97,0|0,2:0|2:0,2:0:0:0:
375,303,13704,2,0,L|375:207,1,97,10|0,1:3|2:0,2:0:0:0:
278,133,14033,1,0,2:0:0:0:
443,27,14198,2,0,L|443:123,1,97,2|8,2:3|1:3,2:0:0:0:
346,200,14527,1,0,2:0:0:0:
181,322,14692,6,0,L|85:322,2,97,2|0|8,2:0|2:0|1:3,2:0:0:0:
346,242,15186,2,0,L|442:242,2,97,2|0|0,2:0|2:0|2:0,2:0:0:0:
249,181,15680,1,10,1:3:0:0:
414,135,15845,1,2,2:0:0:0:
317,97,16010,6,0,L|317:1,1,97,0|0,2:0|2:0,2:0:0:0:
482,269,16339,2,0,L|386:269,1,97,10|0,1:3|2:0,2:0:0:0:
287,347,16669,1,0,2:0:0:0:
452,227,16834,2,0,L|452:324,1,97,2|8,2:0|1:3,2:0:0:0:
355,384,17163,1,0,2:0:0:0:
112,272,17328,6,0,L|16:272,2,97,8|0|8,1:2|1:0|1:3,2:0:0:0:
277,198,17822,1,6,2:3:0:0:
112,104,17987,2,0,L|48:104,2,48.5,8|0|0,1:2|2:0|1:0,2:0:0:0:
345,0,18316,1,10,1:2:0:0:
180,37,18481,1,2,1:2:0:0:
442,111,18646,6,0,L|442:207,1,97,4|0,1:0|2:0,2:0:0:0:
277,311,18975,2,0,L|373:311,1,97,10|0,1:2|2:0,2:0:0:0:
472,375,19305,1,0,1:0:0:0:
307,187,19470,2,0,L|211:187,1,97,2|8,1:2|1:2,2:0:0:0:
113,123,19799,1,0,2:0:0:0:
278,13,19964,6,0,L|278:141,1,97,2|0,1:2|1:0,2:0:0:0:
181,172,20293,1,8,1:2:0:0:
346,317,20458,2,0,L|442:317,2,97,2|0|0,2:0|1:0|1:0,2:0:0:0:
181,374,20952,1,10,1:2:0:0:
414,226,21117,1,2,2:0:0:0:
317,163,21282,6,0,L|317:67,1,97,4|0,2:3|2:0,2:0:0:0:
414,108,21611,2,0,L|414:12,1,97,2|0,2:0|2:0,2:0:0:0:
316,32,21941,1,0,2:0:0:0:
151,204,22106,2,0,L|55:204,2,97,2|8|8,2:0|2:3|2:3,2:0:0:0:
394,304,22600,6,0,L|330:304,1,48.5,2|8,1:0|2:0,2:0:0:0:
296,352,22765,2,0,L|232:352,1,48.5,8|8,2:0|2:0,2:0:0:0:
199,317,22929,1,8,2:3:0:0:
432,210,23094,2,0,L|432:146,1,48.5,10|8,2:0|2:0,2:0:0:0:
368,150,23259,2,0,L|368:86,1,48.5,8|8,2:0|2:0,2:0:0:0:
431,73,23423,1,8,2:3:0:0:
266,0,23588,2,0,L|202:0,1,48.5,6|4,2:3|2:3,2:0:0:0:
266,0,23753,2,0,L|314:0,1,48.5,4|4,2:3|2:3,2:0:0:0:
129,145,23928,5,6,1:0:0:0:
81,137,24010,1,2,2:0:0:0:
129,145,24092,1,2,1:2:0:0:
294,222,24257,2,0,L|294:286,1,48.5,10|2,1:2|2:0,2:0:0:0:
245,319,24422,2,0,L|181:319,1,48.5,2|2,2:0|2:0,2:0:0:0:
348,384,24586,2,0,L|444:384,1,97,2|2,1:2|1:2,2:0:0:0:
212,163,24916,2,0,L|116:163,1,97,10|2,1:2|2:0,2:0:0:0:
359,34,25245,6,0,L|359:131,1,97,2|2,1:2|1:2,2:0:0:0:
310,171,25493,1,2,2:0:0:0:
262,214,25575,2,0,L|358:214,1,97,10|2,1:2|2:0,2:0:0:0:
193,349,25904,2,0,L|129:349,1,48.5,2|2,1:2|2:0,2:0:0:0:
96,306,26069,1,2,1:2:0:0:
329,252,26234,2,0,L|393:252,2,48.5,10|2|0,1:2|2:0|2:0,2:0:0:0:
85,85,26563,6,0,L|181:85,1,97,2|2,1:2|1:2,2:0:0:0:
231,124,26811,1,2,2:0:0:0:
381,213,26893,2,0,L|445:213,1,48.5,10|2,1:2|2:0,2:0:0:0:
429,213,27058,2,0,L|381:213,1,48.5,2|2,2:0|2:0,2:0:0:0:
229,311,27222,2,0,L|165:311,1,48.5,2|2,1:2|2:0,2:0:0:0:
132,280,27387,1,2,1:2:0:0:
365,52,27552,2,0,L|429:52,1,48.5,10|2,1:2|2:0,2:0:0:0:
462,83,27717,1,2,2:0:0:0:
218,135,27881,6,0,L|218:199,1,48.5,12|8,1:2|2:0,2:0:0:0:
281,202,28046,2,0,L|281:266,1,48.5,0|0,1:0|1:3,2:0:0:0:
218,285,28211,1,8,2:3:0:0:
383,346,28376,1,4,2:3:0:0:
150,324,28540,2,0,L|214:324,1,48.5,12|8,1:2|2:0,2:0:0:0:
247,296,28705,2,0,L|311:296,1,48.5,0|0,1:0|1:0,2:0:0:0:
344,262,28870,1,8,2:3:0:0:
179,195,29035,1,4,2:3:0:0:
441,141,29199,6,0,L|441:45,1,97,6|2,1:0|1:2,2:0:0:0:
392,64,29446,1,2,2:0:0:0:
344,81,29529,2,0,L|344:177,1,97,10|2,1:2|2:0,2:0:0:0:
109,283,29858,2,0,L|205:283,1,97,2|2,1:2|1:2,2:0:0:0:
439,346,30188,2,0,L|439:218,1,97,10|2,1:2|2:0,2:0:0:0:
195,175,30517,5,2,1:2:0:0:
292,105,30682,2,0,L|356:105,2,48.5,2|2|10,1:2|2:0|1:2,2:0:0:0:
194,53,31012,1,2,2:0:0:0:
435,237,31176,2,0,L|435:301,1,48.5,2|2,1:2|2:0,2:0:0:0:
386,325,31341,2,0,L|322:325,1,48.5,2|2,1:2|2:0,2:0:0:0:
186,252,31506,2,0,L|90:252,1,97,10|0,1:2|2:0,2:0:0:0:
351,60,31835,6,0,L|415:60,2,64.6666666666667,6|0|0,1:2|1:0|1:0,2:0:0:0:
253,141,32165,2,0,L|189:141,2,64.6666666666667,0|0|0,1:0|1:0|1:0,2:0:0:0:
350,218,32494,2,0,L|350:282,1,64.6666666666667,0|0,1:0|1:0,2:0:0:0:
285,336,32714,1,0,1:0:0:0:
188,244,32824,2,0,L|284:244,1,64.6666666666667,0|0,1:0|1:0,2:0:0:0:
318,194,33043,1,0,1:0:0:0:
414,142,33153,6,0,L|414:46,1,64.6666666666667,0|0,1:0|1:0,2:0:0:0:
349,28,33373,1,0,1:0:0:0:
252,125,33483,2,0,L|252:61,1,64.6666666666667,0|0,1:0|1:0,2:0:0:0:
317,7,33702,1,0,1:0:0:0:
221,140,33812,2,0,L|152:140,2,64.6666666666667,0|0|0,1:0|1:0|1:0,2:0:0:0:
404,272,34142,1,12,1:2:0:0:
133,367,34471,6,0,L|-27:367,1,97,6|0,1:0|2:0,2:0:0:0:
202,280,34801,2,0,L|330:280,1,97,10|0,1:2|2:0,2:0:0:0:
66,156,35130,1,2,1:2:0:0:
231,10,35295,2,0,L|231:106,1,97,2|8,1:2|1:2,2:0:0:0:
65,189,35624,2,0,L|65:285,1,97,2|0,2:0|1:0,2:0:0:0:
308,373,35954,6,0,B|405:373|405:373|308:373,1,194,2|0,2:0|2:0,2:0:0:0:
211,320,36448,2,0,L|211:224,1,97,0|0,1:0|1:0,2:0:0:0:
446,129,36778,2,0,L|510:129,1,48.5,8|8,1:2|2:0,2:0:0:0:
494,129,36942,2,0,L|446:129,1,48.5,8|8,2:0|2:0,2:0:0:0:
263,40,37107,6,0,L|39:40,1,194,6|8,1:2|1:2,2:0:0:0:
167,132,37601,1,0,2:0:0:0:
331,197,37766,2,0,L|331:293,1,97,0|0,1:2|1:0,2:0:0:0:
165,358,38096,2,0,L|261:358,1,97,8|0,1:2|2:0,2:0:0:0:
19,294,38425,6,0,L|19:198,1,97,2|0,1:2|2:0,2:0:0:0:
185,123,38755,2,0,L|89:123,1,97,8|0,1:2|2:0,2:0:0:0:
321,237,39084,2,0,L|385:237,1,48.5,4|8,1:2|2:0,2:0:0:0:
369,237,39249,2,0,L|305:237,1,48.5,8|8,2:0|2:0,2:0:0:0:
169,244,39413,2,0,L|169:292,1,48.5,8|8,1:2|2:3,2:0:0:0:
217,331,39578,2,0,L|281:331,1,48.5,4|4,2:3|2:3,2:0:0:0:
451,266,39743,6,0,L|451:170,1,97,6|0,1:0|2:0,2:0:0:0:
285,83,40072,2,0,L|189:83,1,97,10|0,1:2|2:0,2:0:0:0:
421,1,40402,1,2,1:2:0:0:
256,107,40567,2,0,L|256:203,1,97,2|8,1:2|1:2,2:0:0:0:
421,306,40896,2,0,L|325:306,1,97,2|0,2:0|1:0,2:0:0:0:
80,268,41226,6,0,B|80:171|80:171|208:171,1,194,2|0,2:0|2:0,2:0:0:0:
274,65,41720,2,0,L|178:65,1,97,0|0,1:2|1:0,2:0:0:0:
412,266,42049,2,0,L|476:266,1,48.5,8|8,1:2|2:0,2:0:0:0:
412,266,42214,2,0,L|348:266,1,48.5,8|8,2:0|2:0,2:0:0:0:
178,377,42379,6,0,B|81:377|81:377|178:377,1,194,6|8,1:2|1:2,2:0:0:0:
275,338,42873,1,0,2:0:0:0:
110,232,43038,2,0,L|110:136,1,97,0|0,1:0|1:0,2:0:0:0:
276,47,43367,2,0,L|372:47,1,97,8|0,1:2|2:0,2:0:0:0:
130,160,43697,6,0,L|130:224,1,48.5,8|8,1:2|2:0,2:0:0:0:
194,243,43862,2,0,L|194:307,1,48.5,0|0,1:0|1:0,2:0:0:0:
130,342,44026,2,0,L|34:342,1,97,8|0,1:2|1:0,2:0:0:0:
266,279,44356,2,0,L|330:279,2,48.5,8|8|0,1:2|2:0|1:0,2:0:0:0:
31,124,44685,2,0,L|95:124,1,48.5,8|8,1:2|2:0,2:0:0:0:
128,80,44850,2,0,L|192:80,1,48.5,8|8,2:0|2:0,2:0:0:0:
362,163,45015,6,0,L|458:163,1,97,14|0,1:2|2:0,2:0:0:0:
293,352,45344,2,0,L|182:352,1,97,10|0,1:2|2:0,2:0:0:0:
429,139,45674,1,10,1:2:0:0:
264,11,45839,2,0,L|264:107,1,97,2|8,1:2|1:2,2:0:0:0:
429,209,46168,2,0,L|429:305,1,97,2|8,1:2|1:2,2:0:0:0:
185,280,46498,6,0,L|89:280,2,97,2|8|0,2:0|1:2|2:0,2:0:0:0:
350,159,46992,1,8,1:2:0:0:
253,67,47156,2,0,L|186:67,1,48.5,0|0,1:0|1:0,2:0:0:0:
354,241,47321,2,0,L|450:241,1,97,10|0,1:2|1:0,2:0:0:0:
216,366,47651,5,10,1:2:0:0:
119,312,47815,2,0,L|119:216,1,97,2|8,1:2|1:2,2:0:0:0:
284,139,48145,2,0,L|380:139,1,97,2|8,1:2|1:2,2:0:0:0:
146,28,48474,2,0,L|82:28,2,48.5,2|0|8,1:2|1:0|1:2,2:0:0:0:
389,129,48804,6,0,L|389:225,1,97,2|8,1:2|1:2,2:0:0:0:
223,264,49133,2,0,L|223:142,1,97,2|8,1:2|1:2,2:0:0:0:
456,351,49463,2,0,L|353:351,1,97,2|8,1:2|1:2,2:0:0:0:
193,56,49792,2,0,L|254:56,1,48.5,2|0,1:2|1:0,2:0:0:0:
391,191,49957,1,12,1:2:0:0:
391,191,50122,1,0,1:0:0:0:
127,366,50272,6,0,P|15:226|128:86,1,388,8|0,1:2|2:0,2:0:0:0:
129,174,51425,1,10,1:2:0:0:
294,112,51589,1,10,1:2:0:0:
294,112,52743,1,10,1:2:0:0:
129,174,52907,1,10,1:2:0:0:
129,174,53402,1,10,1:2:0:0:
294,112,53566,1,10,1:2:0:0:
294,112,54061,1,10,1:2:0:0:
129,174,54225,1,10,1:2:0:0:
129,174,54720,1,10,1:2:0:0:
294,112,54884,1,10,1:2:0:0:
294,112,55379,1,10,1:2:0:0:
38,57,55548,6,0,L|38:153,1,97,6|8,1:0|2:0,2:0:0:0:
87,180,55795,1,8,2:0:0:0:
135,205,55877,2,0,L|135:301,1,97,10|8,1:2|2:0,2:0:0:0:
301,279,56206,2,0,L|397:279,1,97,10|8,1:2|2:0,2:0:0:0:
233,104,56536,2,0,L|137:104,1,97,10|8,1:2|2:0,2:0:0:0:
380,23,56865,6,0,L|444:23,2,48.5,10|8|8,1:2|2:0|2:0,2:0:0:0:
147,199,57195,2,0,L|147:263,1,48.5,4|8,1:2|2:0,2:0:0:0:
196,291,57360,2,0,L|260:291,1,48.5,8|8,2:0|2:0,2:0:0:0:
396,365,57524,2,0,L|460:365,1,48.5,4|8,1:2|2:0,2:0:0:0:
295,152,57689,2,0,L|231:152,1,48.5,8|8,2:0|2:0,2:0:0:0:
398,68,57854,2,0,L|462:68,1,48.5,8|8,1:2|2:3,2:0:0:0:
496,36,58019,1,4,2:3:0:0:
234,353,58183,6,0,L|138:353,1,97,6|0,1:0|1:0,2:0:0:0:
302,261,58513,2,0,L|398:261,1,97,10|0,1:2|1:0,2:0:0:0:
164,177,58842,1,2,1:2:0:0:
328,124,59007,2,0,L|328:-4,1,97,2|8,1:2|1:2,2:0:0:0:
162,50,59337,2,0,L|98:50,2,48.5,2|4|0,1:2|2:3|1:0,2:0:0:0:
405,153,59666,6,0,B|405:250|405:250|277:250,1,194,2|0,1:2|1:0,2:0:0:0:
259,300,60078,1,4,2:3:0:0:
308,348,60160,1,0,1:0:0:0:
405,384,60325,1,0,1:0:0:0:
172,163,60490,2,0,L|108:163,1,48.5,8|8,1:2|2:0,2:0:0:0:
75,117,60655,2,0,L|11:117,1,48.5,8|8,2:0|2:0,2:0:0:0:
212,19,60819,6,0,L|340:19,2,97,6|0|8,1:2|1:0|1:2,2:0:0:0:
115,144,61314,1,0,1:0:0:0:
280,242,61478,2,0,L|376:242,1,97,0|0,1:0|1:0,2:0:0:0:
212,281,61808,2,0,L|212:377,1,97,8|0,1:2|1:0,2:0:0:0:
455,317,62137,6,0,L|455:221,1,97,2|0,1:2|1:0,2:0:0:0:
289,106,62467,2,0,L|385:106,1,97,8|0,1:2|1:0,2:0:0:0:
337,154,62714,1,4,1:3:0:0:
187,238,62796,2,0,L|123:238,1,48.5,8|8,1:2|2:0,2:0:0:0:
138,238,62961,2,0,L|187:238,1,48.5,0|0,1:0|1:0,2:0:0:0:
339,350,63126,2,0,L|403:350,1,48.5,8|8,2:3|2:3,2:0:0:0:
436,350,63290,2,0,L|372:350,1,48.5,4|4,2:3|2:3,2:0:0:0:
204,277,63455,6,0,L|108:277,1,97,6|0,1:0|1:0,2:0:0:0:
273,144,63785,2,0,L|369:144,1,97,10|0,1:2|1:0,2:0:0:0:
137,20,64114,1,2,1:2:0:0:
302,100,64279,2,0,L|206:100,1,97,2|8,1:2|1:2,2:0:0:0:
39,150,64608,2,0,L|39:246,1,97,2|0,1:2|1:0,2:0:0:0:
282,346,64938,6,0,B|379:346|379:346|282:346,1,194,2|0,1:2|1:0,2:0:0:0:
233,322,65350,1,4,2:3:0:0:
185,293,65432,1,0,1:0:0:0:
282,236,65597,1,0,1:0:0:0:
49,161,65762,2,0,L|49:97,1,48.5,8|8,1:2|2:0,2:0:0:0:
98,74,65926,2,0,L|162:74,1,48.5,8|8,2:0|2:0,2:0:0:0:
330,13,66091,6,0,L|426:13,1,97,4|0,1:2|1:0,2:0:0:0:
261,111,66421,2,0,L|261:207,1,97,10|0,1:2|1:0,2:0:0:0:
310,236,66668,1,4,1:3:0:0:
358,267,66750,2,0,L|262:267,1,97,0|2,1:0|1:2,2:0:0:0:
94,369,67080,2,0,L|190:369,1,97,8|4,1:2|1:3,2:0:0:0:
240,378,67327,1,4,1:3:0:0:
409,134,67428,5,8,2:0:0:0:
448,117,67489,1,8,2:0:0:0:
409,86,67551,1,8,2:0:0:0:
275,19,67681,2,0,L|191:19,2,64.6666666666667,0|8|4,1:0|2:3|2:3,2:0:0:0:
307,54,67975,1,0,1:0:0:0:
341,87,68039,1,0,1:0:0:0:
470,212,68160,1,4,2:3:0:0:
425,238,68220,1,4,2:3:0:0:
379,264,68281,1,0,1:0:0:0:
198,215,68402,1,8,1:2:0:0:
470,365,68732,6,0,L|470:269,1,97,12|0,1:2|2:0,2:0:0:0:
305,90,69061,2,0,L|209:90,1,97,10|0,1:2|1:0,2:0:0:0:
441,9,69390,1,10,1:2:0:0:
276,49,69555,2,0,L|276:145,1,97,2|8,1:2|1:2,2:0:0:0:
442,200,69885,2,0,L|442:296,1,97,2|8,1:2|1:2,2:0:0:0:
199,286,70214,6,0,L|295:286,1,97,2|8,1:2|1:2,2:0:0:0:
394,243,70544,1,0,1:0:0:0:
162,30,70708,2,0,L|66:30,1,97,8|0,1:2|1:0,2:0:0:0:
300,155,71038,1,10,1:2:0:0:
397,101,71203,2,0,L|333:101,1,48.5,0|0,1:0|1:0,2:0:0:0:
199,208,71367,5,10,1:2:0:0:
102,364,71532,2,0,L|102:267,1,97,2|8,1:2|1:2,2:0:0:0:
337,294,71862,2,0,L|401:294,1,48.5,2|0,1:2|1:0,2:0:0:0:
434,258,72026,1,8,1:2:0:0:
269,126,72191,2,0,L|173:126,1,97,2|8,1:2|1:2,2:0:0:0:
416,1,72521,6,0,L|416:97,1,97,2|8,1:2|1:2,2:0:0:0:
251,240,72850,2,0,L|155:240,1,97,2|8,1:2|1:2,2:0:0:0:
389,356,73180,2,0,L|453:356,2,48.5,2|0|8,1:2|1:0|1:2,2:0:0:0:
146,114,73509,2,0,L|50:114,2,97,2|8|0,1:2|1:2|1:0,2:0:0:0:
389,24,74003,6,0,L|453:24,2,64.6666666666667,8|8|8,2:3|2:3|2:3,2:0:0:0:
291,204,74333,2,0,L|291:268,1,64.6666666666667,4|4,2:3|2:3,2:0:0:0:
356,304,74552,1,4,2:3:0:0:
162,374,74662,1,12,1:2:0:0:
