osu file format v14

[General]
AudioFilename: audio.mp3
AudioLeadIn: 0
PreviewTime: 58555
Countdown: 0
SampleSet: Normal
StackLeniency: 0.7
Mode: 1
LetterboxInBreaks: 0
WidescreenStoryboard: 1

[Editor]
Bookmarks: 13203
DistanceSpacing: 0.8
BeatDivisor: 8
GridSize: 32
TimelineZoom: 1.1

[Metadata]
Title:Chitei ni Saku Bara
TitleUnicode:地底に咲く薔薇
Artist:Akiyama Uni feat. JUN
ArtistUnicode:あきやまうに feat. JUN
Creator:CallMeLyra
Version:Futsuu
Source:東方憑依華 ~ Antinomy of Common Flowers.
Tags:a rose blooming in the underworld th15.5 koishi komeiji 古明地 こいし Palace of the Earth Spirits 地霊殿 Chireiden Twilight Frontier Tasofro 黄昏フロンティア U2 ZUN 東方project touhou hyouibana team shanghai alice Instrumental Video Game
BeatmapID:2811182
BeatmapSetID:1346268

[Difficulty]
HPDrainRate:7
CircleSize:5
OverallDifficulty:4
ApproachRate:5
SliderMultiplier:1.4
SliderTickRate:1

[Events]
//Background and Video events
0,0,"Chireiden Koishi.jpg",0,-100
//Break Periods
//Storyboard Layer 0 (Background)
//Storyboard Layer 1 (Fail)
//Storyboard Layer 2 (Pass)
//Storyboard Layer 3 (Foreground)
//Storyboard Layer 4 (Overlay)
//Storyboard Sound Samples

[TimingPoints]
612,483.870967741935,4,1,0,70,1,0
612,-181.818181818182,4,1,0,70,0,0
8293,-161.290322580645,4,1,0,70,0,0
8777,-166.666666666667,4,1,0,70,0,0
21841,-163.934426229508,4,1,0,70,0,0
22325,-156.25,4,1,0,70,0,0
22809,-151.515151515152,4,1,0,70,0,0
23051,-149.253731343284,4,1,0,70,0,0
23293,-147.058823529412,4,1,0,70,0,0
23777,-142.857142857143,4,1,0,70,0,0
24261,-166.666666666667,4,1,0,70,0,0
37325,-163.934426229508,4,1,0,70,0,0
37567,-161.290322580645,4,1,0,70,0,0
37809,-158.730158730159,4,1,0,70,0,0
38293,-151.515151515152,4,1,0,70,0,0
38535,-149.253731343284,4,1,0,70,0,0
38777,-147.058823529412,4,1,0,70,0,0
39261,-142.857142857143,4,1,0,70,0,0
56680,-140.845070422535,4,1,0,70,0,0
57164,-138.888888888889,4,1,0,70,0,0
57406,-136.986301369863,4,1,0,70,0,0
57648,-135.135135135135,4,1,0,70,0,0
58676,-125,4,1,0,70,0,1
65390,-123.456790123457,4,1,0,70,0,1
65753,-121.951219512195,4,1,0,70,0,1
66116,-119.047619047619,4,1,0,70,0,1
66357,-116.279069767442,4,1,0,70,0,1
66599,-125,4,1,0,70,0,1
72164,-121.951219512195,4,1,0,70,0,1
72648,-120.481927710843,4,1,0,70,0,1
73132,-119.047619047619,4,1,0,70,0,1
73495,-121.951219512195,4,1,0,70,0,1
73857,-125,4,1,0,70,0,1
80874,-123.456790123457,4,1,0,70,0,1
81237,-121.951219512195,4,1,0,70,0,1
81600,-119.047619047619,4,1,0,70,0,1
81841,-116.279069767442,4,1,0,70,0,1
82083,-125,4,1,0,70,0,1
87648,-120.481927710843,4,1,0,70,0,1
88616,-120.481927710843,4,1,0,70,0,1
88857,-121.951219512195,4,1,0,70,0,1
89341,-121.951219512195,4,1,0,70,0,1
89583,-119.047619047619,4,1,0,70,0,1
91035,-117.647058823529,4,1,0,70,0,1
91579,-125,4,1,0,70,0,0

[HitObjects]
256,192,612,5,0,0:0:0:0:
256,192,1095,5,8,0:0:0:0:
256,192,1579,5,8,0:0:0:0:
256,192,2063,5,0,0:0:0:0:
256,192,2547,5,0,0:0:0:0:
256,192,3031,5,8,0:0:0:0:
256,192,3515,5,8,0:0:0:0:
256,192,3999,5,8,0:0:0:0:
256,192,4482,5,0,0:0:0:0:
256,192,4966,5,8,0:0:0:0:
256,192,5450,5,8,0:0:0:0:
256,192,5934,5,0,0:0:0:0:
256,192,6418,5,0,0:0:0:0:
256,192,6902,5,8,0:0:0:0:
256,192,7386,5,8,0:0:0:0:
256,192,7628,5,0,0:0:0:0:
256,192,7870,5,8,0:0:0:0:
256,192,8353,5,12,0:0:0:0:
256,192,9321,5,8,0:0:0:0:
256,192,9805,5,8,0:0:0:0:
256,192,10047,5,0,0:0:0:0:
256,192,10289,5,0,0:0:0:0:
256,192,10773,5,0,0:0:0:0:
256,192,11015,5,8,0:0:0:0:
256,192,11257,5,0,0:0:0:0:
256,192,11741,5,0,0:0:0:0:
256,192,12224,5,8,0:0:0:0:
256,192,12708,5,0,0:0:0:0:
256,192,13192,5,8,0:0:0:0:
256,192,13676,5,0,0:0:0:0:
256,192,13918,5,0,0:0:0:0:
256,192,14160,5,8,0:0:0:0:
256,192,14644,5,0,0:0:0:0:
256,192,14886,5,8,0:0:0:0:
256,192,15128,5,8,0:0:0:0:
256,192,15611,5,8,0:0:0:0:
256,192,16095,5,8,0:0:0:0:
256,192,17063,5,8,0:0:0:0:
256,192,17547,5,0,0:0:0:0:
256,192,17789,5,0,0:0:0:0:
256,192,18031,5,8,0:0:0:0:
256,192,18515,5,0,0:0:0:0:
256,192,18757,5,8,0:0:0:0:
256,192,18999,5,8,0:0:0:0:
256,192,19482,5,8,0:0:0:0:
256,192,19724,5,0,0:0:0:0:
256,192,19966,5,8,0:0:0:0:
256,192,20450,5,0,0:0:0:0:
256,192,20692,5,0,0:0:0:0:
256,192,20934,5,8,0:0:0:0:
256,192,21418,5,0,0:0:0:0:
256,192,21660,5,8,0:0:0:0:
256,192,21902,5,8,0:0:0:0:
256,192,22386,5,8,0:0:0:0:
256,192,22870,5,8,0:0:0:0:
256,192,23111,5,0,0:0:0:0:
256,192,23353,5,0,0:0:0:0:
256,192,23837,5,12,0:0:0:0:
256,192,24805,5,8,0:0:0:0:
256,192,25289,5,8,0:0:0:0:
256,192,25531,5,0,0:0:0:0:
256,192,25773,5,0,0:0:0:0:
256,192,26257,5,0,0:0:0:0:
256,192,26499,5,8,0:0:0:0:
256,192,26741,5,0,0:0:0:0:
256,192,27224,5,0,0:0:0:0:
256,192,27708,5,8,0:0:0:0:
256,192,28192,5,0,0:0:0:0:
256,192,28676,5,8,0:0:0:0:
256,192,29160,5,0,0:0:0:0:
256,192,29402,5,0,0:0:0:0:
256,192,29644,5,8,0:0:0:0:
256,192,30128,5,0,0:0:0:0:
256,192,30370,5,8,0:0:0:0:
256,192,30611,5,8,0:0:0:0:
256,192,30853,5,0,0:0:0:0:
256,192,31095,5,8,0:0:0:0:
256,192,31579,5,8,0:0:0:0:
256,192,32547,5,8,0:0:0:0:
256,192,33031,5,0,0:0:0:0:
256,192,33273,5,0,0:0:0:0:
256,192,33515,5,8,0:0:0:0:
256,192,33757,5,8,0:0:0:0:
256,192,33999,5,0,0:0:0:0:
256,192,34241,5,0,0:0:0:0:
256,192,34482,5,8,0:0:0:0:
256,192,34966,5,8,0:0:0:0:
256,192,35208,5,0,0:0:0:0:
256,192,35450,5,8,0:0:0:0:
256,192,35934,5,0,0:0:0:0:
256,192,36176,5,0,0:0:0:0:
256,192,36418,5,8,0:0:0:0:
256,192,36902,5,0,0:0:0:0:
256,192,37144,5,8,0:0:0:0:
256,192,37386,5,8,0:0:0:0:
256,192,37628,5,0,0:0:0:0:
256,192,37870,5,8,0:0:0:0:
256,192,38353,5,8,0:0:0:0:
256,192,38595,5,0,0:0:0:0:
256,192,38837,5,8,0:0:0:0:
256,192,39321,5,4,0:0:0:0:
256,192,39805,5,8,0:0:0:0:
256,192,40047,5,0,0:0:0:0:
256,192,40289,5,0,0:0:0:0:
256,192,40773,5,0,0:0:0:0:
256,192,41015,5,8,0:0:0:0:
256,192,41257,5,0,0:0:0:0:
256,192,41499,5,0,0:0:0:0:
256,192,41741,5,8,0:0:0:0:
256,192,41982,5,8,0:0:0:0:
256,192,42224,5,0,0:0:0:0:
256,192,43192,5,0,0:0:0:0:
256,192,43434,5,8,0:0:0:0:
256,192,43676,5,8,0:0:0:0:
256,192,43918,5,8,0:0:0:0:
256,192,44160,5,0,0:0:0:0:
256,192,44644,5,0,0:0:0:0:
256,192,44886,5,8,0:0:0:0:
256,192,45128,5,0,0:0:0:0:
256,192,45370,5,8,0:0:0:0:
256,192,45611,5,8,0:0:0:0:
256,192,45853,5,0,0:0:0:0:
256,192,46095,5,0,0:0:0:0:
256,192,47063,5,0,0:0:0:0:
256,192,47547,5,8,0:0:0:0:
256,192,47789,5,0,0:0:0:0:
256,192,48031,5,0,0:0:0:0:
256,192,48515,5,0,0:0:0:0:
256,192,48757,5,8,0:0:0:0:
256,192,48999,5,0,0:0:0:0:
256,192,49241,5,8,0:0:0:0:
256,192,49482,5,8,0:0:0:0:
256,192,49724,5,8,0:0:0:0:
256,192,49966,5,0,0:0:0:0:
256,192,50934,5,0,0:0:0:0:
256,192,51176,5,0,0:0:0:0:
256,192,51418,5,8,0:0:0:0:
256,192,51660,5,8,0:0:0:0:
256,192,51902,5,0,0:0:0:0:
256,192,52386,5,0,0:0:0:0:
256,192,52628,5,8,0:0:0:0:
256,192,52870,5,8,0:0:0:0:
256,192,53353,5,0,0:0:0:0:
256,192,53595,5,8,0:0:0:0:
256,192,53837,5,8,0:0:0:0:
256,192,54079,5,0,0:0:0:0:
256,192,54321,5,0,0:0:0:0:
256,192,54563,5,8,0:0:0:0:
256,192,54805,5,4,0:0:0:0:
256,192,55531,5,0,0:0:0:0:
256,192,55773,5,12,0:0:0:0:
256,192,56257,5,0,0:0:0:0:
256,192,56499,5,0,0:0:0:0:
256,192,56741,5,12,0:0:0:0:
256,192,57224,5,8,0:0:0:0:
256,192,57466,5,0,0:0:0:0:
256,192,57708,5,12,0:0:0:0:
256,192,58676,5,12,0:0:0:0:
256,192,59039,5,0,0:0:0:0:
256,192,59402,5,0,0:0:0:0:
256,192,59644,5,0,0:0:0:0:
256,192,59886,5,8,0:0:0:0:
256,192,60128,5,0,0:0:0:0:
256,192,60611,5,8,0:0:0:0:
256,192,60974,5,0,0:0:0:0:
256,192,61337,5,0,0:0:0:0:
256,192,61579,5,8,0:0:0:0:
256,192,61821,5,0,0:0:0:0:
256,192,62063,5,0,0:0:0:0:
256,192,62547,5,0,0:0:0:0:
256,192,62910,5,0,0:0:0:0:
256,192,63273,5,0,0:0:0:0:
256,192,63515,5,0,0:0:0:0:
256,192,63757,5,8,0:0:0:0:
256,192,63999,5,0,0:0:0:0:
256,192,64241,5,0,0:0:0:0:
256,192,64482,5,8,0:0:0:0:
256,192,65208,5,0,0:0:0:0:
256,192,65450,5,12,0:0:0:0:
256,192,65813,5,12,0:0:0:0:
256,192,66176,5,12,0:0:0:0:
256,192,66418,5,4,0:0:0:0:
256,192,66781,5,0,0:0:0:0:
256,192,67144,5,0,0:0:0:0:
256,192,67386,5,0,0:0:0:0:
256,192,67628,5,8,0:0:0:0:
256,192,67870,5,0,0:0:0:0:
256,192,68353,5,8,0:0:0:0:
256,192,68716,5,0,0:0:0:0:
256,192,69079,5,0,0:0:0:0:
256,192,69321,5,8,0:0:0:0:
256,192,69563,5,0,0:0:0:0:
256,192,69805,5,0,0:0:0:0:
256,192,70289,5,8,0:0:0:0:
256,192,70652,5,0,0:0:0:0:
256,192,71015,5,0,0:0:0:0:
256,192,71257,5,0,0:0:0:0:
256,192,71499,5,8,0:0:0:0:
256,192,71741,5,0,0:0:0:0:
256,192,71982,5,0,0:0:0:0:
256,192,72224,5,12,0:0:0:0:
256,192,72950,5,0,0:0:0:0:
256,192,73192,5,4,0:0:0:0:
256,192,73555,5,8,0:0:0:0:
256,192,73918,5,0,0:0:0:0:
256,192,74160,5,12,0:0:0:0:
256,192,74523,5,0,0:0:0:0:
256,192,74886,5,0,0:0:0:0:
256,192,75128,5,8,0:0:0:0:
256,192,75370,5,8,0:0:0:0:
256,192,75611,5,8,0:0:0:0:
256,192,76095,5,8,0:0:0:0:
256,192,76458,5,0,0:0:0:0:
256,192,76821,5,0,0:0:0:0:
256,192,77063,5,8,0:0:0:0:
256,192,77305,5,8,0:0:0:0:
256,192,77547,5,0,0:0:0:0:
256,192,78031,5,0,0:0:0:0:
256,192,78394,5,0,0:0:0:0:
256,192,78757,5,0,0:0:0:0:
256,192,78999,5,0,0:0:0:0:
256,192,79241,5,8,0:0:0:0:
256,192,79482,5,8,0:0:0:0:
256,192,79724,5,0,0:0:0:0:
256,192,79966,5,8,0:0:0:0:
256,192,80692,5,0,0:0:0:0:
256,192,80934,5,12,0:0:0:0:
256,192,81297,5,12,0:0:0:0:
256,192,81660,5,12,0:0:0:0:
256,192,81902,5,4,0:0:0:0:
256,192,82265,5,0,0:0:0:0:
256,192,82628,5,0,0:0:0:0:
256,192,82870,5,8,0:0:0:0:
256,192,83111,5,8,0:0:0:0:
256,192,83353,5,8,0:0:0:0:
256,192,83837,5,8,0:0:0:0:
256,192,84200,5,0,0:0:0:0:
256,192,84563,5,0,0:0:0:0:
256,192,84805,5,8,0:0:0:0:
256,192,85047,5,8,0:0:0:0:
256,192,85289,5,0,0:0:0:0:
256,192,85773,5,8,0:0:0:0:
256,192,86136,5,8,0:0:0:0:
256,192,86499,5,8,0:0:0:0:
256,192,86741,5,0,0:0:0:0:
256,192,86982,5,8,0:0:0:0:
256,192,87224,5,8,0:0:0:0:
256,192,87466,5,0,0:0:0:0:
256,192,87708,5,12,0:0:0:0:
256,192,88676,5,4,0:0:0:0:
256,192,89039,5,8,0:0:0:0:
256,192,89402,5,0,0:0:0:0:
256,192,89644,5,12,0:0:0:0:
256,192,90007,5,0,0:0:0:0:
256,192,90370,5,0,0:0:0:0:
256,192,90611,5,0,0:0:0:0:
256,192,90853,5,0,0:0:0:0:
256,192,91095,5,12,0:0:0:0:
256,192,91579,5,4,0:0:0:0:
