osu file format v14

[General]
AudioFilename: audio.mp3
AudioLeadIn: 0
PreviewTime: 58555
Countdown: 0
SampleSet: Soft
StackLeniency: 0.5
Mode: 0
LetterboxInBreaks: 0
WidescreenStoryboard: 1

[Editor]
Bookmarks: 7386,15128,39321,54805,58676,74160,91579
DistanceSpacing: 1.3
BeatDivisor: 4
GridSize: 32
TimelineZoom: 2

[Metadata]
Title:Chitei ni Saku Bara
TitleUnicode:地底に咲く薔薇
Artist:Akiyama Uni feat. JUN
ArtistUnicode:あきやまうに feat. JUN
Creator:PaRaDogi
Version:Normal
Source:東方憑依華 ~ Antinomy of Common Flowers.
Tags:bloxi satellite muya- a rose blooming in the underworld th15.5 koishi komeiji 古明地 こいし Palace of the Earth Spirits 地霊殿 Chireiden Twilight Frontier Tasofro 黄昏フロンティア U2 ZUN 東方project touhou hyouibana team shanghai alice Instrumental electronic video game
BeatmapID:4175148
BeatmapSetID:1974908

[Difficulty]
HPDrainRate:3
CircleSize:3.5
OverallDifficulty:4
ApproachRate:5
SliderMultiplier:1.3
SliderTickRate:1

[Events]
//Background and Video events
0,0,"Konachan.com - 175043 blood dress green green_eyes hat komeiji_koishi shigureru touhou_waifu2x_art_noise1_scale.jpg",0,0
//Break Periods
//Storyboard Layer 0 (Background)
//Storyboard Layer 1 (Fail)
//Storyboard Layer 2 (Pass)
//Storyboard Layer 3 (Foreground)
//Storyboard Layer 4 (Overlay)
//Storyboard Sound Samples

[TimingPoints]
612,483.870967741935,4,2,1,55,1,0
612,-100,4,2,1,55,0,0
39321,-100,4,2,1,65,0,0
58676,-100,4,2,1,75,0,1
72224,-100,4,2,1,75,0,0
74160,-100,4,2,1,85,0,1
91579,-100,4,2,1,75,0,0

[Colours]
Combo1 : 255,169,128
Combo2 : 255,130,130
Combo3 : 91,255,91
Combo4 : 255,113,255

[HitObjects]
23,20,612,6,0,L|165:46,1,130,2|10,1:0|0:0,0:0:0:0:
317,16,1579,2,0,L|452:42,1,130,2|10,1:0|0:0,0:0:0:0:
495,202,2547,6,0,P|486:260|410:278,1,130,2|10,1:0|0:0,0:0:0:0:
367,345,3273,1,0,1:0:0:0:
298,295,3515,2,0,P|255:266|267:191,1,130,2|10,1:0|0:0,0:0:0:0:
192,41,4482,6,0,P|135:12|66:49,1,130,2|10,1:0|0:0,0:0:0:0:
43,200,5450,2,0,L|24:334,1,130,2|10,1:0|0:0,0:0:0:0:
189,367,6418,6,0,L|333:340,1,130,2|10,1:0|0:0,0:0:0:0:
364,273,7144,1,0,1:0:0:0:
305,211,7386,2,0,P|266:148|273:86,1,130,10|10,3:0|3:0,0:0:0:0:
416,10,8353,6,0,P|461:36|487:110,1,130,6|10,1:0|0:0,0:0:0:0:
426,264,9321,2,0,L|349:278,1,65,2|0,1:0|0:0,0:0:0:0:
299,332,9805,2,0,L|223:317,1,65,10|2,0:0|1:0,0:0:0:0:
157,285,10289,6,0,L|125:153,1,130,2|10,1:0|0:0,0:0:0:0:
79,87,11015,1,2,1:0:0:0:
138,26,11257,2,0,P|178:7|265:17,1,130,2|10,1:0|0:0,0:0:0:0:
287,182,12224,6,0,L|260:310,1,130,6|10,1:0|0:0,0:0:0:0:
421,361,13192,2,0,P|474:327|489:249,1,130,2|10,1:0|0:0,0:0:0:0:
450,191,13918,1,2,1:0:0:0:
497,120,14160,6,0,L|510:48,1,65,2|2,1:0|0:0,0:0:0:0:
438,7,14644,2,0,L|365:21,1,65,10|2,0:0|1:0,0:0:0:0:
309,73,15128,1,10,3:0:0:0:
224,64,15370,2,0,L|210:-9,2,65,8|10|2,3:0|3:0|1:0,0:0:0:0:
139,59,16095,6,0,L|112:190,1,130,6|10,1:0|0:0,0:0:0:0:
142,353,17063,2,0,P|195:375|262:334,1,130,2|10,1:0|0:0,0:0:0:0:
269,259,17789,1,2,1:0:0:0:
228,184,18031,6,0,L|211:101,1,65,2|2,1:0|0:0,0:0:0:0:
243,40,18515,2,0,L|318:15,1,65,10|2,0:0|1:0,0:0:0:0:
389,14,18999,2,0,P|449:46|454:102,1,130,10|10,3:0|3:0,0:0:0:0:
404,170,19724,1,2,1:0:0:0:
453,238,19966,5,6,1:0:0:0:
335,359,20450,2,0,L|260:341,1,65,10|2,0:0|0:0,0:0:0:0:
192,373,20934,1,2,1:0:0:0:
65,260,21418,2,0,L|47:184,1,65,10|2,0:0|1:0,0:0:0:0:
105,132,21902,6,0,B|79:108|79:108|99:14,2,130,6|6|6,1:0|1:0|1:0,0:0:0:0:
139,209,23111,1,10,3:0:0:0:
209,256,23353,2,0,L|277:240,1,65,6|2,1:0|1:0,0:0:0:0:
356,230,23837,6,0,P|393:196|377:114,1,130,6|2,0:0|1:0,0:0:0:0:
256,11,24805,2,0,P|218:24|192:105,1,130,10|2,0:0|1:0,0:0:0:0:
154,179,25531,1,2,1:0:0:0:
213,238,25773,6,0,P|186:348|158:360,1,130,2|10,1:0|0:0,0:0:0:0:
98,369,26499,1,2,1:0:0:0:
33,314,26741,2,0,L|-2:167,1,130,10|10,3:0|3:0,0:0:0:0:
75,34,27708,6,0,P|119:10|211:31,1,130,2|10,1:0|0:0,0:0:0:0:
299,154,28676,2,0,P|364:205|415:198,1,130,2|10,1:0|0:0,0:0:0:0:
476,250,29402,1,2,1:0:0:0:
438,325,29644,6,0,P|390:353|363:350,1,65,2|0,1:0|0:0,0:0:0:0:
300,374,30128,2,0,P|259:338|230:328,1,65,10|2,0:0|1:0,0:0:0:0:
198,266,30611,2,0,L|130:286,2,65,2|2|10,1:0|0:0|0:0,0:0:0:0:
230,187,31337,1,2,1:0:0:0:
228,102,31579,6,0,B|203:65|203:65|111:36,1,130,6|10,1:0|0:0,0:0:0:0:
22,176,32547,2,0,L|52:303,1,130,2|10,1:0|0:0,0:0:0:0:
122,349,33273,1,2,1:0:0:0:
196,308,33515,6,0,L|275:327,1,65,2|2,1:0|0:0,0:0:0:0:
335,361,33999,2,0,L|410:343,1,65,10|2,0:0|1:0,0:0:0:0:
468,298,34482,2,0,P|484:255|446:177,1,130,10|10,3:0|3:0,0:0:0:0:
479,101,35208,1,2,1:0:0:0:
411,49,35450,5,6,1:0:0:0:
259,124,35934,2,0,L|183:107,1,65,10|2,0:0|0:0,0:0:0:0:
123,154,36418,1,2,1:0:0:0:
21,289,36902,2,0,L|43:360,1,65,10|2,0:0|1:0,0:0:0:0:
122,372,37386,6,0,P|187:358|221:288,1,130,6|6,0:0|0:0,0:0:0:0:
284,252,38111,1,10,3:0:0:0:
281,167,38353,2,0,P|315:121|391:108,1,130,6|6,0:0|0:0,0:0:0:0:
460,141,39079,1,2,1:0:0:0:
470,224,39321,6,0,L|448:309,1,65,6|2,1:0|0:0,0:0:0:0:
389,342,39805,2,0,L|299:328,1,65,10|2,0:0|0:0,0:0:0:0:
246,299,40289,2,0,P|217:344|130:344,1,130,2|10,1:0|0:0,0:0:0:0:
35,223,41257,6,0,L|12:159,1,65,2|2,1:0|0:0,0:0:0:0:
16,77,41741,2,0,P|40:44|78:35,1,65,10|2,0:0|1:0,0:0:0:0:
141,7,42224,2,0,L|271:52,1,130,6|8,1:0|0:3,0:0:0:0:
430,18,43192,6,0,L|445:92,1,65,2|2,1:0|0:0,0:0:0:0:
400,155,43676,1,10,0:0:0:0:
430,234,43918,1,2,0:0:0:0:
356,276,44160,2,0,P|313:281|268:208,1,130,2|10,0:0|0:0,0:0:0:0:
272,132,44886,1,2,1:0:0:0:
205,79,45128,6,0,L|225:11,2,65,2|2|10,1:0|0:0|0:0,0:0:0:0:
120,79,45853,1,10,0:0:0:0:
63,142,46095,2,0,L|40:273,1,130,10|0,0:0|1:0,0:0:0:0:
174,373,47063,6,0,L|252:360,1,65,6|2,1:0|0:0,0:0:0:0:
288,293,47547,2,0,L|363:318,1,65,10|2,0:0|1:0,0:0:0:0:
427,348,48031,2,0,P|472:338|491:242,1,130,10|10,3:0|3:0,0:0:0:0:
435,212,48757,1,2,1:0:0:0:
489,147,48999,6,0,L|505:78,1,65,2|2,1:0|0:0,0:0:0:0:
439,28,49482,2,0,L|354:8,1,65,10|2,0:0|1:0,0:0:0:0:
292,31,49966,2,0,P|253:61|262:139,1,130,2|8,1:0|3:0,0:0:0:0:
306,298,50934,6,0,P|266:327|243:325,1,65,6|2,1:0|0:0,0:0:0:0:
181,373,51418,1,10,0:0:0:0:
121,312,51660,1,2,0:0:0:0:
36,312,51902,2,0,P|-1:265|27:192,1,130,2|10,1:0|0:0,0:0:0:0:
116,65,52870,6,0,L|189:53,1,65,2|2,1:0|0:0,0:0:0:0:
253,12,53353,2,0,L|334:31,1,65,10|2,0:0|1:0,0:0:0:0:
396,55,53837,2,0,L|471:40,2,65,2|10|10,1:0|0:0|0:0,0:0:0:0:
372,136,54563,1,10,0:0:0:0:
429,197,54805,6,0,P|362:244|307:250,1,130,6|0,0:0|1:0,0:0:0:0:
171,339,55773,2,0,L|41:309,1,130,6|0,0:0|1:0,0:0:0:0:
7,233,56499,1,2,1:0:0:0:
76,184,56741,6,0,L|43:46,1,130,6|8,0:0|3:0,0:0:0:0:
208,11,57708,2,0,L|242:142,1,130,6|8,0:0|3:0,0:0:0:0:
407,106,58676,5,14,0:0:0:0:
471,160,58918,2,0,L|510:306,1,130,2|2,0:0|1:0,0:0:0:0:
474,365,59644,1,2,1:0:0:0:
390,376,59886,1,2,0:0:0:0:
336,310,60128,2,0,L|251:325,1,65,2|10,0:0|0:0,0:0:0:0:
200,367,60611,5,2,1:0:0:0:
122,332,60853,2,0,L|82:197,1,130,2|10,1:0|0:0,0:0:0:0:
142,144,61579,2,0,L|156:69,1,65,10|2,0:0|1:0,0:0:0:0:
103,11,62063,1,2,0:0:0:0:
45,169,62547,6,0,L|7:297,1,130,6|2,1:0|1:0,0:0:0:0:
81,336,63273,1,10,0:0:0:0:
137,272,63515,1,2,1:0:0:0:
204,322,63757,1,2,1:0:0:0:
273,273,63999,2,0,L|290:201,1,65,2|10,0:0|0:0,0:0:0:0:
227,150,64482,6,0,P|199:80|232:22,1,130,2|0,1:0|0:0,0:0:0:0:
300,8,65208,1,8,0:0:0:0:
374,48,65450,2,0,P|439:49|473:11,2,97.5,6|6|6,0:0|0:0|0:0,0:0:0:0:
321,114,66418,6,0,L|357:244,1,130,6|0,1:0|1:0,0:0:0:0:
236,359,67386,1,10,0:0:0:0:
172,303,67628,1,2,1:0:0:0:
207,226,67870,2,0,L|224:144,1,65,2|10,0:0|0:0,0:0:0:0:
187,84,68353,5,2,1:0:0:0:
107,55,68595,2,0,B|66:82|66:82|98:167,1,130,2|10,1:0|0:0,0:0:0:0:
134,232,69321,1,10,0:0:0:0:
70,288,69563,1,2,1:0:0:0:
119,356,69805,1,2,0:0:0:0:
285,326,70289,6,0,L|424:286,1,130,2|0,1:0|1:0,0:0:0:0:
486,326,71015,1,10,0:0:0:0:
512,245,71257,1,2,1:0:0:0:
462,176,71499,1,2,1:0:0:0:
491,96,71741,2,0,P|459:24|451:21,1,65,2|10,0:0|0:0,0:0:0:0:
392,22,72224,6,0,B|366:10|366:10|181:61,1,195,6|8,0:0|0:0,0:0:0:0:
142,111,73192,2,0,L|163:184,1,65,6|8,0:0|0:0,0:0:0:0:
228,222,73676,1,8,0:0:0:0:
141,366,74160,6,0,P|86:369|72:356,1,65,6|2,0:0|1:0,0:0:0:0:
28,298,74644,2,0,L|9:231,1,65,0|10,0:0|0:0,0:0:0:0:
53,162,75128,1,10,0:0:0:0:
19,84,75370,1,2,1:0:0:0:
77,23,75611,2,0,L|150:13,1,65,2|10,0:0|0:0,0:0:0:0:
198,76,76095,5,2,1:0:0:0:
265,24,76337,2,0,P|320:31|341:95,1,130,2|10,1:0|0:0,0:0:0:0:
286,160,77063,1,10,0:0:0:0:
339,225,77305,1,2,1:0:0:0:
281,287,77547,1,2,0:0:0:0:
431,364,78031,6,0,L|508:349,1,65,2|2,1:0|1:0,0:0:0:0:
504,267,78515,2,0,P|512:217|495:193,1,65,0|10,0:0|0:0,0:0:0:0:
440,152,78999,1,2,1:0:0:0:
492,85,79241,1,2,1:0:0:0:
429,28,79482,2,0,L|352:7,1,65,2|10,0:0|0:0,0:0:0:0:
292,52,79966,6,0,P|260:110|266:129,1,65,2|2,1:0|1:0,0:0:0:0:
217,178,80450,2,0,P|246:224|248:246,1,65,0|10,0:0|0:0,0:0:0:0:
219,313,80934,2,0,P|175:363|125:354,2,97.5,6|6|6,0:0|0:0|0:0,0:0:0:0:
302,296,81902,6,0,L|449:318,1,130,6|2,0:0|0:0,0:0:0:0:
475,151,82870,1,2,1:0:0:0:
501,71,83111,1,2,1:0:0:0:
424,35,83353,2,0,L|356:48,1,65,2|10,0:0|0:0,0:0:0:0:
289,94,83837,6,0,L|273:166,1,65,2|2,1:0|1:0,0:0:0:0:
251,239,84321,2,0,L|270:316,1,65,0|10,0:0|0:0,0:0:0:0:
208,364,84805,1,10,0:0:0:0:
146,305,85047,1,2,1:0:0:0:
73,348,85289,1,2,0:0:0:0:
46,181,85773,6,0,B|59:97,1,65,6|2,1:0|1:0,0:0:0:0:
16,41,86257,1,0,0:0:0:0:
95,11,86499,1,10,0:0:0:0:
144,79,86741,1,10,0:0:0:0:
141,163,86982,1,2,1:0:0:0:
194,228,87224,2,0,L|274:214,1,65,2|10,0:0|0:0,0:0:0:0:
299,142,87708,6,0,P|388:119|424:145,1,130,6|8,0:0|0:0,0:0:0:0:
483,186,88434,1,8,0:0:0:0:
446,262,88676,1,4,0:0:0:0:
308,360,89160,1,0,1:0:0:0:
244,303,89402,1,10,0:0:0:0:
169,343,89644,6,0,P|136:324|129:222,1,130,6|0,0:0|0:0,0:0:0:0:
190,193,90370,1,8,0:0:0:0:
214,112,90611,2,0,L|227:41,1,65,8|8,3:0|3:0,0:0:0:0:
152,5,91095,2,0,P|82:30|69:86,1,130,8|4,0:0|0:0,0:0:0:0:
