osu file format v14

[General]
AudioFilename: audio.mp3
AudioLeadIn: 0
PreviewTime: 58555
Countdown: 0
SampleSet: Soft
StackLeniency: 0.7
Mode: 0
LetterboxInBreaks: 0
WidescreenStoryboard: 0

[Editor]
Bookmarks: 7386,15128,39321,54805,58676,74160,91579
DistanceSpacing: 1.3
BeatDivisor: 4
GridSize: 32
TimelineZoom: 2.799999

[Metadata]
Title:Chitei ni Saku Bara
TitleUnicode:地底に咲く薔薇
Artist:Akiyama Uni feat. JUN
ArtistUnicode:あきやまうに feat. JUN
Creator:PaRaDogi
Version:Master & Slave
Source:東方憑依華 ~ Antinomy of Common Flowers.
Tags:bloxi satellite muya- a rose blooming in the underworld th15.5 koishi komeiji 古明地 こいし Palace of the Earth Spirits 地霊殿 Chireiden Twilight Frontier Tasofro 黄昏フロンティア U2 ZUN 東方project touhou hyouibana team shanghai alice Instrumental electronic video game
BeatmapID:4098711
BeatmapSetID:1974908

[Difficulty]
HPDrainRate:5
CircleSize:4.2
OverallDifficulty:9
ApproachRate:9
SliderMultiplier:2.4
SliderTickRate:1

[Events]
//Background and Video events
0,0,"Konachan.com - 175043 blood dress green green_eyes hat komeiji_koishi shigureru touhou_waifu2x_art_noise1_scale.jpg",0,0
//Break Periods
//Storyboard Layer 0 (Background)
//Storyboard Layer 1 (Fail)
//Storyboard Layer 2 (Pass)
//Storyboard Layer 3 (Foreground)
//Storyboard Layer 4 (Overlay)
//Storyboard Sound Samples

[TimingPoints]
612,483.870967741935,4,2,1,55,1,0
612,-125,4,2,1,55,0,0
23837,-100,4,2,1,55,0,0
39321,-100,4,2,1,65,0,0
58676,-71.4285714285714,4,2,1,75,0,1
72224,-100,4,2,1,75,0,0
74160,-62.5,4,2,1,85,0,1
91579,-100,4,2,1,75,0,0

[Colours]
Combo1 : 255,169,128
Combo2 : 255,130,130
Combo3 : 91,255,91
Combo4 : 255,113,255

[HitObjects]
21,68,612,6,0,P|101:35|117:26,1,96,2|0,1:0|0:0,0:0:0:0:
174,67,974,1,0,0:0:0:0:
146,139,1095,1,10,0:0:0:0:
263,22,1337,1,0,0:0:0:0:
276,16,1458,1,0,0:0:0:0:
345,58,1579,2,0,P|386:28|441:15,1,96,2|0,1:0|0:0,0:0:0:0:
506,32,1942,1,0,0:0:0:0:
472,102,2063,1,10,0:0:0:0:
288,109,2305,2,0,P|272:151|281:176,1,48
344,261,2547,6,0,P|358:216|389:176,1,96,2|0,1:0|0:0,0:0:0:0:
460,179,2910,1,0,0:0:0:0:
479,249,3031,1,10,0:0:0:0:
393,378,3273,1,0,1:0:0:0:
276,283,3515,1,2,1:0:0:0:
242,349,3636,1,0,0:0:0:0:
186,302,3757,1,0,0:0:0:0:
181,283,3878,1,0,0:0:0:0:
218,217,3999,1,10,0:0:0:0:
103,374,4241,1,0,1:0:0:0:
39,252,4482,6,0,P|27:194|4:147,1,96,2|0,1:0|0:0,0:0:0:0:
20,88,4845,1,0,0:0:0:0:
93,85,4966,1,10,0:0:0:0:
212,2,5208,1,0,0:0:0:0:
200,8,5329,1,0,0:0:0:0:
183,81,5450,2,0,P|205:125|217:176,1,96,2|0,1:0|0:0,0:0:0:0:
182,238,5813,1,0,0:0:0:0:
247,274,5934,1,10,0:0:0:0:
277,95,6176,2,0,P|329:66|343:61,1,48,0|0,1:0|0:0,0:0:0:0:
466,4,6418,6,0,P|444:48|426:119,1,96,2|0,1:0|0:0,0:0:0:0:
469,154,6781,1,0,0:0:0:0:
425,214,6902,1,10,0:0:0:0:
380,362,7144,1,0,1:0:0:0:
372,352,7265,1,0,0:0:0:0:
293,296,7386,1,10,3:0:0:0:
316,236,7507,1,8,3:0:0:0:
282,300,7628,1,8,3:0:0:0:
306,226,7749,1,8,3:0:0:0:
269,304,7870,1,10,3:0:0:0:
227,163,8111,2,0,P|204:113|195:101,1,48
194,307,8353,6,0,P|143:332|55:376,1,144,6|0,1:0|0:0,0:0:0:0:
9,321,8837,1,10,0:0:0:0:
95,199,9079,1,0,0:0:0:0:
88,184,9200,1,0,1:0:0:0:
156,247,9321,2,0,P|212:224|263:206,1,96,2|0,1:0|0:0,0:0:0:0:
274,140,9684,1,0,1:0:0:0:
339,180,9805,2,0,P|361:223|367:240,1,48,10|0,0:0|0:0,0:0:0:0:
410,374,10047,2,0,P|435:324|449:312,1,48,2|0,1:0|0:0,0:0:0:0:
423,173,10289,6,0,P|471:147|514:137,1,96,2|0,1:0|0:0,0:0:0:0:
459,77,10652,1,0,1:0:0:0:
512,24,10773,1,10,0:0:0:0:
490,221,11015,1,2,1:0:0:0:
373,25,11257,1,2,1:0:0:0:
307,0,11378,1,0,0:0:0:0:
253,48,11499,1,0,1:0:0:0:
235,56,11620,1,0,0:0:0:0:
178,13,11741,1,10,0:0:0:0:
257,129,11982,1,0,1:0:0:0:
158,217,12224,6,0,P|122:266|91:350,1,144,6|0,1:0|1:0,0:0:0:0:
159,380,12708,1,10,0:0:0:0:
28,250,12950,1,0,0:0:0:0:
20,240,13071,1,0,0:0:0:0:
50,172,13192,2,0,P|57:116|89:66,1,96,2|0,1:0|0:0,0:0:0:0:
117,21,13555,1,0,1:0:0:0:
48,0,13676,1,10,0:0:0:0:
143,149,13918,2,0,P|196:127|207:125,1,48,2|0,1:0|0:0,0:0:0:0:
229,4,14160,6,0,P|273:22|312:56,1,96,2|2,1:0|0:0,0:0:0:0:
379,81,14523,1,0,1:0:0:0:
348,151,14644,2,0,P|334:197|338:222,1,48,10|0,0:0|0:0,0:0:0:0:
478,46,14886,2,0,P|461:1|454:-12,1,48,2|0,1:0|0:0,0:0:0:0:
423,178,15128,1,10,3:0:0:0:
432,169,15249,1,0,0:0:0:0:
495,206,15370,1,8,3:0:0:0:
461,269,15491,1,8,3:0:0:0:
491,295,15611,1,10,3:0:0:0:
511,133,15853,1,2,1:0:0:0:
438,372,16095,6,0,B|346:356|386:334|289:304,1,144,6|0,1:0|1:0,0:0:0:0:
263,365,16579,1,10,0:0:0:0:
206,228,16821,1,0,0:0:0:0:
199,215,16942,1,0,1:0:0:0:
247,159,17063,2,0,P|249:97|258:41,1,96,2|0,1:0|0:0,0:0:0:0:
210,3,17426,1,0,1:0:0:0:
138,16,17547,1,10,0:0:0:0:
12,132,17789,2,0,P|-11:78|-21:66,1,48,2|0,1:0|0:0,0:0:0:0:
82,158,18031,6,0,P|57:213|45:252,1,96,2|2,1:0|0:0,0:0:0:0:
4,306,18394,1,0,1:0:0:0:
52,361,18515,1,10,0:0:0:0:
199,378,18757,2,0,P|245:347|257:342,1,48,2|0,1:0|0:0,0:0:0:0:
318,253,18999,1,10,3:0:0:0:
293,243,19120,1,0,0:0:0:0:
245,186,19241,1,8,3:0:0:0:
186,212,19361,1,8,3:0:0:0:
249,176,19482,1,10,3:0:0:0:
317,326,19724,1,2,1:0:0:0:
451,189,19966,6,0,P|464:137|472:119,1,48,6|0,1:0|0:0,0:0:0:0:
509,241,20208,1,2,0:0:0:0:
501,251,20329,1,2,1:0:0:0:
475,322,20450,1,10,0:0:0:0:
371,164,20692,1,2,0:0:0:0:
378,153,20813,1,0,1:0:0:0:
387,80,20934,2,0,P|412:36|425:27,1,48,2|0,1:0|0:0,0:0:0:0:
300,0,21176,1,2,0:0:0:0:
308,11,21297,1,2,1:0:0:0:
278,76,21418,1,10,0:0:0:0:
475,4,21660,1,2,1:0:0:0:
483,18,21781,1,0,0:0:0:0:
512,91,21902,5,6,1:0:0:0:
472,121,22023,1,0,0:0:0:0:
479,172,22144,1,2,0:0:0:0:
427,304,22386,5,6,1:0:0:0:
361,280,22507,1,0,0:0:0:0:
346,209,22628,1,2,0:0:0:0:
239,328,22870,5,6,1:0:0:0:
150,344,22991,1,0,0:0:0:0:
65,328,23111,5,10,3:0:0:0:
63,318,23172,5,10,3:0:0:0:
68,311,23232,5,10,3:0:0:0:
79,232,23353,2,0,P|135:251|145:258,1,48,6|0,1:0|0:0,0:0:0:0:
0,384,23595,2,0,P|47:355|60:349,1,48,2|0,1:0|0:0,0:0:0:0:
182,200,23837,6,0,P|219:137|231:77,1,120,6|0,0:0|0:0,0:0:0:0:
208,18,24200,1,0,1:0:0:0:
136,3,24321,1,2,1:0:0:0:
280,168,24563,1,0,0:0:0:0:
289,174,24684,1,0,1:0:0:0:
354,130,24805,2,0,P|428:96|467:83,1,120,10|0,0:0|0:0,0:0:0:0:
392,59,25168,1,0,1:0:0:0:
428,149,25289,1,2,1:0:0:0:
496,267,25531,2,0,P|475:330|473:354,1,60,2|0,1:0|0:0,0:0:0:0:
353,381,25773,6,0,P|331:319|295:264,1,120,2|0,1:0|0:0,0:0:0:0:
231,283,26136,1,0,1:0:0:0:
258,349,26257,1,10,0:0:0:0:
431,217,26499,1,2,1:0:0:0:
216,382,26741,1,10,3:0:0:0:
158,351,26861,1,0,0:0:0:0:
92,374,26982,1,8,3:0:0:0:
86,360,27103,1,8,3:0:0:0:
25,329,27224,1,10,3:0:0:0:
314,380,27466,1,0,0:0:0:0:
11,261,27708,6,0,B|100:196|82:246|168:175,1,180,2|0,1:0|1:0,0:0:0:0:
230,215,28192,1,10,0:0:0:0:
14,110,28434,1,0,0:0:0:0:
7,99,28555,1,0,0:0:0:0:
65,49,28676,2,0,P|123:20|179:1,1,120,2|0,1:0|0:0,0:0:0:0:
245,29,29039,1,0,1:0:0:0:
220,97,29160,1,10,0:0:0:0:
343,0,29402,2,0,P|399:23|418:30,1,60,2|0,1:0|0:0,0:0:0:0:
505,112,29644,6,0,B|453:146|453:121|391:163,1,120,2|0,1:0|0:0,0:0:0:0:
379,229,30007,1,0,1:0:0:0:
438,276,30128,1,10,0:0:0:0:
455,52,30370,1,2,1:0:0:0:
313,268,30611,2,0,P|295:332|293:351,1,60,2|0,1:0|0:0,0:0:0:0:
445,160,30853,5,2,0:0:0:0:
446,153,30914,5,2,0:0:0:0:
447,147,30974,5,2,1:0:0:0:
512,106,31095,5,10,0:0:0:0:
289,45,31337,1,2,1:0:0:0:
500,216,31579,2,0,B|495:308|461:274|451:395,1,180,6|0,1:0|1:0,0:0:0:0:
506,338,32063,1,10,0:0:0:0:
339,273,32305,1,0,0:0:0:0:
355,268,32426,1,0,1:0:0:0:
326,343,32547,2,0,P|238:315|177:299,1,120,2|0,1:0|0:0,0:0:0:0:
158,257,32910,1,0,1:0:0:0:
207,204,33031,1,10,0:0:0:0:
277,81,33273,2,0,P|332:51|353:45,1,60,2|0,1:0|0:0,0:0:0:0:
231,26,33515,6,0,P|165:1|101:-12,1,120,2|2,1:0|0:0,0:0:0:0:
48,12,33878,1,0,1:0:0:0:
74,79,33999,1,10,0:0:0:0:
5,204,34241,1,2,1:0:0:0:
142,112,34482,1,10,3:0:0:0:
201,77,34603,1,8,3:0:0:0:
218,150,34724,1,8,3:0:0:0:
199,163,34845,1,8,3:0:0:0:
248,217,34966,1,10,3:0:0:0:
42,138,35208,1,2,1:0:0:0:
213,285,35450,6,0,P|247:348|254:365,1,60,6|0,1:0|0:0,0:0:0:0:
324,213,35692,1,0,0:0:0:0:
314,202,35813,1,0,1:0:0:0:
380,163,35934,2,0,P|347:105|343:85,1,60,10|0,0:0|0:0,0:0:0:0:
426,6,36176,1,2,0:0:0:0:
421,19,36297,1,0,1:0:0:0:
476,65,36418,2,0,P|500:135|514:185,1,120,2|0,1:0|0:0,0:0:0:0:
469,236,36781,1,0,1:0:0:0:
512,291,36902,1,10,0:0:0:0:
378,379,37144,1,2,1:0:0:0:
210,238,37386,5,6,0:0:0:0:
174,280,37507,1,0,0:0:0:0:
178,335,37628,1,10,3:0:0:0:
323,204,37870,5,6,0:0:0:0:
273,151,37991,1,0,0:0:0:0:
201,152,38111,1,10,3:0:0:0:
100,366,38353,5,6,0:0:0:0:
84,351,38474,1,0,0:0:0:0:
93,280,38595,1,10,3:0:0:0:
31,222,38716,1,8,3:0:0:0:
83,137,38837,5,6,0:0:0:0:
74,0,38958,1,0,0:0:0:0:
93,2,39079,2,0,P|128:74|134:83,1,60,2|0,1:0|0:0,0:0:0:0:
3,310,39321,6,0,P|25:241|33:222,1,60,6|0,1:0|0:0,0:0:0:0:
147,179,39563,1,2,0:0:0:0:
156,193,39684,1,0,0:0:0:0:
131,262,39805,1,10,0:0:0:0:
219,149,40047,1,2,0:0:0:0:
222,139,40168,1,0,1:0:0:0:
285,100,40289,2,0,P|260:42|257:33,1,60,2|0,1:0|0:0,0:0:0:0:
336,150,40531,1,0,0:0:0:0:
330,165,40652,1,0,1:0:0:0:
373,226,40773,1,10,0:0:0:0:
459,93,41015,2,0,P|518:69|538:56,1,60,2|0,1:0|0:0,0:0:0:0:
445,271,41257,6,0,P|394:323|370:371,1,120,2|2,1:0|0:0,0:0:0:0:
442,344,41620,1,0,1:0:0:0:
372,285,41741,1,10,0:0:0:0:
235,362,41982,2,0,P|169:383|156:389,1,60,2|0,1:0|0:0,0:0:0:0:
454,257,42224,2,0,P|519:294|536:300,1,60,6|0,1:0|0:0,0:0:0:0:
220,284,42466,5,8,0:3:0:0:
211,274,42547,5,8,0:3:0:0:
210,260,42628,5,8,0:3:0:0:
216,252,42708,5,8,0:3:0:0:
474,224,42950,2,0,P|534:200|549:191,1,60,0|0,1:0|0:0,0:0:0:0:
393,93,43192,2,0,P|327:56|265:34,1,120,2|2,1:0|0:0,0:0:0:0:
226,0,43555,1,0,1:0:0:0:
170,47,43676,1,10,0:0:0:0:
41,129,43918,1,2,0:0:0:0:
32,108,44039,1,0,1:0:0:0:
114,154,44160,2,0,P|83:215|76:237,1,60,2|0,0:0|0:0,0:0:0:0:
8,307,44402,1,0,0:0:0:0:
17,323,44523,1,0,1:0:0:0:
77,361,44644,1,10,0:0:0:0:
166,213,44886,2,0,P|239:186|248:184,1,60,2|0,1:0|0:0,0:0:0:0:
322,379,45128,6,0,P|259:341|209:322,1,120,2|2,1:0|0:0,0:0:0:0:
145,321,45491,1,2,1:0:0:0:
177,384,45611,1,10,0:0:0:0:
240,165,45853,5,10,0:0:0:0:
239,172,45914,5,0,0:0:0:0:
238,178,45974,5,10,0:0:0:0:
305,246,46095,6,0,B|407:224|376:200|486:177,1,180,10|0,0:0|3:0,0:0:0:0:
512,249,46579,1,0,1:0:0:0:
505,249,46700,1,0,0:0:0:0:
465,309,46821,1,0,1:0:0:0:
504,23,47063,6,0,P|440:0|427:-6,1,60,6|0,1:0|0:0,0:0:0:0:
336,103,47305,1,2,0:0:0:0:
391,51,47426,1,0,1:0:0:0:
383,39,47547,1,10,0:0:0:0:
262,106,47789,2,0,P|235:171|225:183,1,60,2|0,1:0|0:0,0:0:0:0:
210,344,48031,1,10,3:0:0:0:
202,322,48152,1,0,0:0:0:0:
163,260,48273,1,8,3:0:0:0:
140,275,48394,1,8,3:0:0:0:
100,339,48515,1,10,3:0:0:0:
284,277,48757,1,2,1:0:0:0:
55,201,48999,6,0,P|30:128|8:76,1,120,2|2,1:0|0:0,0:0:0:0:
42,19,49361,1,0,1:0:0:0:
118,36,49482,1,10,0:0:0:0:
53,300,49724,2,0,P|-5:272|-18:268,1,60,2|0,1:0|0:0,0:0:0:0:
132,120,49966,2,0,P|199:92|222:87,1,60,2|0,1:0|0:0,0:0:0:0:
288,0,50208,5,8,3:0:0:0:
305,3,50289,5,8,3:0:0:0:
299,6,50370,5,8,3:0:0:0:
298,19,50450,5,8,3:0:0:0:
227,175,50692,1,0,1:0:0:0:
361,74,50934,2,0,P|433:99|461:105,1,60,6|0,1:0|0:0,0:0:0:0:
497,191,51176,2,0,P|446:237|436:252,1,60,2|0,0:0|1:0,0:0:0:0:
493,110,51418,1,10,0:0:0:0:
414,301,51660,1,2,0:0:0:0:
421,324,51781,1,0,1:0:0:0:
361,377,51902,2,0,P|305:342|248:318,1,120,2|0,1:0|0:0,0:0:0:0:
184,315,52265,1,0,1:0:0:0:
137,377,52386,1,10,0:0:0:0:
317,254,52628,1,2,1:0:0:0:
36,314,52870,6,0,P|61:377|60:395,1,60,2|0,1:0|0:0,0:0:0:0:
110,256,53111,1,2,0:0:0:0:
122,236,53232,1,2,1:0:0:0:
57,197,53353,2,0,P|-18:188|-30:182,1,60,10|0,0:0|0:0,0:0:0:0:
103,78,53595,2,0,P|160:53|179:52,1,60,2|0,1:0|0:0,0:0:0:0:
341,10,53837,2,0,P|279:69|259:115,1,120,2|2,1:0|0:0,0:0:0:0:
206,147,54200,1,0,1:0:0:0:
245,213,54321,1,10,0:0:0:0:
441,82,54563,5,10,0:0:0:0:
439,76,54644,5,10,0:0:0:0:
439,70,54724,5,10,0:0:0:0:
439,64,54805,6,0,B|385:139|446:144|398:246,1,180,6|0,0:0|1:0,0:0:0:0:
428,314,55289,1,0,1:0:0:0:
236,372,55531,1,2,1:0:0:0:
254,340,55652,1,2,1:0:0:0:
159,372,55773,2,0,P|128:302|75:198,1,180,6|0,0:0|1:0,0:0:0:0:
118,146,56257,1,0,1:0:0:0:
9,10,56499,1,2,1:0:0:0:
0,33,56620,1,2,1:0:0:0:
137,69,56741,6,0,P|192:36|307:1,1,180,6|8,0:0|3:0,0:0:0:0:
400,7,57224,1,8,3:0:0:0:
382,26,57345,1,8,3:0:0:0:
437,86,57466,2,0,P|499:56|519:50,1,60,8|8,3:0|3:0,0:0:0:0:
384,171,57708,1,6,0:0:0:0:
310,191,57829,1,0,0:0:0:0:
299,265,57950,1,8,3:0:0:0:
348,325,58071,1,8,3:0:0:0:
424,313,58192,1,8,3:0:0:0:
460,244,58313,1,8,3:0:0:0:
512,178,58434,5,8,0:0:0:0:
509,172,58495,5,8,0:0:0:0:
507,166,58555,5,8,0:0:0:0:
505,160,58616,5,8,0:0:0:0:
501,152,58676,6,0,P|418:176|322:212,1,167.999994873047,14|2,0:0|0:0,0:0:0:0:
285,347,59039,1,2,0:0:0:0:
217,381,59160,2,0,P|136:329|112:313,1,83.9999974365235,0|2,1:0|1:0,0:0:0:0:
360,295,59402,1,2,1:0:0:0:
386,367,59523,1,0,0:0:0:0:
226,290,59644,2,0,P|248:191|251:162,1,83.9999974365235,2|0,1:0|0:0,0:0:0:0:
70,295,59886,2,0,P|46:376|44:386,1,83.9999974365235,2|8,0:0|0:0,0:0:0:0:
298,151,60128,1,2,0:0:0:0:
276,127,60249,1,0,1:0:0:0:
180,146,60370,1,10,0:0:0:0:
362,8,60611,6,0,B|442:44|421:13|538:70,1,167.999994873047,2|2,1:0|1:0,0:0:0:0:
416,140,60974,2,0,P|331:172|292:191,1,83.9999974365235,10|0,0:0|0:0,0:0:0:0:
466,209,61216,1,2,1:0:0:0:
452,220,61337,1,10,0:0:0:0:
473,297,61458,1,2,0:0:0:0:
431,364,61579,2,0,P|342:329|337:328,1,83.9999974365235,10|0,0:0|0:0,0:0:0:0:
205,258,61821,2,0,P|285:228|304:216,1,83.9999974365235,2|8,1:0|0:0,0:0:0:0:
26,317,62063,2,0,P|109:336|201:376,1,167.999994873047,2|8,0:0|0:0,0:0:0:0:
118,256,62426,1,0,0:0:0:0:
108,362,62547,6,0,P|78:239|37:132,1,167.999994873047,6|2,1:0|0:0,0:0:0:0:
2,91,62910,1,2,0:0:0:0:
16,65,63031,2,0,P|114:23|138:12,1,83.9999974365235,2|2,1:0|1:0,0:0:0:0:
224,127,63273,1,10,0:0:0:0:
198,141,63394,1,2,0:0:0:0:
189,231,63515,2,0,P|232:306|240:323,1,83.9999974365235,2|0,1:0|0:0,0:0:0:0:
309,141,63757,2,0,P|340:56|355:28,1,83.9999974365235,2|8,1:0|0:0,0:0:0:0:
313,317,63999,1,2,0:0:0:0:
304,340,64120,1,0,1:0:0:0:
372,381,64241,2,0,P|453:341|470:336,1,83.9999974365235,10|0,0:0|0:0,0:0:0:0:
469,182,64482,6,0,P|372:169|298:133,1,167.999994873047,2|2,1:0|0:0,0:0:0:0:
202,36,64845,2,0,P|238:15|279:11,1,83.9999974365235,10|0,0:0|0:0,0:0:0:0:
483,1,65087,1,2,1:0:0:0:
421,52,65208,1,8,0:0:0:0:
481,165,65329,1,0,0:0:0:0:
429,348,65450,2,0,B|409:261|389:286|371:131,1,167.999994873047,6|8,0:0|0:0,0:0:0:0:
265,313,65813,2,0,P|242:341|219:390,1,83.9999974365235,6|8,0:0|0:0,0:0:0:0:
442,252,66055,1,8,0:0:0:0:
512,292,66176,5,6,0:0:0:0:
509,299,66236,5,8,0:0:0:0:
505,306,66297,5,8,0:0:0:0:
502,313,66357,5,8,0:0:0:0:
500,321,66418,2,0,P|426:340|336:372,1,167.999994873047,6|2,1:0|0:0,0:0:0:0:
206,266,66781,1,2,0:0:0:0:
187,256,66902,2,0,P|110:303|95:305,1,83.9999974365235,0|2,1:0|1:0,0:0:0:0:
271,155,67144,1,10,0:0:0:0:
285,184,67265,1,0,0:0:0:0:
177,168,67386,2,0,P|204:88|206:66,1,83.9999974365235,10|0,0:0|0:0,0:0:0:0:
389,126,67628,2,0,P|362:206|360:228,1,83.9999974365235,2|8,1:0|0:0,0:0:0:0:
311,70,67870,1,2,0:0:0:0:
369,25,67991,1,0,1:0:0:0:
512,28,68111,2,0,P|430:71|415:96,1,83.9999974365235,10|0,0:0|0:0,0:0:0:0:
277,193,68353,6,0,B|358:238|351:209|446:263,1,167.999994873047,2|2,1:0|1:0,0:0:0:0:
381,349,68716,2,0,P|289:371|268:378,1,83.9999974365235,10|0,0:0|0:0,0:0:0:0:
142,317,68958,1,2,1:0:0:0:
153,237,69079,1,10,0:0:0:0:
123,336,69200,1,2,0:0:0:0:
66,216,69321,2,0,P|96:131|106:100,1,83.9999974365235,10|0,0:0|0:0,0:0:0:0:
208,374,69563,2,0,P|252:289|265:270,1,83.9999974365235,2|8,1:0|0:0,0:0:0:0:
36,56,69805,2,0,P|143:121|227:120,1,167.999994873047,2|8,0:0|0:0,0:0:0:0:
266,30,70168,1,0,0:0:0:0:
276,32,70289,6,0,P|358:8|445:0,1,167.999994873047,2|2,1:0|0:0,0:0:0:0:
494,105,70652,1,10,0:0:0:0:
485,121,70773,2,0,P|405:90|385:75,1,83.9999974365235,0|2,1:0|1:0,0:0:0:0:
282,133,71015,1,10,0:0:0:0:
292,151,71136,1,2,0:0:0:0:
362,257,71257,2,0,P|397:171|409:152,1,83.9999974365235,2|0,1:0|0:0,0:0:0:0:
192,123,71499,2,0,P|155:206|141:228,1,83.9999974365235,2|8,1:0|0:0,0:0:0:0:
224,354,71741,1,2,0:0:0:0:
246,340,71861,1,0,1:0:0:0:
363,383,71982,1,10,0:0:0:0:
290,211,72224,6,0,B|250:115|285:134|237:25,1,180,6|8,0:0|0:0,0:0:0:0:
124,0,72708,1,8,0:0:0:0:
50,20,72829,1,8,0:0:0:0:
180,109,72950,1,8,0:0:0:0:
345,5,73192,5,6,0:0:0:0:
418,34,73313,1,0,0:0:0:0:
485,114,73434,1,8,0:0:0:0:
469,125,73555,1,8,0:0:0:0:
402,208,73676,5,8,0:0:0:0:
399,202,73736,5,8,0:0:0:0:
396,196,73797,5,8,0:0:0:0:
393,190,73857,5,8,0:0:0:0:
390,184,73918,6,0,P|364:245|360:260,1,60,10|8,0:0|0:0,0:0:0:0:
262,373,74160,6,0,B|215:266|254:300|187:123,1,192,6|2,0:0|1:0,0:0:0:0:
285,49,74523,1,10,0:0:0:0:
273,29,74644,2,0,P|178:-9|165:-18,1,96,0|2,0:0|1:0,0:0:0:0:
37,118,74886,1,10,0:0:0:0:
107,78,75007,1,2,0:0:0:0:
271,126,75128,2,0,P|364:162|376:162,1,96,10|0,0:0|0:0,0:0:0:0:
241,361,75370,2,0,P|148:325|136:325,1,96,2|8,1:0|0:0,0:0:0:0:
23,218,75611,1,2,0:0:0:0:
98,188,75732,1,0,1:0:0:0:
27,328,75853,1,10,0:0:0:0:
227,229,76095,6,0,P|408:299|436:307,1,192,2|2,1:0|1:0,0:0:0:0:
497,201,76458,2,0,P|413:138|376:117,1,96,10|0,0:0|0:0,0:0:0:0:
319,20,76700,1,2,1:0:0:0:
394,0,76821,1,10,0:0:0:0:
409,11,76942,1,2,0:0:0:0:
269,85,77063,2,0,P|308:174|310:187,1,96,10|0,0:0|0:0,0:0:0:0:
469,384,77305,2,0,P|513:297|525:283,1,96,2|8,1:0|0:0,0:0:0:0:
420,142,77547,2,0,P|322:224|299:299,1,192,2|8,0:0|0:0,0:0:0:0:
179,380,77910,1,0,0:0:0:0:
168,362,78031,6,0,P|118:249|85:218,1,96,2|0,1:0|0:0,0:0:0:0:
250,185,78273,1,2,1:0:0:0:
265,187,78394,2,0,P|315:300|348:331,1,96,10|0,0:0|0:0,0:0:0:0:
69,372,78636,1,2,1:0:0:0:
24,308,78757,1,10,0:0:0:0:
33,293,78878,1,0,0:0:0:0:
94,176,78999,2,0,P|52:200|9:221,1,96,2|0,1:0|0:0,0:0:0:0:
160,379,79241,1,2,1:0:0:0:
180,369,79361,1,8,0:0:0:0:
227,306,79482,2,0,P|323:337|342:345,1,96,2|0,0:0|1:0,0:0:0:0:
177,136,79724,1,10,0:0:0:0:
391,376,79966,6,0,P|431:259|468:184,1,192,2|2,1:0|1:0,0:0:0:0:
293,114,80329,2,0,P|320:210|323:228,1,96,10|0,0:0|0:0,0:0:0:0:
419,113,80571,1,2,1:0:0:0:
431,88,80692,1,10,0:0:0:0:
373,17,80813,1,0,0:0:0:0:
216,53,80934,2,0,P|105:109|45:150,1,192,6|8,0:0|0:0,0:0:0:0:
319,206,81297,2,0,P|414:234|495:264,1,96,6|8,0:0|0:0,0:0:0:0:
135,108,81539,1,8,0:0:0:0:
47,236,81660,5,6,0:0:0:0:
48,231,81720,5,8,0:0:0:0:
49,226,81781,5,8,0:0:0:0:
51,222,81841,5,8,0:0:0:0:
53,218,81902,6,0,P|108:231|242:305,1,192,6|2,0:0|0:0,0:0:0:0:
397,380,82265,1,2,1:0:0:0:
416,371,82386,2,0,P|457:280|471:249,1,96,0|2,0:0|1:0,0:0:0:0:
304,137,82628,1,10,0:0:0:0:
323,213,82749,1,2,0:0:0:0:
494,108,82870,2,0,P|396:60|381:43,1,96,2|0,1:0|0:0,0:0:0:0:
226,2,83111,2,0,P|185:97|175:108,1,96,2|8,1:0|0:0,0:0:0:0:
90,221,83353,1,2,0:0:0:0:
67,188,83474,1,0,1:0:0:0:
100,98,83595,1,10,0:0:0:0:
239,234,83837,6,0,P|139:297|110:377,1,192,2|2,1:0|1:0,0:0:0:0:
279,354,84200,2,0,P|387:370|402:375,1,96,10|0,0:0|0:0,0:0:0:0:
235,224,84442,1,2,1:0:0:0:
300,158,84563,1,10,0:0:0:0:
282,130,84684,1,2,0:0:0:0:
400,164,84805,2,0,P|347:249|342:267,1,96,10|0,0:0|0:0,0:0:0:0:
184,117,85047,2,0,P|237:32|242:14,1,96,2|8,1:0|0:0,0:0:0:0:
507,80,85289,2,0,P|397:55|343:-7,1,192,2|8,0:0|0:0,0:0:0:0:
0,150,85773,6,0,P|130:186|190:298,1,192,6|2,1:0|1:0,0:0:0:0:
280,369,86136,2,0,P|310:273|330:248,1,96,10|0,0:0|0:0,0:0:0:0:
439,186,86378,1,2,1:0:0:0:
484,250,86499,1,10,0:0:0:0:
448,344,86620,1,2,0:0:0:0:
322,266,86741,2,0,P|230:221|204:216,1,96,10|0,0:0|0:0,0:0:0:0:
409,100,86982,2,0,P|513:73|528:66,1,96,2|8,1:0|0:0,0:0:0:0:
285,2,87224,1,2,0:0:0:0:
228,57,87345,1,0,1:0:0:0:
299,161,87466,1,10,0:0:0:0:
114,372,87708,6,0,B|63:258|110:288|39:115,1,192,6|8,0:0|0:0,0:0:0:0:
207,61,88071,2,0,P|180:164|179:190,1,96,8|8,0:0|0:0,0:0:0:0:
127,283,88313,1,8,0:0:0:0:
210,378,88434,1,8,0:0:0:0:
292,141,88676,2,0,P|391:89|472:61,1,192,4|0,0:0|1:0,0:0:0:0:
423,226,89039,2,0,P|377:326|374:345,1,96,8|0,0:0|1:0,0:0:0:0:
304,384,89281,1,8,0:0:0:0:
248,306,89402,1,10,0:0:0:0:
291,165,89523,1,10,0:0:0:0:
204,3,89644,6,0,B|91:28|141:56|19:78,1,192,6|0,0:0|1:0,0:0:0:0:
152,152,90007,2,0,P|275:184|293:194,1,96,8|0,0:0|0:0,0:0:0:0:
89,242,90249,1,0,1:0:0:0:
80,256,90370,2,0,P|-7:305|-26:310,1,96,8|0,0:0|0:0,0:0:0:0:
183,377,90611,1,8,3:0:0:0:
213,304,90732,1,8,3:0:0:0:
325,356,90853,1,8,3:0:0:0:
303,280,90974,1,8,3:0:0:0:
431,376,91095,5,8,0:0:0:0:
428,371,91156,5,8,0:0:0:0:
426,366,91216,5,8,0:0:0:0:
425,361,91277,5,0,0:0:0:0:
424,356,91337,6,0,P|445:278|458:250,1,96,8|0,0:0|0:0,0:0:0:0:
512,55,91579,5,4,0:0:0:0:
