osu file format v14

[General]
AudioFilename: audio.mp3
AudioLeadIn: 0
PreviewTime: -1
Countdown: 1
SampleSet: Soft
StackLeniency: 0.7
Mode: 0
LetterboxInBreaks: 0
WidescreenStoryboard: 0

[Editor]
Bookmarks: 10804,31515,52121,58821,66740,85928,105321,125117,145828,160373,179560,199053,218749,237023,257733,277126,296618,298750,303699
DistanceSpacing: 1.3
BeatDivisor: 4
GridSize: 32
TimelineZoom: 1.600001

[Metadata]
Title:Wonderful Heaven
TitleUnicode:有頂天変
Artist:Akiyama Uni
ArtistUnicode:あきやまうに
Creator:iSwitch
Version:Extra
Source:東方Project
Tags:
BeatmapID:1457750
BeatmapSetID:688732

[Difficulty]
HPDrainRate:7
CircleSize:4
OverallDifficulty:7
ApproachRate:9.6
SliderMultiplier:1.4
SliderTickRate:1

[Events]
//Background and Video events
//Break Periods
//Storyboard Layer 0 (Background)
//Storyboard Layer 1 (Fail)
//Storyboard Layer 2 (Pass)
//Storyboard Layer 3 (Foreground)
//Storyboard Sound Samples

[TimingPoints]
2277,304.568527918782,4,2,0,40,1,0
3495,-133.333333333333,4,2,0,40,0,0
4713,-100,4,2,0,40,0,0
5931,-133.333333333333,4,2,0,40,0,0
7150,-133.333333333333,4,2,0,40,0,0
8368,-100,4,2,0,40,0,0
9586,-80,4,2,0,40,0,0
12023,-66.6666666666667,4,2,0,40,0,0
13241,-57.1428571428571,4,2,0,40,0,0
13850,-66.6666666666667,4,2,0,40,0,0
15525,-57.1428571428571,4,2,0,40,0,0
17809,-66.6666666666667,4,2,0,40,0,0
18114,-57.1428571428571,4,2,0,40,0,0
18723,-66.6666666666667,4,2,0,40,0,0
20398,-57.1428571428571,4,2,0,40,0,0
22683,-66.6666666666667,4,2,0,40,0,0
22987,-57.1428571428571,4,2,0,40,0,0
23596,-66.6666666666667,4,2,0,40,0,0
25271,-57.1428571428571,4,2,0,40,0,0
27556,-66.6666666666667,4,2,0,40,0,0
27860,-57.1428571428571,4,2,0,40,0,0
28469,-66.6666666666667,4,2,0,40,0,0
30145,-57.1428571428571,4,2,0,40,0,0
31515,303.030303030303,4,2,0,40,1,0
33484,-66.6666666666667,4,2,0,40,0,0
33939,-57.1428571428571,4,2,0,40,0,0
34545,-66.6666666666667,4,2,0,40,0,0
36211,-57.1428571428571,4,2,0,40,0,0
38484,-66.6666666666667,4,2,0,40,0,0
38787,-57.1428571428571,4,2,0,40,0,0
39393,-66.6666666666667,4,2,0,40,0,0
52121,304.568527918782,4,2,0,40,1,0
85928,303.030303030303,4,2,0,100,1,0
105321,304.568527918782,4,2,0,40,1,0
145828,303.030303030303,4,2,0,40,1,0
160373,304.568527918782,4,2,0,100,1,0
199053,303.030303030303,4,2,0,100,1,0
218749,609.137055837563,4,2,0,100,1,0
237023,304.568527918782,4,2,0,100,1,0
257733,303.030303030303,4,2,0,100,1,0
277126,304.568527918782,4,2,0,100,1,0

[HitObjects]
369,182,2277,6,0,P|292:172|238:167,1,105
264,169,2581,2,0,P|316:174|369:182,1,105
368,182,2886,1,0,0:0:0:0:
70,296,3190,6,0,P|147:306|201:311,1,105
175,309,3495,2,0,P|123:304|70:296,3,105
151,124,4713,6,0,P|141:201|136:255,1,105
138,229,5017,2,0,P|143:177|151:124,1,105
151,125,5322,1,0,0:0:0:0:
301,346,5626,6,0,P|311:269|316:215,1,105
314,241,5931,2,0,P|309:293|301:346,2,105
400,291,7150,6,0,P|398:246|374:194,1,78.7500030040742
313,240,7454,2,0,P|313:201|326:164,1,78.7500030040742
399,136,7759,2,0,P|369:103|317:78,1,78.7500030040742
266,113,8063,1,0,0:0:0:0:
109,360,8368,6,0,P|110:315|128:256,1,105
205,292,8672,2,0,P|204:247|186:188,1,105
102,187,8977,2,0,P|126:148|171:107,1,105
244,140,9281,1,0,0:0:0:0:
392,242,9586,6,0,P|326:238|261:232,1,131.25
203,327,9891,2,0,P|268:324|333:320,1,131.25
392,242,10195,2,0,P|326:238|261:232,1,131.25
203,327,10500,2,0,P|268:324|333:320,1,131.25
391,243,10804,1,0,0:0:0:0:
202,97,11109,6,0,P|209:155|216:193,1,87.5
165,177,11414,2,0,B|201:233|240:274|240:274|203:176|201:68,1,306.25
279,150,12023,5,0,0:0:0:0:
128,131,12175,1,0,0:0:0:0:
165,270,12327,1,0,0:0:0:0:
275,140,12480,5,0,0:0:0:0:
122,138,12632,1,0,0:0:0:0:
174,271,12784,1,0,0:0:0:0:
269,131,12936,6,0,B|303:132|334:119|334:119|293:145|263:178,1,157.500006008148
297,250,13241,2,0,B|331:201|443:136|443:136|336:254|310:342,1,428.750004088879
311,337,13850,2,0,B|336:254|443:136|443:136|394:163|337:208,1,367.500014019013
269,131,14459,5,0,0:0:0:0:
435,122,14611,1,0,0:0:0:0:
366,265,14763,1,0,0:0:0:0:
274,122,14916,5,0,0:0:0:0:
356,265,15068,1,0,0:0:0:0:
280,114,15373,5,0,0:0:0:0:
439,138,15525,2,0,B|422:215|433:274|433:274|400:358|333:363|265:316|283:267|280:244|280:244|235:347|126:314|74:272|46:160|136:54|272:64|323:184|292:245|259:272,1,918.750008761883
201,215,16896,5,0,0:0:0:0:
52,224,17048,1,0,0:0:0:0:
60,372,17200,1,0,0:0:0:0:
197,205,17353,5,0,0:0:0:0:
46,231,17505,1,0,0:0:0:0:
69,373,17657,1,0,0:0:0:0:
191,196,17809,6,0,B|217:191|246:179|246:179|209:205|173:254,1,157.500006008148
264,259,18114,2,0,B|333:211|360:103|360:103|319:242|339:386,1,428.750004088879
334,341,18723,2,0,B|325:227|360:103|360:103|340:183|302:224,1,367.500014019013
233,273,19332,5,0,0:0:0:0:
308,220,19484,1,0,0:0:0:0:
361,105,19636,1,0,0:0:0:0:
241,279,19789,5,0,0:0:0:0:
350,99,19941,1,0,0:0:0:0:
312,213,20246,5,0,0:0:0:0:
251,279,20398,2,0,B|300:184|286:131|286:131|243:56|338:-55|467:9|485:136|400:187|341:188|303:153|303:153|285:137|281:123|213:58|327:-68|433:4|457:93|430:137|377:167,1,918.750008761883
349,98,21769,5,0,0:0:0:0:
489,131,21921,1,0,0:0:0:0:
470,275,22073,1,0,0:0:0:0:
350,87,22226,5,0,0:0:0:0:
492,137,22378,1,0,0:0:0:0:
457,285,22530,1,0,0:0:0:0:
357,78,22683,6,0,B|340:73|308:54|308:54|321:115|374:159,1,157.500006008148
319,206,22987,2,0,B|255:151|229:36|229:36|232:174|272:274,1,428.750004088879
268,264,23596,2,0,B|232:174|229:36|229:36|255:151|308:193,1,367.500014019013
332,229,24205,5,0,0:0:0:0:
250,109,24357,1,0,0:0:0:0:
124,178,24509,1,0,0:0:0:0:
341,219,24662,5,0,0:0:0:0:
118,189,24815,1,0,0:0:0:0:
341,207,25119,5,0,0:0:0:0:
234,105,25271,2,0,B|140:141|13:60|13:60|128:155|46:243|46:243|2:266|-29:367|77:405|128:374|161:337|147:277|147:277|202:311|283:250,1,857.500008177757
271,281,26642,5,0,0:0:0:0:
283,153,26794,1,0,0:0:0:0:
423,176,26946,1,0,0:0:0:0:
259,279,27099,5,0,0:0:0:0:
288,144,27251,1,0,0:0:0:0:
429,186,27403,1,0,0:0:0:0:
246,275,27556,6,0,B|221:300|208:322|208:322|236:260|233:197,1,157.500006008148
227,161,27860,2,0,B|180:92|152:14|152:14|183:195|146:280,1,428.750004088879
148,274,28469,2,0,B|178:191|160:44|160:44|186:109|239:175,1,367.500014019013
316,221,29079,5,0,0:0:0:0:
227,160,29231,1,0,0:0:0:0:
161,46,29383,1,0,0:0:0:0:
311,225,29535,5,0,0:0:0:0:
166,42,29688,1,0,0:0:0:0:
225,159,29992,5,0,0:0:0:0:
307,229,30145,2,0,B|139:198|35:286|35:286|44:207|93:166|93:166|44:161|-39:76|75:-50|172:-2|209:84|165:140|165:140|202:111|312:92|312:92|247:86|234:29,1,1041.25000993013
304,18,31515,1,0,0:0:0:0:
340,199,32727,5,0,0:0:0:0:
295,93,32878,1,0,0:0:0:0:
188,127,33030,1,0,0:0:0:0:
348,193,33181,5,0,0:0:0:0:
291,88,33332,1,0,0:0:0:0:
183,136,33484,1,0,0:0:0:0:
340,199,33636,6,0,B|348:224|349:257|349:257|308:190|247:170,1,157.500006008148
264,249,33939,2,0,B|231:292|223:339|223:339|214:202|188:127|188:127|188:183|160:257,1,428.750004088879
167,244,34545,2,0,B|185:187|184:148|184:148|212:204|228:326|228:326|234:293|264:249,1,367.500014019013
351,172,35151,5,0,0:0:0:0:
224,238,35302,1,0,0:0:0:0:
211,101,35454,1,0,0:0:0:0:
350,176,35605,5,0,0:0:0:0:
214,98,35757,1,0,0:0:0:0:
350,181,36060,5,0,0:0:0:0:
200,234,36211,2,0,B|123:227|22:266|22:266|260:141|504:84|504:84|356:100|264:80,1,918.750008761883
206,93,37575,5,0,0:0:0:0:
91,55,37726,1,0,0:0:0:0:
44,163,37878,1,0,0:0:0:0:
205,83,38030,5,0,0:0:0:0:
86,58,38181,1,0,0:0:0:0:
50,170,38333,1,0,0:0:0:0:
201,72,38484,6,0,B|230:72|254:67|254:67|204:93|172:129,1,157.500006008148
143,162,38787,2,0,B|119:254|117:328|117:328|211:155|295:124,1,428.750004088879
280,130,39393,2,0,B|203:171|117:328|117:328|119:254|140:177,1,367.500014019013
143,162,39999,5,0,0:0:0:0:
216,85,40151,1,0,0:0:0:0:
336,65,40303,1,0,0:0:0:0:
138,152,40454,5,0,0:0:0:0:
337,76,40605,1,0,0:0:0:0:
222,82,40908,5,0,0:0:0:0:
134,142,41059,1,0,0:0:0:0:
134,142,41211,2,0,B|152:65|90:27|21:35|-4:73|-35:160|51:206|110:171|110:171|202:122|372:187|372:187|337:188|300:208,1,682.50002603531
