osu file format v14

[General]
AudioFilename: audio.mp3
AudioLeadIn: 0
PreviewTime: 32953
Countdown: 0
SampleSet: Soft
StackLeniency: 0.7
Mode: 0
LetterboxInBreaks: 0
EpilepsyWarning: 1
WidescreenStoryboard: 1

[Editor]
Bookmarks: 9953,13953,17953,21953,25953,29953,32953,33953,49953,65953
DistanceSpacing: 1
BeatDivisor: 4
GridSize: 8
TimelineZoom: 2.8

[Metadata]
Title:Touhou Hisouten
TitleUnicode:東方緋想天
Artist:Akiyama Uni
ArtistUnicode:あきやまうに
Creator:sahuang
Version:Lunatic
Source:東方Project
Tags:Exile- Narcissu Lily Bread Frey LunaSaika 09kami FreeSongs th10.5 fxt tasofro twilight frontier 黄昏フロンティア u2 zun scarlet weather rhapsody jun
BeatmapID:975519
BeatmapSetID:455069

[Difficulty]
HPDrainRate:6
CircleSize:4.2
OverallDifficulty:7.5
ApproachRate:9.2
SliderMultiplier:3.2
SliderTickRate:1

[Events]
//Background and Video events
0,0,"4.jpg",0,0
//Break Periods
//Storyboard Layer 0 (Background)
//Storyboard Layer 1 (Fail)
//Storyboard Layer 2 (Pass)
//Storyboard Layer 3 (Foreground)
//Storyboard Sound Samples

[TimingPoints]
935,697.674418604651,4,1,9,40,1,0
935,-200,4,1,9,40,0,0
7911,789.473684210526,4,1,9,40,1,0
7911,-400,4,1,9,40,0,0
8503,934.579439252336,4,1,9,40,1,0
9203,1500,4,2,1,40,1,0
9203,-400,4,2,1,40,0,0
9953,500,4,2,9,60,1,0
12953,-83.3333333333333,4,2,9,50,0,0
13953,-100,4,2,9,50,0,0
25453,-100,4,2,9,40,0,0
25703,-100,4,2,9,30,0,0
25953,-100,4,2,9,50,0,0
32953,-90.9090909090909,4,2,9,50,0,0
33953,-74.0740740740741,4,2,9,70,0,1
47953,-83.3333333333333,4,2,9,60,0,1
48953,-90.9090909090909,4,2,9,50,0,0
49953,-74.0740740740741,4,2,9,70,0,1
63953,-83.3333333333333,4,2,9,60,0,1
64703,-66.6666666666667,4,2,9,60,0,1
64953,-86.9565217391304,4,2,9,65,0,1
65953,-90.9090909090909,4,2,9,65,0,0
69953,-86.9565217391304,4,2,9,40,0,0
70703,-133.333333333333,4,2,9,40,0,0
70953,-100,4,2,9,70,0,0
71453,-200,4,2,9,80,0,0
71953,-90.9090909090909,4,2,9,55,0,0
73828,-90.9090909090909,4,2,9,20,0,0
73953,-90.9090909090909,4,2,9,40,0,0
78953,-200,4,2,9,65,0,0
79328,-100,4,2,9,60,0,0
79703,-66.6666666666667,4,2,9,80,0,0
79953,-66.6666666666667,4,2,9,40,0,0
80453,-100,4,2,9,35,0,0
80953,-100,4,1,9,50,0,0
81453,-100,4,1,9,40,0,0
81953,-100,4,1,9,30,0,0
82453,-100,4,1,9,20,0,0
82953,-100,4,1,9,10,0,0
83390,-100,4,1,9,5,0,0
83453,-100,4,1,9,5,0,0

[Colours]
Combo1 : 98,255,176
Combo2 : 245,142,73
Combo3 : 98,176,255
Combo4 : 226,148,231

[HitObjects]
376,40,935,6,0,L|304:80,1,80,6|0,0:0|0:0,0:0:0:0:
136,40,1458,2,0,L|205:78,1,80,2|0,0:2|0:0,0:0:0:0:
256,144,1981,1,2,0:2:0:0:
312,296,2330,6,0,L|400:320,1,80,2|0,0:2|0:0,0:0:0:0:
200,296,2853,2,0,L|112:320,1,80,2|0,0:2|0:0,0:0:0:0:
256,240,3376,1,2,0:2:0:0:
120,160,3725,6,0,P|162:155|197:138,1,80,2|0,0:0|0:0,0:0:0:0:
224,64,4248,2,0,P|261:57|304:64,1,80,2|0,0:2|0:0,0:0:0:0:
382,81,4772,1,2,0:2:0:0:
443,132,4946,1,0,0:0:0:0:
480,202,5121,6,0,L|496:239,1,40,2|0,0:2|0:0,0:0:0:0:
442,298,5469,2,0,L|401:293,1,40,2|0,0:2|0:0,0:0:0:0:
366,221,5818,2,0,L|390:188,1,40,0|0,0:2|0:0,0:0:0:0:
322,144,6167,1,2,0:2:0:0:
242,154,6341,1,0,0:0:0:0:
216,248,6516,6,0,P|179:264|136:264,1,80,6|0,0:0|0:0,0:0:0:0:
59,263,7039,1,2,0:2:0:0:
95,66,7562,2,0,L|82:104,1,40,2|0,0:2|0:0,0:0:0:0:
165,185,7911,6,0,L|188:118,1,60,2|2,0:0|0:0,0:0:0:0:
264,267,9203,6,0,L|255:297,1,30,2|0,0:0|0:0,0:0:0:0:
112,376,9953,6,0,L|192:376,1,80,6|0,0:0|0:0,0:0:0:0:
256,296,10203,1,0,0:0:0:0:
256,296,10328,1,8,0:1:0:0:
320,376,10453,2,0,L|400:376,1,80
355,266,10703,1,8,0:1:0:0:
355,266,10828,1,0,0:0:0:0:
256,296,10953,6,0,L|192:248,1,80,8|0,0:0|0:0,0:0:0:0:
111,181,11203,1,0,0:0:0:0:
211,152,11328,2,0,L|275:200,1,80,8|0,0:1|0:0,0:0:0:0:
355,266,11578,1,0,0:0:0:0:
369,162,11703,2,0,L|369:77,1,80,8|0,0:1|0:0,0:0:0:0:
265,100,11953,6,0,P|266:60|282:24,1,80,8|0,0:0|0:0,0:0:0:0:
369,82,12203,1,0,0:0:0:0:
265,100,12328,2,0,P|229:118|190:123,1,80,8|0,0:1|0:0,0:0:0:0:
196,19,12578,1,0,0:0:0:0:
265,100,12703,2,0,P|298:120|322:152,1,80,8|0,0:1|0:0,0:0:0:0:
293,277,12953,6,0,L|223:348,1,95.9999970703126,8|0,0:0|0:0,0:0:0:0:
171,229,13203,2,0,L|100:159,1,95.9999970703126,8|0,0:1|0:0,0:0:0:0:
219,107,13453,1,8,0:0:0:0:
302,14,13578,1,0,0:0:0:0:
400,90,13703,1,8,0:1:0:0:
320,185,13828,1,8,0:1:0:0:
219,107,13953,6,0,P|135:75|63:96,1,160,6|0,0:1|0:0,0:0:0:0:
32,188,14328,1,8,0:1:0:0:
32,188,14453,2,0,L|15:270,2,80,0|0|8,0:0|0:0|0:1,0:0:0:0:
135,174,14828,1,0,0:0:0:0:
224,232,14953,6,0,P|264:240|304:240,2,80,8|0|0,0:0|0:0|0:0,0:0:0:0:
234,127,15328,2,0,P|273:127|313:135,2,80,8|0|0,0:1|0:0|0:0,0:0:0:0:
136,149,15703,1,8,0:1:0:0:
142,70,15828,1,0,0:0:0:0:
142,70,15890,1,0,0:0:0:0:
142,70,15953,6,0,L|134:178,1,80,8|0,0:0|0:0,0:0:0:0:
126,274,16203,1,0,0:0:0:0:
126,274,16328,1,8,0:0:0:0:
256,16,16578,5,0,0:0:0:0:
370,70,16703,1,8,0:1:0:0:
142,70,16828,1,0,0:0:0:0:
256,280,16953,6,0,L|336:280,1,80,8|0,0:0|0:0,0:0:0:0:
256,104,17203,2,0,L|176:104,1,80,8|0,0:1|0:0,0:0:0:0:
278,277,17453,6,0,L|356:256,1,80,8|0,0:0|0:0,0:0:0:0:
233,106,17703,2,0,L|155:127,1,80
234,354,17953,6,0,B|272:368|314:354,2,80,6|0|0,0:0|0:0|0:0,0:0:0:0:
53,286,18328,2,0,P|75:253|111:236,1,80,8|0,0:1|0:0,0:0:0:0:
144,327,18578,1,0,0:0:0:0:
9,214,18703,2,0,P|-7:179|-1:140,1,80,8|0,0:1|0:0,0:0:0:0:
124,158,18953,6,0,P|148:126|188:110,2,80,8|0|8,0:0|0:0|0:1,0:0:0:0:
192,208,19328,2,0,P|224:232|264:232,1,80,0|0,0:0|0:0,0:0:0:0:
355,185,19578,1,8,0:1:0:0:
329,51,19703,2,0,P|295:32|256:35,1,80,0|0,0:0|0:0,0:0:0:0:
355,185,19953,6,0,L|435:185,2,80,8|0|8,0:0|0:0|0:1,0:0:0:0:
322,283,20328,2,0,P|314:323|330:363,1,80,0|0,0:0|0:0,0:0:0:0:
420,311,20578,1,8,0:1:0:0:
355,185,20703,2,0,P|329:155|291:142,1,80,0|8,0:0|0:1,0:0:0:0:
124,313,20953,6,0,B|82:326|41:303,1,80,8|0,0:0|0:0,0:0:0:0:
2,212,21202,1,8,0:1:0:0:
175,234,21328,1,0,0:0:0:0:
54,123,21453,2,0,P|93:125|129:143,1,80,0|8,0:0|0:1,0:0:0:0:
250,254,21704,2,0,P|210:251|174:233,1,80,0|0,0:0|0:0,0:0:0:0:
252,127,21953,6,0,P|300:69|381:66,2,160,6|8|0,0:1|0:1|0:0,0:0:0:0:
349,165,22578,1,0,0:0:0:0:
431,227,22703,1,8,0:1:0:0:
364,307,22828,1,0,0:0:0:0:
278,248,22953,6,0,P|230:306|150:308,2,160,8|0|0,0:0|0:0|0:0,0:0:0:0:
181,210,23578,1,0,0:0:0:0:
99,148,23703,1,8,0:1:0:0:
166,68,23828,1,0,0:0:0:0:
252,127,23953,6,0,P|329:129|385:75,1,160,8|8,0:0|0:1,0:0:0:0:
297,49,24328,2,0,B|353:201,2,160,0|8|0,0:0|0:1|0:0,0:0:0:0:
412,18,24953,5,8,0:0:0:0:
460,127,25078,2,0,L|496:220,2,80,0|8|0,0:0|0:1|0:0,0:0:0:0:
393,253,25453,2,0,L|364:327,1,80,8|0,0:0|0:0,0:0:0:0:
266,288,25703,2,0,L|237:213,1,80,8|0,0:1|0:0,0:0:0:0:
33,278,25953,5,6,0:0:0:0:
136,249,26078,2,0,P|141:289|128:329,2,80,0|0|8,0:0|0:0|0:1,0:0:0:0:
55,183,26453,2,0,P|50:143|63:103,1,80
144,42,26703,2,0,L|236:55,1,80,8|0,0:1|0:0,0:0:0:0:
285,135,26953,6,0,P|279:175|291:213,2,80,8|0|8,0:0|0:0|0:1,0:0:0:0:
384,167,27328,1,0,0:0:0:0:
478,216,27453,2,0,P|490:178|484:139,1,80,0|8,0:0|0:1,0:0:0:0:
384,87,27703,2,0,L|384:167,1,80,0|0,0:0|0:0,0:0:0:0:
384,264,27953,5,8,0:0:0:0:
281,235,28078,2,0,P|276:275|289:315,2,80,0|8|0,0:0|0:1|0:0,0:0:0:0:
384,167,28453,2,0,P|389:127|376:87,1,80,0|0,0:0|0:0,0:0:0:0:
297,22,28703,2,0,L|205:35,1,80,8|0,0:1|0:0,0:0:0:0:
184,131,28953,6,0,P|190:170|179:209,2,80,8|0|8,0:0|0:0|0:1,0:0:0:0:
87,161,29328,1,0,0:0:0:0:
101,265,29453,2,0,P|133:287|151:323,1,80,0|8,0:0|0:1,0:0:0:0:
43,362,29703,1,0,0:0:0:0:
151,323,29828,1,0,0:0:0:0:
263,358,29953,6,0,B|229:304|262:246|262:246|242:202,2,160,8|8|0,0:0|0:1|0:0,0:0:0:0:
335,300,30578,1,0,0:0:0:0:
423,196,30703,1,8,0:1:0:0:
463,296,30828,1,0,0:0:0:0:
423,196,30953,6,0,P|463:187|505:197,2,80,8|0|8,0:0|0:0|0:1,0:0:0:0:
321,134,31328,2,0,P|314:95|323:57,1,80,8|0,0:0|0:0,0:0:0:0:
188,57,31578,2,0,P|197:96|190:135,1,80,8|0,0:1|0:0,0:0:0:0:
256,216,31828,1,0,0:0:0:0:
256,216,31953,6,0,L|256:296,1,80,8|0,0:0|0:0,0:0:0:0:
161,251,32203,1,8,0:0:0:0:
62,293,32328,1,8,0:0:0:0:
161,251,32453,2,0,L|161:331,1,80,0|8,0:0|0:0,0:0:0:0:
62,293,32703,2,0,L|62:213,1,80,8|8,0:0|0:0,0:0:0:0:
64,161,32890,1,8,0:0:0:0:
63,160,32953,6,0,P|72:117|114:89,1,88.000002685547,6|0,0:0|0:0,0:0:0:0:
252,202,33203,2,0,P|243:244|209:270,1,88.000002685547,2|0,0:0|0:0,0:0:0:0:
256,96,33453,5,6,0:0:0:0:
209,270,33578,1,0,0:0:0:0:
165,169,33703,5,2,0:0:0:0:
339,216,33828,1,0,0:0:0:0:
256,96,33953,6,0,B|240:136|270:162|250:208,1,108.000000411987,6|0,0:0|0:0,0:0:0:0:
256,304,34203,1,2,0:0:0:0:
161,251,34328,2,0,P|143:300|155:356,1,108.000000411987,8|8,0:0|0:1,0:0:0:0:
364,352,34578,2,0,P|374:299|356:249,1,108.000000411987,2|8,0:0|0:1,0:0:0:0:
298,157,34828,1,0,0:0:0:0:
298,157,34953,6,0,B|312:88|281:46|281:46|354:49|354:49|323:79,1,216.000000823975,8|2,0:1|0:0,0:0:0:0:
213,113,35328,1,8,0:0:0:0:
141,45,35453,2,0,B|117:90|117:90|121:149,1,108.000000411987,2|0,0:0|0:0,0:0:0:0:
213,204,35703,2,0,B|237:249|237:249|233:308,1,108.000000411987,8|0,0:1|0:0,0:0:0:0:
130,268,35953,6,0,P|80:288|21:292,1,108.000000411987,6|0,0:1|0:0,0:0:0:0:
213,204,36203,2,0,P|263:184|322:180,1,108.000000411987,8|0,0:0|0:0,0:0:0:0:
412,226,36453,1,2,0:0:0:0:
412,226,36536,1,10,0:0:0:0:
412,226,36619,1,2,0:0:0:0:
412,226,36703,2,0,P|455:195|468:137,1,108.000000411987,8|0,0:1|0:0,0:0:0:0:
424,59,36953,6,0,L|314:46,1,108.000000411987,8|0,0:0|0:0,0:0:0:0:
218,91,37203,2,0,L|108:104,1,108.000000411987,0|2,0:0|0:0,0:0:0:0:
19,160,37453,2,0,P|7:212|34:257,1,108.000000411987,8|0,0:0|0:0,0:0:0:0:
156,366,37703,2,0,P|168:315|141:270,1,108.000000411987,8|0,0:1|0:0,0:0:0:0:
93,198,37953,6,0,B|142:166|199:199|199:199|255:231|301:198,1,216.000000823975,6|2,0:0|0:0,0:0:0:0:
250,122,38328,1,8,0:0:0:0:
299,299,38453,2,0,P|383:240|371:138,1,216.000000823975,8|8,0:1|0:1,0:0:0:0:
316,44,38828,1,0,0:0:0:0:
250,122,38953,6,0,L|135:122,1,108.000000411987,8|0,0:0|0:0,0:0:0:0:
262,262,39203,2,0,L|377:262,1,108.000000411987,2|8,0:0|0:0,0:0:0:0:
231,125,39453,6,0,L|120:154,1,108.000000411987,8|0,0:1|0:0,0:0:0:0:
279,257,39703,2,0,L|390:228,1,108.000000411987,2|0,0:0|0:0,0:0:0:0:
424,96,39953,6,0,B|397:89|368:96|368:96|344:112|296:112|272:96|272:96|241:86|208:96,1,216.000000823975,6|2,0:1|0:0,0:0:0:0:
320,16,40328,1,8,0:0:0:0:
128,63,40453,2,0,P|128:120|154:164,1,108.000000411987,0|8,0:0|0:0,0:0:0:0:
296,249,40703,2,0,P|296:195|270:149,1,108.000000411987,8|2,0:1|0:0,0:0:0:0:
81,222,40953,6,0,L|189:221,1,108.000000411987,8|0,0:0|0:0,0:0:0:0:
224,323,41203,2,0,L|117:325,1,108.000000411987,2|8,0:0|0:0,0:0:0:0:
188,221,41453,1,2,0:0:0:0:
308,269,41578,1,8,0:0:0:0:
236,373,41703,1,8,0:1:0:0:
116,325,41828,1,0,0:0:0:0:
308,269,41953,6,0,P|362:285|414:269,1,108.000000411987,6|0,0:0|0:0,0:0:0:0:
497,205,42203,1,2,0:0:0:0:
408,376,42328,2,0,B|421:320|421:320|406:251,1,108.000000411987,8|8,0:0|0:1,0:0:0:0:
374,142,42578,1,0,0:0:0:0:
394,44,42703,2,0,B|444:63|444:63|472:109,1,108.000000411987,8|0,0:1|0:0,0:0:0:0:
353,243,42953,6,0,B|302:223|302:223|274:177,1,108.000000411987,8|0,0:0|0:0,0:0:0:0:
374,142,43203,1,2,0:0:0:0:
454,213,43328,1,8,0:0:0:0:
275,178,43453,2,0,L|165:213,1,108.000000411987,2|0,0:0|0:0,0:0:0:0:
79,268,43703,2,0,P|59:219|70:167,1,108.000000411987,8|0,0:1|0:0,0:0:0:0:
116,59,43953,6,0,L|221:25,1,108.000000411987,6|0,0:1|0:0,0:0:0:0:
311,82,44203,2,0,L|208:115,1,108.000000411987,8|0,0:0|0:0,0:0:0:0:
301,171,44453,1,2,0:0:0:0:
301,171,44536,1,10,0:0:0:0:
301,171,44619,2,0,L|386:141,1,72.0000002746582,2|8,0:0|0:1,0:0:0:0:
408,69,44828,1,0,0:0:0:0:
500,88,44953,6,0,P|511:140|497:192,1,108.000000411987,8|0,0:0|0:0,0:0:0:0:
500,295,45203,1,2,0:0:0:0:
395,254,45328,1,0,0:0:0:0:
289,275,45453,2,0,B|254:285|254:285|219:277|219:277|183:283,1,108.000000411987,8|0,0:0|0:0,0:0:0:0:
253,199,45703,1,8,0:1:0:0:
247,363,45828,1,0,0:0:0:0:
92,315,45953,6,0,B|80:282|88:260|88:260|95:241|85:206,1,108.000000411987,6|0,0:0|0:0,0:0:0:0:
80,101,46203,1,0,0:0:0:0:
163,32,46328,2,0,P|187:84|182:137,2,108.000000411987,8|0|2,0:0|0:0|0:0,0:0:0:0:
270,37,46703,1,8,0:1:0:0:
326,129,46828,1,0,0:0:0:0:
421,54,46953,6,0,B|409:87|417:109|417:109|424:128|414:163,1,108.000000411987,6|0,0:0|0:0,0:0:0:0:
409,268,47203,1,0,0:0:0:0:
492,337,47328,2,0,P|516:285|511:232,1,108.000000411987,8|2,0:0|0:0,0:0:0:0:
409,268,47578,1,8,0:0:0:0:
388,373,47703,1,8,0:1:0:0:
284,341,47828,2,0,L|302:281,1,54.0000002059937
305,236,47953,6,0,L|305:124,1,95.9999970703126,6|0,0:1|0:0,0:0:0:0:
256,56,48203,1,8,0:0:0:0:
256,56,48328,1,8,0:1:0:0:
256,328,48578,5,0,0:0:0:0:
368,280,48703,1,2,0:0:0:0:
144,280,48828,1,8,0:0:0:0:
256,56,48953,6,0,P|297:42|347:56,1,88.000002685547,6|0,0:0|0:0,0:0:0:0:
245,193,49203,2,0,P|203:206|154:193,1,88.000002685547,2|0,0:0|0:0,0:0:0:0:
256,56,49453,5,6,0:0:0:0:
424,107,49578,1,0,0:0:0:0:
352,192,49703,5,2,0:0:0:0:
390,41,49828,1,0,0:0:0:0:
352,192,49953,6,0,B|320:184|301:193|301:193|280:200|240:192,1,108.000000411987,6|0,0:0|0:0,0:0:0:0:
136,192,50203,1,2,0:0:0:0:
96,300,50328,2,0,P|148:310|198:292,1,108.000000411987,8|8,0:0|0:1,0:0:0:0:
196,96,50578,2,0,P|146:78|94:89,1,108.000000411987,0|8,0:0|0:1,0:0:0:0:
136,192,50828,1,0,0:0:0:0:
293,248,50953,6,0,B|364:269|401:222|401:222|402:335|371:273,1,216.000000823975,8|2,0:0|0:0,0:0:0:0:
335,156,51328,1,8,0:0:0:0:
403,77,51453,2,0,B|358:53|358:53|299:57,1,108.000000411987,2|0,0:0|0:0,0:0:0:0:
244,149,51703,2,0,B|199:173|199:173|140:169,1,108.000000411987,8|0,0:1|0:0,0:0:0:0:
48,120,51953,6,0,P|28:70|24:11,1,108.000000411987,6|0,0:1|0:0,0:0:0:0:
142,169,52203,2,0,P|162:219|166:278,1,108.000000411987,8|0,0:0|0:0,0:0:0:0:
78,322,52453,1,2,0:0:0:0:
78,322,52536,1,10,0:0:0:0:
78,322,52619,1,2,0:0:0:0:
78,322,52703,2,0,P|121:359|172:368,1,108.000000411987,8|0,0:1|0:0,0:0:0:0:
261,324,52953,6,0,L|371:337,1,108.000000411987,8|0,0:0|0:0,0:0:0:0:
507,220,53203,2,0,L|400:233,1,108.000000411987,2|2,0:0|0:0,0:0:0:0:
435,139,53453,2,0,P|464:93|466:35,1,108.000000411987,8|0,0:0|0:0,0:0:0:0:
371,62,53703,2,0,P|335:22|285:7,1,108.000000411987,8|0,0:1|0:0,0:0:0:0:
276,115,53953,6,0,B|300:164|275:221|275:221|250:280|276:323,1,216.000000823975,6|2,0:0|0:0,0:0:0:0:
372,272,54328,1,8,0:0:0:0:
177,163,54453,2,0,P|271:208|366:166,1,216.000000823975,8|8,0:1|0:1,0:0:0:0:
276,115,54828,1,0,0:0:0:0:
186,198,54953,6,0,L|186:306,1,108.000000411987,8|0,0:0|0:0,0:0:0:0:
326,186,55203,2,0,L|326:78,1,108.000000411987,2|8,0:0|0:0,0:0:0:0:
190,215,55453,6,0,L|217:319,1,108.000000411987,0|2,0:0|0:0,0:0:0:0:
322,167,55703,2,0,L|294:62,1,108.000000411987,0|0,0:0|0:0,0:0:0:0:
115,92,55953,6,0,B|71:97|40:81|40:81|16:101,1,108.000000411987,6|0,0:1|0:0,0:0:0:0:
13,210,56203,2,0,B|36:230|36:230|67:214|111:219,1,108.000000411987,2|8,0:0|0:0,0:0:0:0:
173,131,56453,2,0,P|218:223|158:316,1,216.000000823975,0|8,0:0|0:1,0:0:0:0:
111,219,56827,1,2,0:0:0:0:
285,259,56953,6,0,L|286:366,1,108.000000411987,8|0,0:0|0:0,0:0:0:0:
389,331,57203,2,0,L|387:224,1,108.000000411987,8|8,0:1|0:0,0:0:0:0:
285,259,57453,1,2,0:0:0:0:
389,331,57578,1,8,0:0:0:0:
437,211,57703,1,8,0:1:0:0:
333,139,57828,1,0,0:0:0:0:
194,158,57953,6,0,P|114:166|84:151,1,108.000000411987,6|0,0:0|0:0,0:0:0:0:
60,54,58203,1,2,0:0:0:0:
60,54,58328,2,0,B|68:110|68:110|100:174,1,108.000000411987,8|8,0:0|0:1,0:0:0:0:
141,260,58578,1,0,0:0:0:0:
121,358,58703,2,0,B|71:339|71:339|43:293,1,108.000000411987,8|0,0:1|0:0,0:0:0:0:
162,159,58953,6,0,B|213:179|213:179|241:225,1,108.000000411987,8|0,0:0|0:0,0:0:0:0:
141,260,59203,1,2,0:0:0:0:
67,189,59328,1,8,0:0:0:0:
240,224,59453,2,0,L|346:208,1,108.000000411987,2|0,0:0|0:0,0:0:0:0:
447,249,59703,2,0,P|458:196|438:147,1,108.000000411987,8|0,0:1|0:0,0:0:0:0:
358,32,59953,6,0,L|255:-1,1,108.000000411987,6|0,0:1|0:0,0:0:0:0:
201,82,60203,2,0,L|304:115,1,108.000000411987,8|0,0:0|0:0,0:0:0:0:
211,171,60453,1,2,0:0:0:0:
211,171,60536,1,10,0:0:0:0:
211,171,60619,2,0,L|117:140,1,72.0000002746582,2|8,0:0|0:1,0:0:0:0:
108,63,60828,1,0,0:0:0:0:
12,88,60953,6,0,P|1:140|15:192,1,108.000000411987,8|0,0:0|0:0,0:0:0:0:
12,295,61203,1,2,0:0:0:0:
117,254,61328,1,2,0:0:0:0:
223,275,61453,2,0,B|258:285|258:285|293:277|293:277|329:283,1,108.000000411987,8|0,0:0|0:0,0:0:0:0:
259,199,61703,1,8,0:1:0:0:
301,361,61828,1,0,0:0:0:0:
420,315,61953,6,0,B|432:282|424:260|424:260|417:241|427:206,1,108.000000411987,6|0,0:0|0:0,0:0:0:0:
432,101,62203,1,2,0:0:0:0:
349,32,62328,2,0,P|325:84|330:137,2,108.000000411987,8|8|0,0:0|0:1|0:0,0:0:0:0:
242,37,62703,1,8,0:1:0:0:
186,129,62828,1,0,0:0:0:0:
91,54,62953,6,0,B|103:87|95:109|95:109|88:128|98:163,1,108.000000411987,8|0,0:0|0:0,0:0:0:0:
103,268,63203,1,8,0:1:0:0:
124,373,63328,1,2,0:0:0:0:
20,337,63453,2,0,P|-4:285|1:232,1,108.000000411987,8|2,0:0|0:0,0:0:0:0:
124,373,63703,1,0,0:0:0:0:
228,341,63828,1,0,0:0:0:0:
389,226,63953,6,0,L|290:226,1,95.9999970703126,6|0,0:1|0:0,0:0:0:0:
205,268,64203,2,0,P|204:176|281:126,1,191.999994140625,8|2,0:0|0:0,0:0:0:0:
377,86,64578,1,8,0:0:0:0:
276,28,64703,2,0,B|239:16|219:22|219:22|193:28|159:17,1,120.000004577637,8|8,0:1|0:0,0:0:0:0:
115,35,64890,1,0,0:0:0:0:
93,65,64953,6,0,B|80:108|80:108|83:162,2,92.0000017547608,8|8|8,0:0|0:0|0:1,0:0:0:0:
161,126,65328,1,2,0:0:0:0:
6,189,65453,2,0,P|1:233|10:284,1,92.0000017547608,8|8,0:0|0:1,0:0:0:0:
179,344,65703,2,0,P|186:298|181:253,1,92.0000017547608,2|0,0:0|0:0,0:0:0:0:
122,185,65953,6,0,P|203:161|267:215,1,176.000005371094,6|0,0:0|0:0,0:0:0:0:
181,253,66328,1,10,0:0:0:0:
262,310,66453,2,0,B|305:329|349:310|349:310|393:290|439:308,1,176.000005371094,0|10,0:0|0:0,0:0:0:0:
394,382,66828,1,0,0:0:0:0:
308,233,66953,6,0,P|300:153|318:54,2,176.000005371094,8|0|0,0:1|0:0|0:0,0:0:0:0:
396,225,67578,2,0,P|437:217|487:224,2,88.000002685547,0|10|0,0:0|0:0|0:0,0:0:0:0:
257,317,67953,6,0,B|205:282|209:217|209:217|173:268,1,176.000005371094,6|0,0:1|0:0,0:0:0:0:
308,233,68328,1,10,0:0:0:0:
254,54,68453,2,0,B|305:88|301:153|301:153|337:102,1,176.000005371094,0|10,0:0|0:0,0:0:0:0:
203,138,68828,1,0,0:0:0:0:
203,138,68953,6,0,B|149:142|149:142|94:115|94:115|33:116,2,176.000005371094,8|2|0,0:1|0:0|0:0,0:0:0:0:
310,286,69703,1,10,0:0:0:0:
376,195,69828,1,0,0:0:0:0:
203,251,69953,5,6,0:0:0:0:
310,104,70078,1,8,0:0:0:0:
203,138,70203,2,0,P|124:158|184:53,1,276.000005264282,8|8,0:1|0:0,0:0:0:0:
297,64,70703,6,0,L|363:57,1,60.0000022888184,0|10,0:0|0:0,0:0:0:0:
492,145,70953,6,0,L|333:161,1,160,6|0,0:0|0:0,0:0:0:0:
403,305,71453,6,0,L|483:298,1,80,2|0,0:0|0:0,0:0:0:0:
256,192,71953,12,0,73828,0:0:0:0:
117,123,73953,6,0,B|134:80|134:80|134:22,2,88.000002685547,8|0|2,0:0|0:0|0:0,0:0:0:0:
97,208,74328,2,0,P|100:266|202:324,1,176.000005371094,10|0,0:0|0:0,0:0:0:0:
275,298,74703,1,8,0:1:0:0:
359,324,74828,1,0,0:0:0:0:
294,215,74953,6,0,P|337:224|380:213,1,88.000002685547,8|0,0:0|0:0,0:0:0:0:
248,140,75203,2,0,P|218:172|207:214,1,88.000002685547,2|10,0:0|0:0,0:0:0:0:
336,137,75453,2,0,P|322:95|292:64,2,88.000002685547,0|0|8,0:0|0:0|0:1,0:0:0:0:
248,141,75828,1,0,0:0:0:0:
193,210,75953,6,0,B|176:253|176:253|176:311,2,88.000002685547,6|0|0,0:0|0:0|0:0,0:0:0:0:
248,141,76328,2,0,P|245:83|143:25,1,176.000005371094,0|0,0:0|0:0,0:0:0:0:
85,80,76703,1,0,0:0:0:0:
10,32,76828,1,2,0:0:0:0:
85,167,76953,6,0,L|84:258,1,88.000002685547,10|0,0:0|0:0,0:0:0:0:
82,343,77203,1,8,0:1:0:0:
157,298,77328,2,0,P|196:326|244:322,2,88.000002685547,10|0|8,0:0|0:0|0:1,0:0:0:0:
223,215,77703,1,10,0:0:0:0:
320,240,77828,1,0,0:0:0:0:
320,240,77890,1,0,0:0:0:0:
320,240,77953,6,0,P|320:280|346:330,1,88.000002685547,6|0,0:0|0:0,0:0:0:0:
304,128,78203,2,0,P|347:127|386:108,1,88.000002685547,0|10,0:0|0:0,0:0:0:0:
192,144,78453,2,0,P|192:104|166:54,1,88.000002685547,0|0,0:0|0:0,0:0:0:0:
207,255,78702,2,0,P|164:256|125:275,1,88.000002685547,10|0,0:0|0:0,0:0:0:0:
376,183,78953,6,0,P|373:143|349:112,1,80,6|8,0:0|0:1,0:0:0:0:
146,129,79328,6,0,P|202:75|280:68,1,160,10|0,0:0|0:0,0:0:0:0:
363,264,79703,6,0,P|277:339|167:305,1,240.000009155274,6|0,0:0|0:0,0:0:0:0:
256,192,80453,5,6,0:0:0:0:
256,192,80578,12,0,83453,0:2:0:0:
