osu file format v14

[General]
AudioFilename: audio.mp3
AudioLeadIn: 0
PreviewTime: 32953
Countdown: 0
SampleSet: None
StackLeniency: 0.7
Mode: 0
LetterboxInBreaks: 0
EpilepsyWarning: 1
WidescreenStoryboard: 1

[Editor]
Bookmarks: 9953,13953,17953,21953,25953,29953,32953,33953,49953,65953
DistanceSpacing: 0.8
BeatDivisor: 4
GridSize: 8
TimelineZoom: 1.8

[Metadata]
Title:Touhou Hisouten
TitleUnicode:東方緋想天
Artist:Akiyama Uni
ArtistUnicode:あきやまうに
Creator:sahuang
Version:Easy
Source:東方Project
Tags:Exile- Narcissu Lily Bread Frey LunaSaika 09kami FreeSongs th10.5 fxt tasofro twilight frontier 黄昏フロンティア u2 zun scarlet weather rhapsody jun
BeatmapID:975516
BeatmapSetID:455069

[Difficulty]
HPDrainRate:3
CircleSize:3
OverallDifficulty:3
ApproachRate:3
SliderMultiplier:1.4
SliderTickRate:1

[Events]
//Background and Video events
0,0,"4.jpg",0,0
//Break Periods
//Storyboard Layer 0 (Background)
//Storyboard Layer 1 (Fail)
//Storyboard Layer 2 (Pass)
//Storyboard Layer 3 (Foreground)
//Storyboard Sound Samples

[TimingPoints]
935,697.674418604651,4,2,0,40,1,0
7911,789.473684210526,4,2,0,40,1,0
8503,934.579439252336,4,2,0,40,1,0
9203,1500,4,2,0,40,1,0
9953,500,4,3,0,55,1,0
13953,-100,4,3,0,50,0,0
33953,-100,4,3,0,60,0,1
48953,-100,4,3,0,55,0,0
49953,-100,4,3,0,60,0,1
65953,-100,4,3,0,55,0,0
69953,-100,4,3,0,40,0,0
70953,-100,4,3,0,55,0,0
71953,-100,4,3,0,40,0,0
79328,-100,4,3,0,60,0,0
79703,-100,4,3,0,80,0,0
80453,-100,4,2,0,60,0,0
80953,-100,4,2,0,50,0,0
81453,-100,4,2,0,40,0,0
81953,-100,4,2,0,30,0,0
82453,-100,4,2,0,20,0,0
82953,-100,4,2,0,10,0,0
83453,-100,4,2,0,5,0,0

[Colours]
Combo1 : 98,255,176
Combo2 : 245,142,73
Combo3 : 98,176,255
Combo4 : 226,148,231

[HitObjects]
147,319,935,6,0,P|73:209|144:98,2,280,2|2|2,0:0|0:0|0:0,0:0:0:0:
371,319,5121,1,2,0:0:0:0:
253,128,6516,6,0,P|141:56|31:130,1,280,2|2,0:0|0:0,0:0:0:0:
397,66,9953,6,0,L|249:108,1,140,4|0,0:2|0:0,0:0:0:0:
231,211,10953,2,0,L|365:172,1,140,4|0,0:0|0:0,0:0:0:0:
458,234,11953,2,0,P|472:303|442:374,1,140,4|0,0:0|0:0,0:0:0:0:
363,292,12953,1,4,0:0:0:0:
267,350,13453,1,0,0:0:0:0:
160,316,13953,6,0,L|25:354,1,140,4|0,0:0|0:0,0:0:0:0:
54,245,14953,2,0,L|189:207,1,140,4|0,0:0|0:0,0:0:0:0:
287,154,15953,2,0,P|315:86|298:20,1,140,4|0,0:0|0:0,0:0:0:0:
201,77,16953,1,2,0:0:0:0:
97,35,17453,1,4,0:0:0:0:
27,122,17953,6,0,B|19:162|19:162|32:264,1,140,4|0,0:0|0:0,0:0:0:0:
94,353,18953,1,4,0:0:0:0:
194,303,19453,1,0,0:0:0:0:
292,355,19953,2,0,P|361:354|418:309,1,140,4|0,0:0|0:0,0:0:0:0:
459,209,20953,1,4,0:0:0:0:
377,131,21453,1,0,0:0:0:0:
272,172,21953,6,0,B|244:199|244:199|257:300,2,140,4|0|4,0:0|0:0|0:0,0:0:0:0:
377,131,23453,1,0,0:0:0:0:
460,210,23953,2,0,B|472:310|472:310|444:337,2,140,4|0|4,0:0|0:0|0:0,0:0:0:0:
377,131,25453,1,0,0:0:0:0:
272,172,25953,6,0,P|207:192|144:166,1,140,4|0,0:0|0:0,0:0:0:0:
148,53,26953,2,0,P|213:32|276:59,1,140,4|0,0:0|0:0,0:0:0:0:
360,133,27953,2,0,B|402:122|402:122|444:144|501:134,2,140,4|0|4,0:0|0:0|0:0,0:0:0:0:
307,232,29453,1,0,0:0:0:0:
219,302,29953,6,0,P|153:283|116:223,1,140,4|0,0:0|0:0,0:0:0:0:
113,113,30953,2,0,P|149:56|215:37,1,140,4|0,0:0|0:0,0:0:0:0:
327,38,31953,2,0,P|392:56|429:113,1,140,4|0,0:0|0:0,0:0:0:0:
424,226,32953,1,4,0:0:0:0:
349,309,33453,1,2,0:0:0:0:
252,253,33953,6,0,B|212:241|212:241|111:262,1,140,4|0,0:2|0:0,0:0:0:0:
59,163,34953,2,0,B|99:175|99:175|195:155,1,140,4|0,0:0|0:0,0:0:0:0:
268,70,35953,2,0,P|339:46|406:71,2,140,4|0|4,0:0|0:0|0:0,0:0:0:0:
336,158,37453,1,0,0:0:0:0:
405,247,37953,6,0,P|341:271|275:252,1,140,4|0,0:0|0:0,0:0:0:0:
184,186,38953,2,0,P|160:250|179:316,1,140,4|0,0:0|0:0,0:0:0:0:
283,359,39953,1,4,0:0:0:0:
367,285,40453,1,0,0:0:0:0:
448,361,40953,2,0,P|479:301|468:233,1,140,4|0,0:0|0:0,0:0:0:0:
411,134,41953,6,0,P|346:161|260:147,1,140,4|0,0:0|0:0,0:0:0:0:
189,86,42953,1,4,0:0:0:0:
83,124,43453,1,0,0:0:0:0:
108,233,43953,2,0,P|74:298|90:369,2,140,4|0|4,0:0|0:0|0:0,0:0:0:0:
186,312,45453,6,0,L|272:312,2,70,0|2|4,0:0|0:2|0:0,0:0:0:0:
223,206,46453,2,0,L|309:206,2,70,0|2|4,0:0|0:2|0:0,0:0:0:0:
183,101,47453,2,0,L|269:101,2,70,0|0|2,0:0|0:0|0:0,0:0:0:0:
76,135,48453,1,0,0:0:0:0:
18,231,48953,2,0,P|55:291|122:310,1,140,6|6,0:0|0:0,0:0:0:0:
214,252,49953,6,0,B|254:240|254:240|355:261,1,140,4|0,0:2|0:0,0:0:0:0:
418,171,50953,2,0,B|378:183|378:183|282:163,1,140,4|0,0:0|0:0,0:0:0:0:
246,56,51953,2,0,B|175:32|175:32|108:57,2,140,4|0|4,0:0|0:0|0:0,0:0:0:0:
179,146,53453,1,0,0:0:0:0:
112,235,53953,6,0,B|176:259|176:259|244:239,1,140
332,168,54953,2,0,P|356:232|337:298,1,140,4|0,0:0|0:0,0:0:0:0:
239,354,55953,1,4,0:0:0:0:
154,280,56453,1,0,0:0:0:0:
71,355,56953,2,0,P|40:295|51:227,1,140,4|0,0:0|0:1,0:0:0:0:
99,124,57953,6,0,P|164:151|250:137,1,140,4|0,0:0|0:0,0:0:0:0:
319,73,58953,1,4,0:0:0:0:
424,111,59453,1,0,0:0:0:0:
409,222,59953,2,0,P|437:289|427:358,2,140,4|0|4,0:0|0:0|0:0,0:0:0:0:
309,171,61453,1,0,0:0:0:0:
215,233,61953,6,0,P|136:138|243:79,2,280,4|4|4,0:0|0:0|0:0,0:0:0:0:
430,172,64953,2,0,P|445:236|424:308,1,140,6|6,0:0|0:0,0:0:0:0:
314,325,65953,6,0,P|240:305|181:324,1,140,4|0,0:2|0:0,0:0:0:0:
81,374,66953,1,4,0:0:0:0:
18,280,67453,1,0,0:0:0:0:
61,176,67953,2,0,P|41:117|78:39,1,140,4|0,0:0|0:0,0:0:0:0:
156,116,68953,1,4,0:0:0:0:
242,45,69453,1,0,0:0:0:0:
339,100,69953,6,0,B|371:162|346:235|346:235|319:308|352:373,1,280,4|4,0:2|0:1,0:0:0:0:
438,301,71453,1,4,0:2:0:0:
256,192,71953,12,4,75953,0:0:0:0:
344,266,77953,6,0,P|288:304|218:301,1,140,4|0,0:0|0:0,0:0:0:0:
256,192,78953,2,0,P|249:141|265:92,2,105,4|4|4,0:2|0:2|0:2,0:0:0:0:
256,192,80453,12,0,83453,0:0:0:0:
